osu file format v9

[General]
AudioFilename: BoA - soundscape.mp3
AudioLeadIn: 0
PreviewTime: 69183
Countdown: 0
SampleSet: Soft
StackLeniency: 0.7
Mode: 0
LetterboxInBreaks: 1

[Editor]
DistanceSpacing: 1.4
BeatDivisor: 4
GridSize: 16

[Metadata]
Title:soundscape
Artist:BoA
Creator:S_h_i_a
Version:Normal
Source:
Tags:Everlasting Colin_Hou

[Difficulty]
HPDrainRate:1
CircleSize:3
OverallDifficulty:4
ApproachRate:4
SliderMultiplier:2
SliderTickRate:1

[Events]
//Background and Video events
0,0,"bg1.jpg"
//Break Periods
2,67482,67652
2,95791,101244
2,135088,135258
//Storyboard Layer 0 (Background)
//Storyboard Layer 1 (Fail)
//Storyboard Layer 2 (Pass)
//Storyboard Layer 3 (Foreground)
//Storyboard Sound Samples
//Background Colour Transformations
3,100,163,162,255

[TimingPoints]
1367,845.070422535211,4,2,1,86,1,0

[Colours]
Combo1 : 255,150,0
Combo2 : 193,132,132
Combo3 : 90,169,248
Combo4 : 218,82,160

[HitObjects]
256,192,14888,12,0,16578
256,112,17423,5,0
256,256,17845,1,0
256,192,18268,12,0,20803
112,96,21648,5,0
384,96,22493,2,0,B|432:192|384:288,1,200
256,192,24183,12,0,27564
144,144,28409,5,2
256,64,28831,1,0
384,112,29254,2,0,B|480:208|384:288,1,200
288,176,30521,2,0,B|240:64|336:0,1,200,0|2
448,80,31789,6,0,B|416:176|304:224,2,200
384,48,33690,1,0
288,144,34113,5,0
224,144,34324,2,0,B|176:192,2,50
224,80,34958,2,0,B|272:32,1,50
304,192,35803,6,0,B|472:192,3,150,0|2|0|2
376,312,38127,1,0
232,312,38550,6,0,B|144:312,5,50,0|0|0|2|0|2
256,192,40028,2,0,B|256:104,1,50,0|0
256,72,40451,1,0
120,72,40873,2,0,B|120:128,1,50
120,192,41296,1,0
176,240,41507,1,0
232,192,41719,1,0
280,240,41930,1,2
336,192,42141,2,0,L|424:192,1,50,0|2
336,320,42775,5,0
200,328,43197,2,0,B|88:288,1,100,2|0
96,152,44042,2,0,B|56:248,1,100,2|0
192,200,44888,1,2
272,80,45310,6,0,B|360:160,1,100
352,216,45944,2,0,B|272:304,1,100
184,192,46789,2,0,B|312:192,1,100,0|0
344,152,47423,2,0,L|296:112,1,50,0|0
264,64,47845,2,0,L|192:64,3,50,0|0|0|0
72,72,48902,6,0,B|8:104|64:184,1,100,0|2
184,136,49747,2,0,B|224:200|144:232,1,100,0|2
288,152,50592,2,0,B|266:99|202:119,1,100,0|2
64,136,51437,1,0
128,256,51859,2,0,L|192:256,1,50
136,120,52493,2,0,L|192:120,1,50
216,256,53127,2,0,B|352:256|352:88,1,200
296,88,54183,1,2
176,160,54606,1,0
88,48,55028,5,2
24,176,55451,2,0,L|24:328,1,150
96,320,56296,2,0,L|96:200,1,100
224,160,57141,1,0
224,304,57564,1,2
360,296,57986,2,0,L|360:168,1,100,0|2
448,88,58831,6,0,B|232:88,1,200,0|0
368,232,60310,2,0,B|248:336,1,150
208,280,61155,1,2
168,224,61366,2,0,L|288:120,1,150
408,72,62423,6,0,L|408:176,1,100
336,168,63057,2,0,L|336:56,1,100,0|2
256,264,64113,2,0,L|256:144,1,100,0|2
256,96,64747,2,0,B|184:96|184:184,1,100,0|2
256,192,65592,12,8,67282
192,32,68972,5,0
144,80,69183,1,0
80,112,69395,2,0,B|32:64,2,50
64,176,70028,2,0,L|216:176,1,150,2|0
288,176,70873,1,2
352,144,71085,1,0
400,96,71296,1,2
464,64,71507,5,0
416,192,71930,1,0
304,272,72352,2,0,B|232:272|208:208,1,100,0|2
80,192,73197,2,0,B|64:256|144:312,1,100,0|2
240,280,74042,1,0
240,136,74465,1,2
352,48,74888,2,0,B|424:24|440:128,1,100,0|2
360,208,75733,5,0
224,200,76155,1,2
120,104,76578,1,0
120,240,77000,1,2
120,240,77423,2,0,B|144:304|224:296,1,100,0|2
224,160,78268,6,0,B|288:152|288:240,1,100,0|2
416,264,79113,2,0,L|344:264,1,50,0|2
400,208,79535,2,0,L|344:224,1,50
368,152,79958,2,0,L|320:184,1,50,0|2
328,112,80381,2,0,L|288:160,1,50,0|2
272,80,80803,2,0,L|248:136,1,50,0|0
208,72,81226,2,0,L|216:144,1,50,0|0
152,96,81648,2,0,L|192:168,2,50,0|0|2
232,216,82493,6,0,B|24:216,1,200
144,296,83761,1,2
280,296,84183,1,0
376,192,84606,1,2
416,56,85028,6,0,L|304:56,1,100,0|2
208,144,85873,2,0,L|336:144,1,100,0|2
264,280,86719,2,0,L|360:352,1,100,0|2
264,280,87564,2,0,L|176:344,1,100,0|2
96,232,88409,1,0
176,112,88831,1,2
240,240,89254,6,0,B|312:240|360:136|328:80|280:64,1,200,0|0
200,176,90521,1,2
96,88,90944,2,0,B|96:216,1,100,0|2
96,328,91789,6,0,L|216:328,1,100,0|2
336,208,92634,2,0,B|304:272,2,50,0|0|0
336,144,93268,2,0,B|320:96,1,50,2|0
248,104,93690,2,0,B|248:248|104:248,1,200,2|0
128,104,94958,2,0,B|32:104|32:240,1,150,0|2
40,40,102564,5,2
88,88,102775,2,0,B|152:88,1,50
40,184,103409,1,2
88,232,103620,2,0,B|152:232,1,50
256,304,104254,1,2
312,256,104465,2,0,B|392:256,1,50
296,128,105099,1,2
336,72,105310,2,0,B|440:72,1,100,0|2
400,208,106155,5,0
336,240,106366,1,0
336,168,106578,1,0
272,200,106789,2,0,L|160:200,1,100
32,208,107634,2,0,L|32:144,1,50,0|0
104,152,108057,2,4,L|104:216,1,50,0|0
176,216,108479,2,0,B|176:152,1,50
248,152,108902,2,0,L|248:224,1,50,0|0
344,104,109535,6,0,B|344:208|416:288,1,200,0|2
424,144,110803,1,2
336,32,111226,2,0,L|208:32,1,100,2|0
232,176,112071,1,0
312,288,112493,5,2
456,288,112916,2,0,L|464:224,1,50
360,144,113550,2,0,B|328:48|208:32,1,200,2|0
176,96,114606,2,0,B|240:128,2,50,0|0|2
144,160,115240,1,0
176,224,115451,2,0,B|240:192,2,50,0|0|2
344,168,116296,5,0
416,168,116507,2,0,L|416:48,1,100,0|2
488,192,117352,2,0,B|488:264|384:256,1,100,0|2
288,256,118197,1,0
144,248,118620,2,0,B|208:160,1,100
256,192,119676,12,0,122212
80,32,123268,6,0,B|80:152,1,100,0|2
80,200,123902,2,0,B|80:332,1,100
256,184,124958,2,0,B|256:112|328:112,1,100,0|2
384,112,125592,2,0,B|384:40|312:40,1,100,0|0
256,160,126437,1,0
120,192,126859,1,0
256,232,127282,1,0
392,192,127704,5,2
392,120,127916,1,0
392,120,128127,1,0
328,96,128338,2,4,L|248:64,1,50,0|0
216,56,128761,1,2
216,56,128972,1,0
216,56,129183,2,0,L|144:56,1,50,0|0
80,168,129817,5,0
120,224,130028,2,0,B|224:224,1,100
264,168,130662,2,0,B|384:168,1,100,0|2
504,328,131719,2,0,B|400:328,1,100
368,272,132352,1,0
240,328,132775,1,2
256,192,132986,12,0,134888
256,104,136578,5,2
120,128,137000,2,0,B|152:184,1,50
176,232,137423,1,0
240,200,137634,1,2
368,136,138057,2,0,L|296:280,1,150,0|2
440,272,139113,1,0
440,136,139535,1,2
344,32,139958,2,0,B|200:48,1,100
104,72,140803,1,2
56,200,141226,2,0,B|184:280|216:104,1,200
328,64,142493,2,0,B|400:104,2,50,0|0|2
264,192,143338,6,0,B|360:240,1,100
480,304,144183,1,0
344,328,144606,1,0
208,296,145028,1,2
208,296,145240,1,0
208,296,145451,1,0
104,200,145873,6,0,B|176:104,1,100
256,16,146719,1,2
344,128,147141,2,0,B|408:216,1,100
264,184,147986,1,0
128,136,148409,1,2
128,208,148620,1,0
128,136,148831,1,0
264,184,149254,2,0,L|368:184,1,100,0|2
464,280,150099,6,0,B|376:280,1,50
432,208,150521,2,0,B|504:208,1,50
480,136,150944,2,0,B|320:104,1,150
280,56,151789,2,0,B|168:56,1,100,0|2
40,56,152634,2,0,B|-8:112|56:184,1,100
80,280,153479,2,0,B|136:280,1,50
152,216,153902,2,0,B|96:216,1,50
120,152,154324,2,0,B|280:152,1,150
280,80,155169,2,0,B|176:80,1,100,0|2
40,80,156014,2,0,B|40:208,1,100
144,272,156859,6,0,B|56:272,1,50
120,208,157282,2,0,B|200:208,1,50
184,144,157704,2,0,B|104:144,1,50
216,32,158338,2,0,B|328:32,1,100
384,56,158972,1,2
472,168,159395,2,0,B|480:240|392:256,1,100
296,184,160240,5,0
160,184,160662,1,0
192,48,161085,2,0,B|280:48,1,50
360,120,161719,1,2
224,136,162141,6,0,B|160:160|144:264|240:336|344:296|360:184|304:144,1,350
