osu file format v9

[General]
AudioFilename: BoA - soundscape.mp3
AudioLeadIn: 0
PreviewTime: 69183
Countdown: 0
SampleSet: Soft
StackLeniency: 0.7
Mode: 0
LetterboxInBreaks: 1

[Editor]
DistanceSpacing: 1.5
BeatDivisor: 8
GridSize: 8

[Metadata]
Title:soundscape
Artist:BoA
Creator:S_h_i_a
Version:Hard
Source:
Tags:Everlasting Colin_Hou

[Difficulty]
HPDrainRate:2
CircleSize:4
OverallDifficulty:7
ApproachRate:7
SliderMultiplier:2.7
SliderTickRate:1

[Events]
//Background and Video events
0,0,"bg1.jpg"
//Break Periods
2,67482,68072
2,95791,101664
//Storyboard Layer 0 (Background)
//Storyboard Layer 1 (Fail)
//Storyboard Layer 2 (Pass)
//Storyboard Layer 3 (Foreground)
//Storyboard Sound Samples
//Background Colour Transformations
3,100,163,162,255

[TimingPoints]
1367,845.070422535211,4,2,1,60,1,0
21648,-100,4,2,1,0,0,0
23338,-100,4,2,1,40,0,0
24183,-100,4,2,1,60,0,0
25028,-100,4,2,1,0,0,0
27564,-100,4,2,1,0,0,0
27775,-100,4,2,1,60,0,0
65592,-100,4,2,1,0,0,0
67282,-100,4,2,1,0,0,0
68972,-100,4,2,1,60,0,0
119676,-100,4,2,1,0,0,0
123057,-100,4,2,1,0,0,0
123268,-100,4,2,1,60,0,0
132352,-200,4,2,1,60,0,0
132775,-100,4,2,1,60,0,0
133197,-100,4,2,1,0,0,0
135733,-100,4,2,1,40,0,0
136578,-100,4,2,1,60,0,0

[Colours]
Combo1 : 255,173,51
Combo2 : 117,201,251
Combo3 : 180,248,185
Combo4 : 255,66,89

[HitObjects]
56,72,14888,1,0
160,80,15099,1,2
216,160,15310,2,0,B|240:184|248:224,1,67.5,0|2
160,272,15733,2,0,B|216:320|328:304|368:232,1,202.5,0|2
416,192,16578,1,0
312,192,16789,2,0,B|224:192,1,67.5,2|0
144,192,17212,1,2
40,192,17423,5,0
464,192,17845,1,0
360,224,18268,6,0,B|368:192|360:152,1,67.5,0|2
144,160,18690,2,0,B|136:200|144:232,1,67.5,0|2
352,296,19113,2,0,B|408:192|344:96,1,202.5
256,56,19958,2,0,B|256:128,3,67.5,0|2|0|2
256,224,20803,2,0,B|256:368,1,135,0|0
256,192,21648,12,2,23338
192,192,24183,6,0,B|256:224|256:160|320:192,1,135
256,192,25028,12,0,27564
256,192,28197,5,0
232,288,28409,2,0,B|120:232|112:136,1,202.5
208,112,29254,2,0,B|320:104|376:216,1,202.5
424,120,30099,6,0,B|464:192|424:264,2,135
328,104,31155,1,2
248,168,31366,2,0,B|248:208|272:240,1,67.5,0|0
360,192,31789,6,0,B|360:336,2,135
288,120,32845,2,0,B|232:80,1,67.5,2|0
432,120,33268,2,0,B|504:64,1,67.5,0|0
432,272,33690,2,0,B|488:312,1,67.5,2|0
288,272,34113,2,0,B|232:312,2,67.5,0|0|0
256,176,34747,6,0,B|256:96,1,67.5,0|2
256,8,35169,1,0
256,8,35381,1,0
256,8,35592,1,0
48,40,35803,5,0
120,112,36014,2,0,B|184:144|256:112,1,135
352,144,36648,1,2
304,232,36859,2,0,B|237:261|173:229,1,135
104,160,37493,1,2
160,80,37705,1,0
256,56,37916,1,0
344,112,38127,1,0
400,192,38338,1,2
256,296,38550,6,0,B|304:296|328:264,1,67.5
256,200,38972,2,0,B|208:200|184:168,1,67.5,0|2
224,80,39395,2,0,B|296:80,2,67.5,0|0|0
136,192,40028,1,2
224,304,40240,2,0,B|296:304,1,67.5,0|0
344,304,40557,1,8
464,192,40874,5,2
464,192,41085,2,0,B|392:192,1,67.5,0|0
344,192,41402,1,8
408,72,41719,1,0
408,72,41930,5,0
328,136,42141,1,0
232,168,42352,1,0
136,128,42564,1,0
40,96,42775,1,0
40,96,43197,6,0,B|72:32|152:16,1,135
240,64,43831,1,2
200,160,44043,2,0,B|168:216|88:232,1,135
16,296,44676,2,0,B|24:344|72:352,1,67.5,2|0
160,248,45099,1,2
272,352,45310,6,0,B|336:288|336:208,1,135
424,256,45944,2,0,B|440:184|416:112,1,135
248,232,46789,2,0,B|216:208|224:160,1,67.5,2|0
248,72,47212,1,0
248,72,47317,1,8
248,72,47423,1,0
144,56,47634,1,0
144,56,47845,1,0
72,128,48057,5,0
88,176,48162,1,8
112,224,48268,1,0
216,272,48479,1,2
216,272,48690,5,0
288,192,48902,2,0,B|224:176|192:96,1,135,0|2
296,104,49536,1,8
360,184,49747,2,0,B|400:120|488:104,1,135,2|0
448,208,50381,1,0
328,240,50592,2,0,B|336:312|280:376,1,135,0|2
224,288,51226,1,8
224,288,51437,1,2
192,192,51648,2,0,B|280:192,1,67.5,0|2
264,88,52071,6,0,B|336:120|344:224,2,135
408,264,53127,6,0,B|448:240|448:184,1,67.5
448,104,53550,2,0,B|432:64|376:56,1,67.5,2|0
296,64,53972,1,2
272,104,54078,1,8
232,128,54183,1,0
64,192,54395,6,8,B|128:232,1,67.5,0|0
360,256,54817,1,2
192,88,55028,2,0,B|112:48,1,67.5,0|2
48,64,55451,1,0
48,64,55662,6,0,B|80:152|32:216,1,135
72,288,56296,2,0,B|136:256|144:168,1,135,8|0
216,104,56930,1,2
256,8,57141,1,0
296,104,57352,1,2
392,272,57775,1,0
392,272,57986,2,0,B|336:216|264:280,1,135,8|0
80,192,58831,5,0
80,192,59254,1,0
136,280,59465,1,2
192,192,59676,1,8
248,280,59888,1,2
304,192,60099,1,0
352,280,60310,5,2
456,280,60521,2,0,B|504:216|472:152,1,135,0|0
360,232,61155,5,2
440,280,61366,2,0,B|488:216|456:152,1,135,0|0
296,64,62000,5,2
296,64,62212,5,0
296,64,62423,2,0,B|232:88|160:64,1,135
72,104,63057,2,0,B|40:168|64:240,1,135,8|0
136,304,63690,1,2
136,304,63902,1,2
208,232,64113,2,0,B|160:160|216:80,1,135
312,104,64747,2,0,B|344:168|304:240,1,135,8|0
256,192,65592,12,0,67282
120,184,68972,5,0
24,152,69183,2,0,B|8:72,1,67.5,2|0
88,24,69606,2,0,B|152:48,1,67.5,0|8
168,144,70028,2,0,L|112:192,2,67.5,2|0|0
224,64,70662,1,0
312,120,70874,1,2
328,224,71085,1,0
128,208,71507,5,8
224,256,71719,1,2
328,224,71930,1,0
288,32,72352,2,0,B|368:48|416:128,1,135
480,40,72986,1,2
400,104,73197,2,0,B|416:176|352:240,1,135,8|0
264,264,73831,5,0
264,264,74043,1,0
176,216,74254,1,0
176,216,74359,1,8
176,216,74465,1,0
112,136,74676,1,0
112,136,74888,1,0
176,48,75099,2,0,B|176:80,2,33.75,0|8|0
384,40,75733,6,0,B|320:64|240:40,1,135
168,96,76366,1,2
232,176,76578,2,0,B|312:160|384:200,1,135,8|0
432,264,77212,1,2
360,328,77423,2,0,B|288:360|208:304,1,135
192,224,78057,1,2
256,56,78268,6,0,B|328:96|400:72,1,135,8|0
456,272,79113,1,0
456,272,79324,5,0
456,272,79430,1,8
456,272,79536,1,0
376,208,79747,1,2
376,208,79958,2,0,B|312:176|240:208,1,135,8|0
184,272,80592,6,0,B|104:272,1,67.5
328,272,81014,2,0,B|400:272,1,67.5,0|0
184,112,81437,2,0,B|88:112,1,67.5
328,112,81859,2,0,B|408:112,1,67.5,0|0
256,192,82282,1,2
360,192,82493,6,0,B|432:192,1,67.5
504,256,82916,2,0,B|488:336|408:336,1,135,0|8
344,264,83550,1,2
344,264,83655,1,0
344,264,83761,1,0
368,168,83972,1,2
368,168,84183,1,0
312,120,84395,1,2
256,168,84606,1,0
336,32,85028,6,0,B|264:64|184:24,1,135,8|0
104,56,85662,1,2
152,144,85874,6,0,B|176:232|104:280,1,135
96,368,86507,1,2
192,336,86719,2,0,B|256:304|336:344,1,135,8|0
256,256,87352,1,2
320,176,87564,2,0,B|256:208|184:176,1,135
384,112,88197,1,0
384,216,88409,1,0
432,304,88620,1,0
432,304,88726,1,8
432,304,88831,1,0
432,304,89254,6,0,B|480:240|440:160,1,135
448,176,89888,1,2
368,240,90099,2,0,B|328:176|368:96,1,135
360,112,90733,1,2
280,48,90944,1,0
216,120,91155,1,2
112,144,91367,1,0
312,144,91789,6,0,B|240:160|216:256,1,135,8|0
221,235,92423,1,2
256,328,92634,1,0
344,280,92845,1,2
400,192,93057,1,0
344,112,93268,1,0
256,56,93479,2,0,B|184:56,2,67.5,8|0|0
256,56,94113,2,0,B|328:56,2,67.5,2|0|2
256,104,94641,1,8
256,256,94958,6,0,B|216:288|256:328|296:288|256:232|256:208|256:136,1,202.5
128,144,102564,5,0
128,144,102775,1,0
256,72,103409,1,2
256,72,103620,1,0
376,144,104254,1,2
376,144,104465,1,0
256,192,105099,1,2
256,192,105310,1,8
256,40,106155,6,0,B|192:136|312:136|240:232,2,202.5
440,96,107635,1,0
440,96,107846,1,0
376,176,108057,2,8,B|324:176|317:109,1,67.5,0|0
440,320,108480,1,0
440,320,108691,1,0
344,288,108902,2,0,B|337:249|374:232,1,67.5,0|0
432,192,109324,1,0
432,192,109536,2,0,B|184:192,1,202.5
232,192,110381,5,2
328,40,110803,1,0
328,40,111014,1,2
328,40,111226,2,0,B|240:32|208:120,1,135
216,99,111859,1,2
312,144,112071,2,0,B|280:216|208:216,1,135,8|0
208,216,112705,1,2
248,312,112916,6,0,B|120:312,1,101.25
352,304,113550,6,0,B|408:256|384:168,1,135
488,304,114395,1,0
408,240,114606,1,0
480,168,114817,1,0
432,168,114923,1,8
392,136,115028,1,0
448,64,115240,1,0
352,32,115451,1,0
352,32,115662,2,0,B|256:32,1,67.5,0|0
192,32,116085,1,2
192,32,116296,5,0
192,32,116507,2,0,B|104:72|96:160,1,135,0|2
200,136,117141,1,8
304,96,117352,2,0,B|384:104|392:200,1,135,0|2
288,200,117986,1,0
192,232,118197,2,0,B|216:304|304:312,3,135
256,192,119676,12,0,123057
184,48,123268,6,0,B|232:112|184:184,1,135,0|2
88,168,123902,2,0,B|40:232|120:312,1,135,8|0
168,80,124536,1,2
200,176,124747,5,0
264,256,124958,2,0,B|336:224|336:152,1,135,0|2
280,80,125592,1,8
280,80,126014,1,0
88,16,126437,5,0
8,200,126859,1,0
160,328,127282,5,0
160,328,127493,1,0
256,56,127916,5,2
256,56,128127,1,0
256,160,128338,2,0,B|208:160,2,33.75,0|8|0
256,240,128761,1,2
256,240,128972,1,0
256,344,129183,2,0,B|320:344,2,33.75,0|8|0
400,280,129606,1,2
448,192,129817,5,0
448,88,130028,2,0,B|384:112|352:184,1,135,0|2
448,192,130662,2,0,B|416:264|296:280,1,135,8|0
344,272,131296,1,2
344,272,131507,1,2
336,168,131719,2,0,B|384:80|320:24,1,135
256,192,132352,2,0,B|256:272,1,67.5,8|0
256,192,133197,12,0,135733
408,48,136578,6,0,B|360:112|432:192,1,135
192,96,137212,1,2
192,96,137423,2,0,B|320:136|344:8,1,202.5,8|0
360,112,138268,1,0
360,112,138479,1,2
424,184,138690,1,0
424,184,138902,1,2
472,272,139113,2,0,B|376:256|344:360,1,135,8|0
264,360,139747,1,2
240,264,139958,6,0,B|328:176|248:64,1,202.5,0|2
160,80,140803,1,8
160,80,141014,1,0
56,120,141226,1,0
56,120,141437,1,2
56,264,141648,1,0
128,192,141859,6,0,B|208:192,1,67.5,0|0
256,56,142282,2,0,B|256:152,1,67.5,2|0
384,192,142705,2,0,B|304:192,1,67.5,0|0
256,272,143127,1,2
256,72,143338,6,0,B|256:288,1,202.5
256,352,144183,1,8
512,192,144606,1,2
256,16,145028,1,0
0,192,145451,1,2
200,184,145874,6,0,B|256:136|328:192,1,135,8|2
456,32,146719,6,0,B|352:32,1,67.5,0|2
448,112,147141,2,0,B|424:176,1,67.5
336,128,147564,2,0,B|272:144,1,67.5,0|2
352,208,147986,2,0,B|312:272,1,67.5
56,32,148409,6,0,B|160:32,1,67.5,0|2
160,64,148726,1,8
128,104,148831,2,0,B|48:104,1,67.5,0|0
112,192,149254,2,0,B|184:192,1,67.5,0|2
216,224,149571,1,8
184,264,149676,2,0,B|104:264,1,67.5,0|0
256,344,150099,6,0,B|344:320|352:248,1,135
448,248,150733,1,2
360,200,150944,2,0,B|312:120|344:56,1,135,8|0
440,56,151578,1,2
472,152,151789,2,0,B|400:176|320:128,1,135
280,64,152423,1,2
216,144,152634,2,0,B|120:168|48:128,1,135,8|0
256,344,153479,6,0,B|168:320|160:248,1,135
64,248,154113,1,2
152,200,154324,2,0,B|200:120|168:56,1,135,8|0
72,56,154958,1,2
40,152,155169,2,0,B|112:176|192:128,1,135
232,64,155803,1,2
296,144,156014,2,0,B|392:168|464:128,1,135
320,48,156859,6,0,B|256:8|192:48,2,135,0|0|8
256,128,157916,2,0,B|248:152|248:152|264:152|264:152|248:168|248:168|264:168|264:168|248:184|248:184|264:184|264:184|256:200|256:200|256:304,1,202.5
176,328,158761,1,2
112,248,158972,1,2
88,48,159395,2,0,B|168:32|216:112,1,135,8|0
256,192,160240,5,0
208,136,160451,1,2
256,192,160662,1,0
304,136,160874,1,2
256,192,161085,1,0
312,240,161296,1,2
256,192,161507,1,2
208,240,161719,1,0
256,192,161930,1,0
168,144,162141,6,0,B|160:192|176:288|256:400|320:304|344:224|344:136,1,405,0|2
256,96,163620,5,0
