osu file format v9

[General]
AudioFilename: BoA - soundscape.mp3
AudioLeadIn: 496
PreviewTime: 69183
Countdown: 0
SampleSet: Soft
StackLeniency: 0.7
Mode: 0
LetterboxInBreaks: 1

[Editor]
DistanceSpacing: 1.2
BeatDivisor: 4
GridSize: 16

[Metadata]
Title:soundscape
Artist:BoA
Creator:S_h_i_a
Version:Easy
Source:
Tags:Everlasting Colin_Hou

[Difficulty]
HPDrainRate:1
CircleSize:3
OverallDifficulty:3
ApproachRate:3
SliderMultiplier:2
SliderTickRate:1

[Events]
//Background and Video events
0,0,"bg1.jpg"
//Break Periods
2,13397,13448
2,67482,67532
2,95791,101124
//Storyboard Layer 0 (Background)
//Storyboard Layer 1 (Fail)
//Storyboard Layer 2 (Pass)
//Storyboard Layer 3 (Foreground)
//Storyboard Sound Samples
//Background Colour Transformations
3,100,163,162,255

[TimingPoints]
1367,845.070422535211,4,2,1,86,1,0
14888,-100,4,2,1,16,0,0
16578,-100,4,2,1,84,0,0
18268,-100,4,2,1,12,0,0
20803,-100,4,2,1,86,0,0
24183,-100,4,2,1,13,0,0
27564,-100,4,2,1,85,0,0

[Colours]
Combo1 : 255,150,0
Combo2 : 193,132,132
Combo3 : 90,169,248
Combo4 : 218,82,160

[HitObjects]
288,192,1367,6,0,B|384:144|480:192,2,200,0|2|0
80,304,3902,1,2
128,192,4324,1,0
240,208,4747,6,0,B|336:256|432:208,2,200,0|2|0
208,96,6859,1,0
96,80,7282,2,0,B|128:128|112:192,1,100,2|0
240,176,8127,6,0,B|352:224|368:336,2,200,0|2|0
112,176,10240,1,0
192,80,10662,1,2
320,80,11085,1,0
368,192,11507,6,0,B|304:272|176:288,2,200,0|2|0
256,192,14888,12,0,16578
256,128,17423,6,0,B|256:240,1,100
256,192,18268,12,0,20803
432,192,21648,5,0
208,96,22493,2,0,B|256:192|208:288,1,200
256,192,24183,12,0,27564
320,192,28409,5,2
256,96,28831,1,0
384,96,29254,2,0,B|480:192|384:272,2,200,8|2|8
144,80,31789,5,2
256,144,32212,1,2
368,80,32634,2,0,B|296:144|280:256,2,200,8|2|8
416,192,34747,1,0
384,304,35169,6,0,B|288:368|176:288,1,200,2|8
128,64,36859,2,0,B|240:48|336:112,1,200,2|8
352,224,38127,1,0
256,288,38550,6,0,B|168:288,2,50
144,240,39395,2,0,B|144:176,1,50
240,128,40028,2,0,B|240:64,2,50
144,192,40874,2,0,B|96:192,2,50
192,16,41930,6,0,B|304:16|352:144,1,200,2|8
256,208,43197,2,0,B|144:168,1,100,0|2
256,96,44042,2,0,B|352:64,1,100,2|8
256,144,44888,1,0
160,224,45310,6,0,B|256:272|368:224,2,200,0|8|0
80,128,47423,1,2
176,128,47845,2,0,B|304:160|352:32,1,200,0|2
400,64,48902,6,0,B|368:112|392:176,2,100,0|2|0
304,144,50169,2,0,B|272:96|192:96,2,100,2|0|2
384,240,51437,2,0,B|336:256|272:240,1,100,0|2
224,240,52071,6,0,B|112:240|64:128,2,200,0|10|0
288,128,54183,1,2
208,48,54606,1,0
96,64,55028,5,2
64,176,55451,2,0,L|64:328,2,150,0|2|0
176,128,57141,2,0,L|288:240,2,150,0|2|0
272,48,58831,6,0,B|56:48,2,200,0|8|0
176,128,60944,1,8
208,240,61366,2,0,L|288:160,1,100,0|8
448,96,62423,6,0,L|448:272,2,150
368,192,64113,2,0,L|208:192,2,150
256,192,65592,12,8,67282
352,80,68972,6,0,B|256:32|160:80,2,200,0|8|0
400,112,70874,2,0,B|448:144,2,50,2|0|2
352,144,71507,6,0,B|288:144|272:240,1,100,8|0
272,320,72352,2,0,B|200:320|176:256,1,100,0|2
80,224,73197,2,0,B|64:288|144:344,1,100,8|2
224,272,74042,1,0
288,176,74465,1,2
336,64,74888,2,0,B|408:40|424:144,1,100,0|2
336,192,75733,5,0
224,176,76155,1,2
128,96,76578,1,8
128,208,77000,1,2
16,256,77423,2,0,B|40:320|120:312,1,100,0|2
192,256,78268,6,0,B|256:248|288:320,1,100,8|2
384,240,79113,2,0,L|312:240,2,50
304,160,79958,2,0,L|256:112,2,50
192,144,80803,2,0,L|160:192,2,50
144,256,81648,2,0,L|184:328,2,50,0|0|2
240,192,82493,6,0,B|32:192,1,200,0|8
128,272,83761,1,2
240,288,84183,1,0
352,224,84606,1,2
352,112,85028,6,0,L|240:112,1,100,8|2
160,192,85873,2,0,L|288:192,1,100,0|2
256,304,86719,2,0,L|352:376,1,100,8|2
432,304,87564,2,0,L|344:368,1,100,0|2
352,240,88409,1,0
352,128,88831,1,2
352,240,89254,6,0,B|424:240|472:136|440:80|392:64,1,200,0|8
320,144,90521,1,2
224,80,90944,2,0,B|224:208,1,100,0|2
256,288,91789,6,0,L|376:288,1,100,8|2
400,176,92634,2,0,B|368:240,2,50
352,64,93479,1,0
288,64,93690,2,0,B|176:48|144:176,1,200,0|0
240,240,94958,2,0,B|256:160|352:144,1,150,0|2
224,32,102564,5,2
288,48,102775,2,0,B|416:96,2,100
416,176,104254,1,2
352,192,104465,2,0,B|256:240,2,100
160,64,106155,6,0,B|0:64,2,150,0|2|0
224,64,107634,2,0,L|272:32,2,50
224,176,108479,2,0,B|224:240,2,50
384,96,109535,6,0,B|384:200|456:280,1,200,0|2
336,256,110803,1,0
288,144,111226,2,0,L|192:80,1,100,2|0
320,32,112071,1,0
272,144,112493,5,2
368,224,112916,2,0,L|400:64,2,150,0|2|0
256,176,114606,2,0,B|208:144,2,50
256,304,115451,2,0,B|320:272,2,50,0|0|0
256,176,116296,6,0,B|160:176|80:80,2,200,0|2|0
272,352,118620,2,0,B|336:264,1,100
256,192,119676,12,2,122212
256,192,123268,6,0,B|256:312,1,100,0|2
320,288,123902,2,0,B|320:156,1,100
448,304,124958,2,0,B|448:232|520:232,1,100,0|2
464,176,125592,2,0,B|464:104|392:104,1,100,0|0
288,128,126437,1,0
176,160,126859,1,0
256,240,127282,1,0
288,128,127705,2,0,L|208:96,2,50
176,112,128550,2,0,L|96:144,2,50
96,336,129817,6,0,B|208:336|240:256,2,150,0|2|0
192,176,131719,2,0,B|32:176,1,150
128,256,132775,1,2
256,192,132986,12,0,134888
160,304,136578,6,0,B|256:352|352:304,2,200,0|8|0
48,256,138690,1,2
160,208,139113,6,0,B|224:208|240:112,1,100
256,32,139958,2,0,B|328:32|352:96,1,100,0|2
448,144,140803,2,0,B|464:80|384:24,1,100,0|2
304,96,141648,1,0
240,192,142071,1,2
224,304,142494,2,0,B|152:328|136:224,1,100,0|2
176,144,143339,5,0
288,192,143761,1,2
368,272,144184,1,0
416,160,144606,1,2
512,80,145029,2,0,B|488:16|408:24,1,100,0|2
336,96,145874,6,0,B|272:104|240:32,1,100,0|2
144,112,146719,2,0,L|216:112,2,50
224,192,147564,2,0,L|272:208,2,50
352,192,148409,2,0,L|376:136,2,50
272,96,149254,2,0,L|232:24,2,50,0|0|2
192,176,150099,6,0,B|400:176,1,200
416,64,151367,1,2
304,96,151789,1,0
192,64,152212,1,2
128,176,152634,6,0,L|240:176,1,100,0|2
320,256,153479,2,0,L|192:256,1,100,0|2
128,176,154325,2,0,L|32:104,1,100,0|2
160,96,155170,2,0,L|248:32,1,100,0|2
224,160,156015,1,0
208,272,156437,1,2
112,192,156860,6,0,B|40:192|-8:296|24:352|72:368,1,200,0|0
144,288,158127,1,2
256,224,158550,2,0,B|256:96,1,100,0|2
176,32,159395,6,0,L|56:32,1,100,0|2
128,144,160240,2,0,B|128:80,2,50
240,128,161085,2,0,B|240:32|352:32|352:128,1,200
320,176,162141,6,0,B|266:218|283:322|397:361|483:291|464:179|398:158,1,350
