osu file format v12

[General]
AudioFilename: Winter Love.mp3
AudioLeadIn: 1500
PreviewTime: 74935
Countdown: 0
SampleSet: Soft
StackLeniency: 0.7
Mode: 0
LetterboxInBreaks: 1
EpilepsyWarning: 1
WidescreenStoryboard: 1

[Editor]
DistanceSpacing: 1.2
BeatDivisor: 8
GridSize: 4

[Metadata]
Title:Winter Love
TitleUnicode:Winter Love
Artist:BoA
ArtistUnicode:BoA
Creator:Hinsvar
Version:Centuries
Source:
Tags:Kwon 권보아 Beat of Angel Made in Twenty (20) Xinely Setsurei
BeatmapID:332242
BeatmapSetID:130719

[Difficulty]
HPDrainRate:5
CircleSize:4
OverallDifficulty:5
ApproachRate:7
SliderMultiplier:2
SliderTickRate:2

[Events]
//Background and Video events
0,0,"winter couple.jpg",0,0
//Break Periods
2,109927,122160
2,274926,279659
//Storyboard Layer 0 (Background)
//Storyboard Layer 1 (Fail)
//Storyboard Layer 2 (Pass)
//Storyboard Layer 3 (Foreground)
//Storyboard Sound Samples
//Background Colour Transformations
3,100,163,162,255

[TimingPoints]
-1939,833.333333333333,4,2,1,30,1,0
1394,-100,4,2,1,50,0,0
18060,-100,4,2,1,40,0,0
48060,-100,4,2,1,50,0,0
74727,-133.333333333333,4,2,1,30,0,0
75560,-100,4,2,1,40,0,0
76394,833.333333333333,4,2,1,75,1,1
76394,-80,4,2,1,75,0,1
88894,-80,4,2,1,65,0,0
89727,-80,4,2,1,75,0,1
109727,-100,4,2,1,50,0,0
153060,-100,4,2,1,60,0,0
179727,-133.333333333333,4,2,1,30,0,0
180352,-100,4,2,1,40,0,0
181393,833.333333333333,4,2,1,75,1,1
181393,-80,4,2,1,75,0,1
193893,-80,4,2,1,65,0,0
194726,-80,4,2,1,75,0,1
214726,-100,4,2,1,60,0,0
271393,-133.333333333333,4,2,1,50,0,0
274726,-133.333333333333,4,2,1,40,0,0
280559,-133.333333333333,4,2,1,50,0,0
281393,-80,4,2,1,75,0,1
287226,-80,4,2,1,65,0,0
288059,-80,4,2,1,75,0,1
308059,-100,4,2,1,60,0,0
311392,-100,4,2,1,50,0,0
324726,-100,4,2,1,40,0,0
326392,-100,4,2,1,35,0,0
328059,-100,4,2,1,30,0,0
329309,-100,4,2,1,20,0,0
330559,-100,4,2,1,10,0,0
331392,-100,4,2,1,5,0,0

[Colours]
Combo1 : 112,174,252
Combo2 : 121,121,240
Combo3 : 0,128,255
Combo4 : 0,255,255

[HitObjects]
112,292,560,2,0,P|164:284|216:292,1,100,2|2,0:0|0:0,0:0:0:0:
256,312,1185,1,0,0:0:0:0:
304,328,1394,6,0,P|380:288|412:176,1,200,2|0,0:0|0:0,0:0:0:0:
404,136,2435,1,0,0:0:0:0:
380,92,2644,2,0,B|320:72|240:136|176:112,1,200,2|0,0:0|0:0,0:0:0:0:
184,114,3894,2,0,P|168:160|176:220,1,100,0|2,0:0|0:0,0:0:0:0:
220,224,4519,1,0,0:0:0:0:
268,220,4727,6,0,P|340:244|360:364,1,200,2|2,0:0|0:0,0:0:0:0:
204,340,5977,5,2,0:0:0:0:
208,336,6810,1,2,0:0:0:0:
240,220,7227,6,0,P|244:188|228:160,1,50,2|0,0:0|0:0,0:0:0:0:
212,128,7644,1,2,0:0:0:0:
168,104,7852,1,0,0:0:0:0:
120,112,8060,6,0,P|64:164|56:236,1,150,2|0,0:0|0:0,0:0:0:0:
76,280,8894,1,2,0:0:0:0:
188,324,9310,2,0,L|184:376,2,50,2|0|0,0:0|0:0|0:0,0:0:0:0:
296,272,10144,1,2,0:0:0:0:
376,180,10560,1,0,0:0:0:0:
376,128,10769,1,0,0:0:0:0:
352,84,10977,2,0,P|328:76|288:76,1,50,2|0,0:0|0:0,0:0:0:0:
256,92,11394,6,0,P|220:188|276:264,1,200,2|2,0:0|0:0,0:0:0:0:
388,284,12644,2,0,L|452:288,2,50,0|2|0,0:0|0:0|0:0,0:0:0:0:
328,180,13477,1,0,0:0:0:0:
156,280,13894,6,0,P|112:196|148:100,1,200,2|2,0:0|0:0,0:0:0:0:
256,192,14935,12,2,17227,0:0:0:0:
104,240,18060,6,0,P|180:232|248:272,1,150,2|0,0:0|0:0,0:0:0:0:
280,300,18894,2,0,P|336:288|376:260,1,100,2|0,0:0|0:0,0:0:0:0:
371,144,19727,2,0,P|328:117|279:108,1,100,2|0,0:0|0:0,0:0:0:0:
168,156,20560,1,2,0:0:0:0:
108,260,20977,1,0,0:0:0:0:
256,324,21394,6,0,P|348:296|404:200,1,200,2|2,0:0|0:0,0:0:0:0:
376,96,22644,1,0,0:0:0:0:
280,24,23060,2,0,P|232:20|176:40,1,100,2|0,0:0|0:0,0:0:0:0:
116,180,23894,6,0,P|112:232|132:284,1,100,2|0,0:0|0:0,0:0:0:0:
172,296,24519,1,0,0:0:0:0:
220,280,24727,6,0,P|296:268|368:304,1,150,2|0,0:0|0:0,0:0:0:0:
360,297,25560,2,0,P|352:248|368:192,1,100,2|0,0:0|0:0,0:0:0:0:
368,80,26394,2,0,P|320:96|262:89,1,100
224,72,27019,1,0,0:0:0:0:
180,48,27227,2,0,L|120:72,2,50,2|0|0,0:0|0:0|0:0,0:0:0:0:
336,76,28060,6,0,P|382:93|414:131,1,100,2|0,0:0|0:0,0:0:0:0:
412,252,28894,2,0,P|376:292|320:308,1,100,2|0,0:0|0:0,0:0:0:0:
288,284,29519,1,0,0:0:0:0:
248,256,29727,2,0,P|168:220|84:284,1,200,2|2,0:0|0:0,0:0:0:0:
356,340,31394,6,0,P|388:300|392:240,1,100,2|0,0:0|0:0,0:0:0:0:
372,208,32019,1,0,0:0:0:0:
340,172,32227,2,0,P|292:184|240:164,1,100,2|0,0:0|0:0,0:0:0:0:
264,48,33060,2,0,P|312:36|364:56,1,100,2|0,0:0|0:0,0:0:0:0:
444,132,33894,1,2,0:0:0:0:
444,252,34310,1,0,0:0:0:0:
300,324,34727,6,0,P|236:296|144:304,1,150,2|0,0:0|0:0,0:0:0:0:
112,320,35560,2,0,P|128:272|120:208,1,100,0|2,0:0|0:0,0:0:0:0:
112,104,36394,1,0,0:0:0:0:
8,44,36810,1,0,0:0:0:0:
16,204,37227,6,0,P|60:220|124:212,1,100,2|0,0:0|0:0,0:0:0:0:
156,188,37852,1,0,0:0:0:0:
196,156,38060,6,0,P|248:160|296:188,1,100,2|0,0:0|0:0,0:0:0:0:
296,304,38894,2,0,P|252:327|203:331,1,100,2|0,0:0|0:0,0:0:0:0:
159,311,39519,1,0,0:0:0:0:
128,272,39727,2,0,P|116:176|164:84,1,200,2|2,0:0|0:0,0:0:0:0:
272,44,40977,1,0,0:0:0:0:
376,168,41394,6,0,P|424:184|476:176,2,100,2|0|2,0:0|0:0|0:0,0:0:0:0:
336,136,42435,1,0,0:0:0:0:
288,120,42644,2,0,P|260:116|224:128,1,50,0|0,0:0|0:0,0:0:0:0:
196,144,43060,2,0,P|180:196|192:252,1,100,2|0,0:0|0:0,0:0:0:0:
256,336,43894,1,0,0:0:0:0:
300,312,44102,1,2,0:0:0:0:
328,272,44310,2,0,P|328:244|316:220,1,50,0|2,0:0|0:0,0:0:0:0:
284,188,44727,6,0,P|232:176|172:188,1,100,2|0,0:0|0:0,0:0:0:0:
180,312,45560,2,0,P|232:324|292:312,1,100,2|0,0:0|0:0,0:0:0:0:
392,252,46394,1,2,0:0:0:0:
444,144,46810,2,0,P|448:88|432:40,1,100,0|2,0:0|0:0,0:0:0:0:
316,32,47644,1,0,0:0:0:0:
264,184,48060,6,0,P|356:228|448:204,1,200,2|10,3:2|0:0,0:0:0:0:
476,88,49310,1,0,0:0:0:0:
376,24,49727,2,0,P|328:20|272:36,1,100,2|0,0:0|0:0,0:0:0:0:
236,56,50352,1,0,0:0:0:0:
204,96,50560,1,8,0:0:0:0:
144,200,50977,1,0,0:0:0:0:
180,356,51394,6,0,P|204:368|244:376,2,50,0|0|0,3:0|0:0|0:0,0:0:0:0:
228,244,52227,2,0,P|280:240|340:268,1,100,8|0,0:0|0:0,0:0:0:0:
400,348,53060,1,2,0:0:0:0:
456,244,53477,2,0,L|516:252,2,50,0|0|10,0:0|0:0|0:0,0:0:0:0:
388,144,54310,1,0,0:0:0:0:
228,164,54727,6,0,B|180:228|128:232|128:232|100:312,1,200,0|10,3:0|0:0,0:0:0:0:
200,376,55977,1,0,0:0:0:0:
200,376,56185,1,0,0:0:0:0:
200,376,56394,2,0,P|252:376|304:352,1,100,2|0,0:0|0:0,0:0:0:0:
332,244,57227,1,8,0:0:0:0:
268,140,57644,1,0,0:0:0:0:
148,244,58060,6,0,P|96:240|48:212,1,100,2|0,3:2|0:0,0:0:0:0:
88,100,58894,2,0,P|140:104|188:132,1,100,8|0,0:0|0:0,0:0:0:0:
248,272,59727,5,2,0:0:0:0:
248,272,60144,2,0,L|308:260,1,50
340,288,60560,2,0,L|392:264,1,50,10|0,0:0|0:0,0:0:0:0:
432,288,60977,2,0,L|468:244,1,50
460,200,61394,6,0,B|400:152|324:160|324:160|312:88,1,200,2|2,3:2|0:0,0:0:0:0:
212,44,62644,1,0,0:0:0:0:
96,80,63060,2,0,P|68:120|84:176,1,100,2|0,0:0|0:0,0:0:0:0:
164,252,63894,1,8,0:0:0:0:
248,164,64310,1,0,0:0:0:0:
336,300,64727,6,0,P|384:304|432:284,2,100,0|0|8,3:0|0:0|0:0,0:0:0:0:
236,236,65977,2,0,P|168:268|124:348,1,150,0|2,3:0|0:0,0:0:0:0:
128,329,66810,2,0,L|72:316,1,50
24,188,67227,5,10,0:0:0:0:
24,188,67644,2,0,L|84:180,1,50
196,108,68060,6,0,P|236:124|276:176,1,100,2|0,3:2|0:0,0:0:0:0:
288,212,68685,1,0,0:0:0:0:
292,260,68894,2,0,L|248:296,2,50,8|0|0,0:0|0:0|0:0,0:0:0:0:
372,172,69727,1,2,0:0:0:0:
476,232,70144,1,0,0:0:0:0:
508,116,70560,2,0,P|496:64|460:24,1,100,8|0,0:0|0:0,0:0:0:0:
348,136,71394,6,0,P|296:144|236:128,1,100,0|0,3:0|0:0,0:0:0:0:
212,104,72019,2,0,P|204:80|208:48,1,50,0|2,0:0|0:0,0:0:0:0:
316,12,72644,1,0,0:0:0:0:
432,52,73060,2,0,P|492:116|472:228,1,200,2|2,0:0|0:0,0:0:0:0:
368,268,74310,1,0,0:0:0:0:
216,176,74727,6,0,P|180:180|124:212,1,75.0000028610231,0|2,0:0|0:0,0:0:0:0:
144,195,75560,1,10,0:0:0:0:
120,240,75769,1,0,0:0:0:0:
112,288,75977,1,0,0:0:0:0:
128,336,76185,1,0,0:0:0:0:
288,268,76394,6,0,B|360:296|404:352|404:352|412:300|436:240,1,250,4|8,0:0|0:0,0:0:0:0:
460,128,77644,2,0,P|408:104|348:128,1,125,0|2,0:0|0:0,0:0:0:0:
256,212,78477,1,0,0:0:0:0:
144,160,78894,2,0,L|156:84,2,62.5,8|0|0,0:0|0:0|0:0,0:0:0:0:
144,224,79519,1,0,0:0:0:0:
196,340,79727,6,0,P|284:376|368:320,1,187.5,2|0,0:0|0:0,0:0:0:0:
359,333,80560,2,0,P|344:276|364:216,1,125,8|0,0:0|0:0,0:0:0:0:
484,180,81394,2,0,P|503:238|488:298,1,125,2|0,0:0|0:0,0:0:0:0:
368,336,82227,1,10,0:0:0:0:
260,272,82644,2,0,P|256:236|272:200,1,62.5
420,196,83060,6,0,P|432:256|416:328,1,125,4|0,0:0|0:0,0:0:0:0:
368,348,83685,2,0,L|300:356,1,62.5,0|8,0:0|0:0,0:0:0:0:
200,280,84310,1,0,0:0:0:0:
180,220,84519,1,0,0:0:0:0:
212,164,84727,2,0,P|304:116|384:216,1,250,2|8,0:0|0:0,0:0:0:0:
320,320,85977,1,0,0:0:0:0:
196,312,86394,6,0,P|160:300|140:276,1,62.5,2|0,0:0|0:0,0:0:0:0:
120,224,86810,1,0,0:0:0:0:
132,164,87019,1,0,0:0:0:0:
172,116,87227,2,0,B|240:80|284:136|284:136|352:116|384:184,1,250,8|2,0:0|0:0,0:0:0:0:
352,308,88477,1,0,0:0:0:0:
160,360,88894,6,0,L|124:368,4,31.25,10|2|0|0|0,0:0|0:0|0:0|0:0|0:0,0:0:0:0:
212,248,89519,1,0,0:0:0:0:
324,304,89727,6,0,P|404:292|456:192,1,187.5,4|0,0:0|0:0,0:0:0:0:
456,206,90560,2,0,P|448:136|408:84,1,125,8|0,0:0|0:0,0:0:0:0:
300,52,91394,1,2,0:0:0:0:
244,80,91602,1,0,0:0:0:0:
204,128,91810,1,0,0:0:0:0:
204,128,92227,2,0,P|204:156|220:188,1,62.5,8|0,0:0|0:0,0:0:0:0:
256,236,92644,2,0,P|288:244|320:244,1,62.5
400,120,93060,6,0,P|352:44|256:56,1,187.5,2|0,0:0|0:0,0:0:0:0:
204,72,93894,2,0,L|136:76,1,62.5,8|0,0:0|0:0,0:0:0:0:
84,100,94310,1,0,0:0:0:0:
56,156,94519,1,0,0:0:0:0:
48,216,94727,2,0,P|76:268|140:296,1,125,2|0,0:0|0:0,0:0:0:0:
232,220,95560,1,10,0:0:0:0:
344,280,95977,1,0,0:0:0:0:
248,104,96394,6,0,P|180:108|136:160,1,125,4|0,0:0|0:0,0:0:0:0:
116,204,97019,1,0,0:0:0:0:
140,260,97227,1,10,0:0:0:0:
192,296,97435,2,0,P|256:280|328:296,1,125
360,332,98060,2,0,L|424:340,2,62.5,2|0|0,0:0|0:0|0:0,0:0:0:0:
280,236,98894,2,0,L|216:244,2,62.5,8|0|0,0:0|0:0|0:0,0:0:0:0:
236,40,99727,6,0,P|168:56|112:92,1,125,4|0,0:0|0:0,0:0:0:0:
76,128,100352,1,0,0:0:0:0:
76,128,100560,2,0,L|72:208,1,62.5,8|0,0:0|0:0,0:0:0:0:
88,252,100977,2,0,P|120:264|156:260,1,62.5
208,240,101394,2,0,P|308:224|388:276,1,187.5,2|0,0:0|0:0,0:0:0:0:
424,308,102227,1,10,0:0:0:0:
488,308,102435,1,0,0:0:0:0:
512,252,102643,1,0,0:0:0:0:
352,124,103060,6,0,B|264:96|200:188|200:188|128:184,1,250,4|8,0:0|0:0,0:0:0:0:
44,92,104310,1,0,0:0:0:0:
84,44,104518,1,0,0:0:0:0:
144,28,104727,2,0,L|216:24,2,62.5,2|0|0,0:0|0:0|0:0,0:0:0:0:
152,152,105560,1,8,0:0:0:0:
184,204,105768,2,0,P|244:216|316:188,1,125,0|0,0:0|0:0,0:0:0:0:
424,80,106393,5,4,0:0:0:0:
256,192,106602,12,2,109727,0:0:0:0:
344,328,123060,6,0,P|376:292|372:228,1,100,4|0,0:0|0:0,0:0:0:0:
352,200,123685,1,0,0:0:0:0:
312,172,123893,2,0,L|248:180,1,50,2|0,0:0|0:0,0:0:0:0:
216,156,124310,2,0,L|168:180,1,50,2|0,0:0|0:0,0:0:0:0:
120,176,124727,1,2,0:0:0:0:
120,176,125143,2,0,L|52:184,1,50
36,216,125560,2,0,P|32:264|68:320,1,100,8|0,0:0|0:0,0:0:0:0:
216,316,126393,5,2,3:2:0:0:
292,224,126810,1,0,0:0:0:0:
228,120,127227,2,0,P|196:112|168:116,1,50,2|0,0:0|0:0,0:0:0:0:
132,124,127643,1,0,0:0:0:0:
96,156,127852,1,0,0:0:0:0:
72,200,128060,2,0,L|24:224,2,50,2|0|0,0:0|0:0|0:0,0:0:0:0:
192,188,128893,2,0,P|248:188|300:208,1,100,10|0,0:0|0:0,0:0:0:0:
336,224,129518,1,0,0:0:0:0:
380,248,129727,6,0,P|404:176|396:88,1,150,2|0,0:0|0:0,0:0:0:0:
372,60,130560,1,2,0:0:0:0:
252,48,130977,2,0,L|220:4,2,50,0|0|2,0:0|0:0|0:0,0:0:0:0:
236,168,131810,1,0,0:0:0:0:
204,204,132018,1,0,0:0:0:0:
160,224,132227,2,0,P|112:224|56:192,1,100,10|0,0:0|0:0,0:0:0:0:
52,152,132852,1,0,0:0:0:0:
68,104,133060,6,0,P|136:44|240:64,1,200,0|2,3:0|0:0,0:0:0:0:
332,136,134310,1,0,0:0:0:0:
360,176,134518,2,0,P|364:204|356:236,1,50,0|2,0:0|0:0,0:0:0:0:
320,252,134935,1,0,0:0:0:0:
272,272,135143,1,0,0:0:0:0:
116,240,135560,6,0,P|96:284|112:336,1,100,10|0,0:0|0:0,0:0:0:0:
200,376,136185,1,0,0:0:0:0:
288,328,136393,6,0,P|296:248|260:188,1,150,2|0,0:0|0:0,0:0:0:0:
220,168,137227,2,0,L|328:168,1,100,2|0,0:0|0:0,0:0:0:0:
368,152,137852,1,0,0:0:0:0:
404,116,138060,2,0,P|416:68|400:20,1,100,2|0,0:0|0:0,0:0:0:0:
280,36,138893,2,0,P|264:82|276:130,1,100,10|0,0:0|0:0,0:0:0:0:
300,176,139518,1,0,0:0:0:0:
332,216,139727,6,0,P|412:208|500:232,1,150,2|0,0:0|0:0,0:0:0:0:
500,268,140560,2,0,P|492:224|504:168,1,100,2|0,0:0|3:0,0:0:0:0:
508,52,141393,1,2,0:0:0:0:
392,88,141810,2,0,P|348:96|288:84,1,100,0|10,0:0|0:0,0:0:0:0:
180,44,142643,1,0,0:0:0:0:
180,44,142852,1,0,0:0:0:0:
180,44,143060,6,0,P|108:96|124:208,1,200,2|2,0:0|0:0,0:0:0:0:
204,280,144310,1,2,0:0:0:0:
300,204,144727,2,0,P|328:204|356:220,1,50,2|0,0:0|0:0,0:0:0:0:
384,248,145143,2,0,L|376:136,1,100,0|8,0:0|0:0,0:0:0:0:
280,80,145977,1,0,0:0:0:0:
152,176,146393,6,0,P|104:188|56:176,2,100,2|0|2,0:0|0:0|0:0,0:0:0:0:
200,156,147435,1,0,0:0:0:0:
248,156,147643,1,2,0:0:0:0:
296,176,147852,1,0,0:0:0:0:
336,204,148060,2,0,P|400:216|468:112,1,200,2|10,0:0|0:0,0:0:0:0:
400,16,149310,1,2,0:0:0:0:
356,44,149518,1,0,0:0:0:0:
308,32,149727,6,0,P|232:40|176:96,1,150,2|0,0:0|0:0,0:0:0:0:
179,88,150560,2,0,P|132:72|80:84,1,100,2|0,0:0|0:0,0:0:0:0:
44,112,151185,1,0,0:0:0:0:
20,156,151393,2,0,L|36:260,1,100,2|0,0:0|0:0,0:0:0:0:
76,288,152018,1,0,0:0:0:0:
120,308,152227,1,2,0:0:0:0:
232,268,152643,1,0,0:0:0:0:
376,336,153060,6,0,P|400:284|392:236,1,100,4|0,0:0|0:0,0:0:0:0:
292,184,153893,2,0,P|247:206|221:248,1,100,10|0,0:0|0:0,0:0:0:0:
240,300,154518,1,0,0:0:0:0:
228,348,154727,2,0,P|128:360|76:280,1,200,2|8,0:0|0:0,0:0:0:0:
104,168,155977,1,0,0:0:0:0:
152,140,156185,1,0,0:0:0:0:
200,128,156393,6,0,P|280:192|292:256,1,150,0|0,3:0|0:0,0:0:0:0:
280,284,157227,2,0,L|388:272,1,100,8|0,0:0|0:0,0:0:0:0:
416,240,157852,1,0,0:0:0:0:
428,192,158060,1,2,0:0:0:0:
428,192,158477,2,0,P|421:167|408:146,1,50,0|0,0:0|0:0,0:0:0:0:
264,144,158893,6,0,P|252:164|244:204,1,50,10|0,0:0|0:0,0:0:0:0:
244,240,159310,1,0,0:0:0:0:
272,280,159518,1,0,0:0:0:0:
312,308,159727,6,0,L|420:312,2,100,2|0|8,0:0|0:0|0:0,0:0:0:0:
312,308,160977,2,0,P|284:320|264:348,1,50
240,372,161393,2,0,L|128:364,1,100,2|0,0:0|0:0,0:0:0:0:
68,268,162227,2,0,P|56:220|68:164,1,100,8|0,0:0|0:0,0:0:0:0:
204,92,163060,6,0,L|304:100,1,100,2|0,0:0|0:0,0:0:0:0:
348,120,163685,1,0,0:0:0:0:
388,148,163893,2,0,P|400:196|384:252,1,100,8|0,0:0|0:0,0:0:0:0:
348,276,164518,2,0,L|288:288,1,50,0|2,0:0|0:0,0:0:0:0:
180,284,165143,2,0,P|136:268|92:220,2,100,0|10|0,0:0|0:0|0:0,0:0:0:0:
276,156,166393,6,0,L|268:44,2,100,4|0|8,0:0|0:0|0:0,0:0:0:0:
276,156,167643,1,0,0:0:0:0:
320,180,167852,1,0,0:0:0:0:
360,212,168060,2,0,P|372:260|352:316,1,100,2|0,0:0|0:0,0:0:0:0:
320,344,168685,1,0,0:0:0:0:
320,344,168893,2,0,L|212:348,1,100,8|0,0:0|0:0,0:0:0:0:
88,256,169727,6,0,P|68:212|76:148,2,100,2|0|8,0:0|0:0|0:0,0:0:0:0:
88,256,170977,2,0,L|152:260,1,50,0|0,0:0|0:0,0:0:0:0:
184,276,171393,1,0,0:0:0:0:
228,300,171602,1,2,0:0:0:0:
276,308,171810,2,0,P|300:308|340:296,1,50,0|2,0:0|0:0,0:0:0:0:
368,276,172227,2,0,P|380:232|376:172,1,100,10|0,0:0|0:0,0:0:0:0:
368,128,172852,1,0,0:0:0:0:
232,104,173060,6,0,P|204:148|212:196,1,100,4|0,0:0|0:0,0:0:0:0:
240,236,173685,1,0,0:0:0:0:
276,272,173893,2,0,L|164:280,1,100,8|0,0:0|0:0,0:0:0:0:
80,208,174727,1,2,0:0:0:0:
96,88,175143,1,0,0:0:0:0:
200,32,175560,2,0,P|248:24|308:40,1,100,8|0,0:0|0:0,0:0:0:0:
348,120,176185,1,0,0:0:0:0:
276,188,176393,6,0,P|232:184|176:200,1,100,4|0,0:0|0:0,0:0:0:0:
140,228,177018,1,0,0:0:0:0:
100,256,177227,2,0,L|40:248,2,50,8|0|0,0:0|0:0|0:0,0:0:0:0:
232,344,178060,5,2,0:0:0:0:
232,344,178268,2,0,L|296:336,1,50
252,180,178893,1,10,0:0:0:0:
252,180,179102,2,0,P|232:196|208:227,1,50
368,212,179727,6,0,P|376:172|364:128,1,75.0000028610231
316,32,180352,1,0,3:0:0:0:
240,124,180560,5,8,0:0:0:0:
192,108,180768,1,0,0:0:0:0:
148,84,180977,1,0,0:0:0:0:
120,44,181185,1,0,0:0:0:0:
16,112,181393,6,0,P|24:176|0:240,1,125,4|0,0:0|0:0,0:0:0:0:
4,232,182018,2,0,P|39:231|72:240,1,62.5,0|8,0:0|0:0,0:0:0:0:
176,296,182643,1,0,0:0:0:0:
236,288,182851,1,0,0:0:0:0:
284,248,183059,2,0,P|288:192|248:120,1,125,2|0,0:0|0:0,0:0:0:0:
136,104,183893,1,10,0:0:0:0:
108,160,184101,1,0,0:0:0:0:
108,224,184309,1,0,0:0:0:0:
140,280,184518,1,0,0:0:0:0:
192,316,184726,6,0,P|284:328|368:284,1,187.5,2|0,0:0|0:0,0:0:0:0:
384,228,185559,2,0,P|344:184|276:176,1,125,8|0,0:0|0:0,0:0:0:0:
160,196,186393,2,0,P|132:204|104:228,1,62.5,2|0,0:0|0:0,0:0:0:0:
76,280,186809,1,0,0:0:0:0:
84,344,187018,1,0,0:0:0:0:
140,372,187226,1,10,0:0:0:0:
240,296,187643,1,0,0:0:0:0:
432,348,188059,6,0,P|456:292|448:228,1,125,4|0,0:0|0:0,0:0:0:0:
412,180,188684,1,0,0:0:0:0:
352,164,188893,1,8,0:0:0:0:
352,164,189309,2,0,P|328:184|316:228,1,62.5
332,272,189726,2,0,P|244:296|144:272,1,187.5,2|0,0:0|0:0,0:0:0:0:
100,240,190559,1,10,0:0:0:0:
100,240,190976,2,0,P|92:208|100:168,1,62.5
240,136,191393,6,0,P|256:196|240:268,1,125,2|0,0:0|0:0,0:0:0:0:
192,288,192018,1,0,0:0:0:0:
192,288,192226,2,0,L|60:292,1,125,8|0,0:0|0:0,0:0:0:0:
44,168,193059,1,2,0:0:0:0:
100,144,193268,1,0,0:0:0:0:
160,152,193476,1,0,0:0:0:0:
280,280,193893,6,0,L|288:316,4,31.25,8|2|0|0|0,0:0|0:0|0:0|0:0|0:0,0:0:0:0:
352,180,194518,1,0,0:0:0:0:
472,216,194726,6,0,P|492:160|480:96,1,125,4|0,0:0|0:0,0:0:0:0:
372,32,195559,2,0,P|340:28|304:40,1,62.5,8|0,0:0|0:0,0:0:0:0:
264,80,195976,1,0,0:0:0:0:
232,136,196184,1,0,0:0:0:0:
240,260,196393,5,2,0:0:0:0:
320,320,196601,1,0,0:0:0:0:
408,272,196809,1,0,0:0:0:0:
408,272,197226,6,0,P|416:240|412:204,1,62.5,10|0,0:0|0:0,0:0:0:0:
253,198,197643,2,0,P|245:228|248:260,1,62.5,0|0,0:0|0:0,0:0:0:0:
336,152,198059,6,0,P|284:112|216:116,1,125,2|0,0:0|0:0,0:0:0:0:
172,140,198684,2,0,L|164:208,1,62.5,0|8,0:0|0:0,0:0:0:0:
216,316,199309,1,0,0:0:0:0:
276,328,199518,1,0,0:0:0:0:
340,324,199726,2,0,P|404:304|444:260,1,125,2|0,0:0|0:0,0:0:0:0:
396,144,200559,2,0,P|332:164|292:208,1,125,10|0,0:0|0:0,0:0:0:0:
268,260,201184,1,0,0:0:0:0:
124,356,201393,6,0,P|92:308|100:232,1,125,4|0,0:0|0:0,0:0:0:0:
124,188,202018,1,0,0:0:0:0:
172,148,202226,1,8,0:0:0:0:
232,128,202434,2,0,L|232:64,2,62.5
292,148,203059,2,0,P|348:164|416:148,1,125,2|0,0:0|0:0,0:0:0:0:
424,24,203893,2,0,P|368:8|300:24,1,125,10|0,0:0|0:0,0:0:0:0:
212,200,204726,6,0,P|252:248|312:272,1,125,4|0,0:0|0:0,0:0:0:0:
372,268,205351,1,0,0:0:0:0:
416,224,205559,1,8,0:0:0:0:
448,172,205768,2,0,L|512:164,2,62.5
420,116,206393,2,0,P|376:72|316:48,1,125,2|0,0:0|0:0,0:0:0:0:
256,44,207018,1,0,0:0:0:0:
193,48,207226,2,0,P|135:72|92:116,1,125,10|0,0:0|0:0,0:0:0:0:
136,324,208059,6,0,L|284:356,2,125,4|0|8,0:0|0:0|0:0,0:0:0:0:
136,324,209309,1,0,0:0:0:0:
108,268,209518,1,0,0:0:0:0:
128,208,209726,2,0,L|104:132,2,62.5,2|0|0,0:0|0:0|0:0,0:0:0:0:
252,212,210559,2,0,L|272:152,1,62.5,10|0,0:0|0:0,0:0:0:0:
392,112,211184,1,0,0:0:0:0:
444,148,211393,6,0,P|456:216|428:272,1,125,4|0,0:0|0:0,0:0:0:0:
433,265,212226,2,0,L|360:272,1,62.5,8|0,0:0|0:0,0:0:0:0:
308,264,212643,1,0,0:0:0:0:
252,236,212851,1,0,0:0:0:0:
212,188,213059,2,0,P|204:156|216:120,2,62.5,2|0|0,0:0|0:0|0:0,0:0:0:0:
212,188,213893,2,0,P|152:200|104:244,1,125,8|0,0:0|0:0,0:0:0:0:
224,348,214726,6,0,B|296:348|296:348|356:380|428:344,1,200,4|4,0:0|3:2,0:0:0:0:
472,240,215976,1,0,0:0:0:0:
484,192,216184,1,0,3:0:0:0:
468,144,216393,2,0,P|440:140|412:144,1,50,2|0,0:0|3:0,0:0:0:0:
368,144,216809,2,0,P|340:148|312:144,1,50,0|0,3:0|0:0,0:0:0:0:
248,76,217226,5,10,0:0:0:0:
168,136,217434,1,2,3:0:0:0:
80,84,217643,1,0,3:0:0:0:
12,156,217851,1,0,3:0:0:0:
136,224,218059,6,0,P|192:220|240:192,1,100,4|0,0:0|0:0,0:0:0:0:
252,156,218684,1,0,0:0:0:0:
272,112,218893,2,0,P|320:104|376:116,1,100,8|2,0:0|0:0,0:0:0:0:
416,224,219726,2,0,L|468:240,2,50,0|0|2,0:0|0:0|0:0,0:0:0:0:
332,304,220559,2,0,L|352:352,2,50,8|0|2,0:0|0:0|0:0,0:0:0:0:
220,256,221393,6,0,P|204:212|212:160,1,100,2|0,0:0|0:0,0:0:0:0:
252,132,222018,1,0,0:0:0:0:
300,132,222226,2,0,P|327:169|334:222,1,100,10|0,0:0|0:0,0:0:0:0:
288,332,223059,1,2,0:0:0:0:
244,352,223268,1,0,0:0:0:0:
196,340,223476,1,2,0:0:0:0:
120,244,223893,2,0,P|112:192|132:140,1,100,10|2,0:0|0:0,0:0:0:0:
252,48,224726,6,0,P|332:44|404:80,1,150,4|0,0:0|0:0,0:0:0:0:
428,108,225559,1,8,0:0:0:0:
472,220,225976,1,2,0:0:0:0:
392,312,226393,1,0,0:0:0:0:
392,312,226809,2,0,L|328:316,1,50,2|0,0:0|0:0,0:0:0:0:
284,184,227226,5,10,0:0:0:0:
284,184,227643,2,0,L|220:180,1,50,2|0,0:0|0:0,0:0:0:0:
120,264,228059,6,0,P|172:320|256:336,1,150,2|0,0:0|0:0,0:0:0:0:
292,336,228893,2,0,L|360:332,2,50,8|0|2,0:0|0:0|0:0,0:0:0:0:
236,228,229726,1,0,0:0:0:0:
324,148,230143,1,2,0:0:0:0:
416,224,230559,5,8,0:0:0:0:
324,260,230768,1,2,3:0:0:0:
416,296,230976,1,0,3:0:0:0:
324,332,231184,1,0,3:0:0:0:
416,224,231393,6,0,P|408:144|344:104,1,150,4|0,0:0|0:0,0:0:0:0:
304,108,232226,2,0,P|260:128|228:176,1,100,8|2,0:0|0:0,0:0:0:0:
230,168,233059,2,0,P|212:156|184:144,1,50,0|0,0:0|0:0,0:0:0:0:
136,145,233476,2,0,P|113:154|92:169,1,50,2|0,0:0|0:0,0:0:0:0:
52,280,233892,5,10,0:0:0:0:
84,316,234101,1,0,0:0:0:0:
132,336,234309,1,2,0:0:0:0:
180,336,234517,1,0,0:0:0:0:
284,240,234726,6,0,B|328:216|388:260|432:240,1,150,2|0,0:0|0:0,0:0:0:0:
431,240,235559,2,0,P|444:192|424:128,1,100,8|2,0:0|0:0,0:0:0:0:
348,60,236392,2,0,L|284:36,2,50,0|0|2,0:0|0:0|0:0,0:0:0:0:
292,164,237226,2,2,L|232:160,2,50,10|0|2,0:0|0:0|0:0,0:0:0:0:
312,324,238059,6,0,P|264:336|204:324,1,100,4|0,0:0|0:0,0:0:0:0:
172,304,238684,2,0,P|156:280|152:252,1,50,0|8,0:0|0:0,0:0:0:0:
160,140,239309,1,2,0:0:0:0:
284,40,239726,6,0,P|336:40|380:64,1,100,4|2,0:0|0:0,0:0:0:0:
408,104,240351,1,0,0:0:0:0:
416,152,240559,1,10,0:0:0:0:
416,152,240976,2,0,P|408:180|396:200,1,50,2|0,0:0|0:0,0:0:0:0:
268,256,241392,6,0,P|220:264|160:244,1,100,4|2,0:0|0:0,0:0:0:0:
171,250,242226,1,8,0:0:0:0:
140,212,242434,1,0,0:0:0:0:
124,164,242642,1,2,0:0:0:0:
128,112,242851,1,0,0:0:0:0:
148,68,243059,2,0,P|196:56|244:72,1,100,4|2,0:0|0:0,0:0:0:0:
242,71,243892,5,8,0:0:0:0:
312,144,244101,1,0,0:0:0:0:
237,209,244309,1,2,0:0:0:0:
167,136,244517,1,0,0:0:0:0:
312,144,244726,6,0,B|372:148|408:184|408:184|392:232|424:280,1,200,4|8,0:0|0:0,0:0:0:0:
420,273,245976,2,0,L|360:304,1,50
288,252,246392,5,2,0:0:0:0:
212,320,246601,1,0,0:0:0:0:
124,272,246809,1,0,0:0:0:0:
124,272,247226,5,8,0:0:0:0:
96,228,247434,1,2,0:0:0:0:
84,180,247642,1,0,0:0:0:0:
88,132,247851,1,2,0:0:0:0:
188,32,248059,6,0,P|236:40|284:64,1,100,0|0,0:0|0:0,0:0:0:0:
252,180,248892,2,0,P|204:172|156:148,1,100,8|0,0:0|0:0,0:0:0:0:
120,116,249517,1,0,0:0:0:0:
100,68,249726,2,0,L|36:60,2,50,2|0|0,0:0|0:0|0:0,0:0:0:0:
196,32,250559,2,0,L|260:24,2,50,10|0|0,0:0|0:0|0:0,0:0:0:0:
112,168,251392,6,0,P|168:212|256:220,1,150,4|0,0:0|0:0,0:0:0:0:
244,222,252226,2,0,P|204:248|176:296,1,100,8|0,0:0|0:0,0:0:0:0:
164,340,252851,1,0,0:0:0:0:
300,368,253059,6,0,P|348:364|392:336,1,100,2|0,0:0|0:0,0:0:0:0:
424,300,253684,1,0,0:0:0:0:
424,300,253892,2,0,L|424:200,1,100,8|0,0:0|0:0,0:0:0:0:
408,152,254517,1,0,0:0:0:0:
276,104,254726,6,0,P|236:168|264:248,1,150,2|0,0:0|0:0,0:0:0:0:
292,268,255559,2,0,L|408:260,1,100,8|2,0:0|0:0,0:0:0:0:
428,228,256184,1,0,0:0:0:0:
452,184,256392,2,0,P|456:156|452:128,2,50
452,184,257226,5,10,0:0:0:0:
384,256,257434,1,0,3:0:0:0:
304,196,257642,1,0,3:0:0:0:
260,288,257851,1,0,3:0:0:0:
208,160,258059,6,0,P|256:108|296:100,1,100,4|0,0:0|0:0,0:0:0:0:
332,104,258684,1,0,0:0:0:0:
376,128,258892,2,0,P|392:152|396:184,1,50,8|0,0:0|0:0,0:0:0:0:
404,224,259309,1,0,0:0:0:0:
264,300,259726,6,0,P|216:296|168:264,1,100,2|0,0:0|0:0,0:0:0:0:
152,224,260351,1,0,0:0:0:0:
144,176,260559,2,0,P|140:152|144:124,1,50,8|0,0:0|0:0,0:0:0:0:
260,148,260976,2,0,P|264:172|260:200,1,50,0|0,0:0|0:0,0:0:0:0:
220,64,261392,6,0,P|320:40|412:76,1,200,4|8,0:0|0:0,0:0:0:0:
408,73,262643,2,0,P|416:92|420:124,1,50
316,212,263059,6,0,P|268:216|208:204,1,100,2|0,0:0|0:0,0:0:0:0:
176,176,263684,1,0,0:0:0:0:
172,172,263788,1,0,0:0:0:0:
168,168,263893,2,0,P|164:120|184:72,1,100,10|0,0:0|0:0,0:0:0:0:
212,32,264518,1,0,0:0:0:0:
324,112,264726,6,0,P|372:116|440:104,1,100,4|0,0:0|0:0,0:0:0:0:
468,84,265351,1,0,0:0:0:0:
468,84,265559,2,0,L|480:28,2,50,8|0|0,0:0|0:0|0:0,0:0:0:0:
416,192,266393,2,0,L|428:248,2,50,2|0|0,0:0|0:0|0:0,0:0:0:0:
380,160,267018,1,0,0:0:0:0:
332,144,267226,2,0,P|280:152|240:192,1,100,8|0,0:0|0:0,0:0:0:0:
220,224,267851,1,0,0:0:0:0:
288,348,268059,6,0,L|344:360,2,50,4|0|0,0:0|0:0|0:0,0:0:0:0:
184,284,268893,2,0,P|128:280|76:312,1,100,8|0,0:0|0:0,0:0:0:0:
52,332,269518,1,0,0:0:0:0:
52,332,269726,2,0,L|32:384,2,50,2|0|0,0:0|0:0|0:0,0:0:0:0:
68,284,270351,1,0,0:0:0:0:
72,236,270559,2,0,P|72:188|44:136,1,100,10|0,0:0|0:0,0:0:0:0:
164,44,271393,6,0,B|204:20|272:56|312:36,2,150.000005722046,4|2|2,0:0|0:0|0:0,0:0:0:0:
164,44,273893,6,0,P|156:60|156:92,1,37.5000014305115,2|0,0:0|0:0,0:0:0:0:
256,164,274309,2,0,P|259:146|251:115,1,37.5000014305115,0|0,0:0|0:0,0:0:0:0:
144,192,274726,5,2,0:0:0:0:
368,340,280559,6,0,P|384:308|376:256,1,75.0000028610231,8|0,0:0|0:0,0:0:0:0:
364,236,281184,1,0,0:0:0:0:
216,208,281393,6,0,P|168:248|180:312,1,125,4|0,0:0|0:0,0:0:0:0:
174,305,282017,2,0,L|108:312,1,62.5,0|8,0:0|0:0,0:0:0:0:
40,208,282642,1,0,0:0:0:0:
72,156,282851,1,0,0:0:0:0:
120,116,283059,2,0,P|180:104|240:128,1,125,2|0,0:0|0:0,0:0:0:0:
292,240,283892,1,10,0:0:0:0:
292,240,284309,2,0,P|324:244|360:232,1,62.5
404,200,284726,6,0,P|412:136|392:80,2,125,2|0|8,0:0|0:0|0:0,0:0:0:0:
404,200,285976,2,0,P|384:232|352:256,1,62.5
280,160,286392,5,2,0:0:0:0:
204,224,286601,1,0,3:0:0:0:
132,156,286809,1,0,0:0:0:0:
132,156,287226,6,0,L|88:144,4,31.25,8|2|0|0|0,0:0|0:0|0:0|0:0|0:0,0:0:0:0:
208,56,287851,1,0,0:0:0:0:
328,84,288059,6,0,B|368:92|408:60|456:68,2,125,4|0|8,0:0|0:0|0:0,0:0:0:0:
272,116,289101,1,0,0:0:0:0:
272,116,289309,2,0,P|268:148|280:184,1,62.5
364,268,289726,6,0,L|428:276,2,62.5,2|0|0,0:0|0:0|0:0,0:0:0:0:
364,268,290559,1,10,0:0:0:0:
324,220,290767,1,0,0:0:0:0:
260,212,290976,1,0,0:0:0:0:
204,244,291184,1,0,0:0:0:0:
289,337,291392,6,0,P|316:281|323:220,1,125,2|0,0:0|0:0,0:0:0:0:
304,160,292017,2,0,L|372:144,1,62.5,0|8,0:0|0:0,0:0:0:0:
364,145,292642,1,0,0:0:0:0:
420,172,292851,1,0,0:0:0:0:
464,216,293059,2,0,P|476:276|460:340,1,125,2|0,0:0|0:0,0:0:0:0:
340,360,293892,2,0,B|304:380|256:340|216:356,1,125,10|0,0:0|0:0,0:0:0:0:
88,204,294726,6,0,P|144:180|216:192,1,125,4|0,0:0|0:0,0:0:0:0:
256,224,295351,1,0,0:0:0:0:
304,264,295559,2,0,L|308:332,2,62.5,8|0|0,0:0|0:0|0:0,0:0:0:0:
340,212,296184,1,0,0:0:0:0:
372,156,296392,2,0,P|388:92|368:28,1,125,2|0,0:0|0:0,0:0:0:0:
248,32,297226,2,0,P|232:96|252:160,1,125,10|0,0:0|0:0,0:0:0:0:
440,196,298059,6,0,P|468:140|452:12,1,187.5,4|0,0:0|0:0,0:0:0:0:
455,18,298892,2,0,L|376:12,1,62.5,8|0,0:0|0:0,0:0:0:0:
336,40,299309,1,0,0:0:0:0:
292,84,299517,1,0,0:0:0:0:
292,84,299726,2,0,P|288:120|296:152,1,62.5,2|0,0:0|3:0,0:0:0:0:
344,260,300351,1,0,0:0:0:0:
344,260,300559,2,0,P|284:284|232:336,1,125,2|0,0:0|0:0,0:0:0:0:
40,352,301392,6,0,P|16:304|40:236,1,125,4|0,0:0|0:0,0:0:0:0:
84,196,302017,2,0,L|52:136,2,62.5,0|8|0,0:0|0:0|0:0,0:0:0:0:
144,216,302642,2,0,P|176:220|208:212,1,62.5
264,100,303059,5,2,0:0:0:0:
164,28,303267,1,0,0:0:0:0:
68,112,303476,1,0,0:0:0:0:
68,112,303892,2,0,P|56:80|60:48,1,62.5,14|0,0:0|0:0,0:0:0:0:
180,24,304517,1,0,0:0:0:0:
180,24,304726,6,0,P|240:32|296:72,1,125,4|0,0:0|0:0,0:0:0:0:
328,188,305559,2,0,L|388:220,2,62.5,2|0|0,0:0|0:0|0:0,0:0:0:0:
276,224,306184,1,0,0:0:0:0:
212,220,306392,2,0,L|192:284,2,62.5,2|0|0,0:0|0:0|0:0,0:0:0:0:
212,220,307226,1,2,0:0:0:0:
192,160,307434,1,0,0:0:0:0:
148,116,307642,2,0,P|112:112|80:120,1,62.5
48,252,308059,6,0,P|84:288|140:308,1,100,4|0,0:0|0:0,0:0:0:0:
236,256,308892,2,0,P|264:256|292:264,1,50,2|0,0:0|0:0,0:0:0:0:
332,280,309309,2,0,P|360:280|388:272,1,50,2|0,0:0|0:0,0:0:0:0:
420,240,309726,2,0,P|448:148|408:56,1,200,2|2,0:0|0:0,0:0:0:0:
364,36,310767,2,0,L|312:32,2,50,0|2|0,0:0|0:0|0:0,0:0:0:0:
296,160,311392,5,2,0:0:0:0:
232,260,311809,2,0,P|180:264|132:248,1,100,0|0,0:0|0:0,0:0:0:0:
80,144,312642,1,2,0:0:0:0:
152,48,313059,1,0,0:0:0:0:
272,28,313476,1,0,0:0:0:0:
272,28,313892,6,0,P|292:48|304:80,1,50,0|2,0:0|0:0,0:0:0:0:
204,140,314309,2,0,P|211:112|233:86,1,50,2|0,0:0|0:0,0:0:0:0:
260,228,314726,6,0,P|216:244|160:236,1,100,2|0,0:0|0:0,0:0:0:0:
120,212,315351,1,2,0:0:0:0:
100,168,315559,1,0,0:0:0:0:
100,168,315976,2,0,B|164:120|232:144|232:144|264:88,1,200,2|0,0:0|0:0,0:0:0:0:
261,92,317226,5,0,0:0:0:0:
372,176,317434,1,2,0:0:0:0:
328,48,317642,1,2,0:0:0:0:
306,220,317851,1,0,0:0:0:0:
384,104,318059,6,0,P|432:132|440:192,1,100,2|0,0:0|0:0,0:0:0:0:
440,224,318684,1,0,0:0:0:0:
304,300,318892,5,2,0:0:0:0:
304,300,319309,2,0,L|248:316,1,50,0|2,0:0|0:0,0:0:0:0:
208,324,319726,2,0,P|156:320|120:288,1,100,0|2,0:0|0:0,0:0:0:0:
121,289,320559,1,0,0:0:0:0:
116,240,320767,1,2,0:0:0:0:
128,192,320976,1,2,0:0:0:0:
160,152,321184,1,0,0:0:0:0:
292,200,321392,6,0,P|340:204|388:184,1,100,0|2,0:0|0:0,0:0:0:0:
296,52,322226,2,0,P|248:48|200:68,1,100,2|0,0:0|0:0,0:0:0:0:
168,108,322851,1,2,0:0:0:0:
156,156,323059,5,0,0:0:0:0:
352,120,323476,1,2,0:0:0:0:
204,252,323892,1,0,0:0:0:0:
244,56,324309,1,0,0:0:0:0:
328,236,324726,5,2,0:0:0:0:
256,192,324830,12,0,331392,0:0:0:0:
