osu file format v7

[General]
AudioFilename: Valenti.mp3
AudioLeadIn: 0
PreviewTime: 39951
Countdown: 1
SampleSet: Normal
StackLeniency: 0.7
Mode: 0
LetterboxInBreaks: 0

[Editor]
DistanceSpacing: 0.800000011920929
BeatDivisor: 8
GridSize: 8

[Metadata]
Title:Valenti
Artist:BoA
Creator:Leorda
Version:MED of Love
Source:Pump It Up! EXCEED
Tags:andamiro piu k-pop

[Difficulty]
HPDrainRate:4
CircleSize:4
OverallDifficulty:4
SliderMultiplier:1.4
SliderTickRate:1

[Events]
//Background and Video events
Video,-300,"Valenti.avi"
0,0,"Valenti BG.jpg"
//Break Periods
2,60920,68630
//Storyboard Layer 0 (Background)
//Storyboard Layer 1 (Fail)
//Storyboard Layer 2 (Pass)
//Storyboard Layer 3 (Foreground)
//Storyboard Sound Samples
//Background Colour Transformations
3,100,255,0,128

[TimingPoints]
720,576.923076923077,4,1,0,60,1,0
39951,-100,4,1,0,59,0,1
60720,-100,4,1,0,60,0,0
83797,-100,4,1,0,60,0,1
103917,-100,4,2,0,0,0,0

[Colours]
Combo1 : 187,119,255
Combo2 : 128,0,255
Combo3 : 255,0,128
Combo4 : 255,128,255
Combo5 : 255,81,168

[HitObjects]
256,192,9950,1,4
504,16,11537,5,0
480,40,11681,1,4
440,79,11970,1,4
440,134,12258,5,0
384,134,12546,1,2
327,134,12835,2,0,B|298:161|262:135,2,70,8|0|0
214,134,13989,1,8
158,134,14277,1,0
101,134,14566,5,2
101,246,15143,1,8
101,301,15431,1,0
157,301,15720,1,2
268,301,16296,1,8
380,301,16873,6,0,B|380:217,3,70
323,231,18027,2,0,B|323:147,3,70,0|0|0|0
266,161,19181,5,0
153,161,19758,1,8
40,161,20335,2,0,B|40:256,1,70,2|0
96,231,20912,1,8
96,343,21489,6,0,B|159:277|216:346,1,140,4|8
326,344,22643,1,2
438,344,23220,1,8
438,232,23796,5,0
381,232,24085,1,0
325,232,24373,1,8
212,232,24950,2,0,B|212:140,2,70,0|0|8
128,304,26104,6,0,B|32:176|128:32,1,280,0|4
323,6,28412,6,0,B|304:96|408:80,1,140,0|8
324,159,29566,2,0,B|305:249|409:233,1,140,0|4
325,312,30720,5,0
269,312,31008,1,0
213,312,31296,1,8
100,312,31873,2,0,B|40:256|112:176,1,140
214,187,33027,5,4
438,187,34181,5,0
438,130,34470,1,0
438,74,34758,1,8
256,192,35335,12,4,37643
464,32,39950,6,0,B|464:88|416:88,1,70
430,142,40527,2,0,B|345:142,1,70
360,198,41104,6,0,B|296:254|227:193,1,140,0|8
121,198,42258,6,0,B|121:108,2,70,0|0|8
94,307,43412,1,2
149,307,43700,1,0
206,307,43989,1,8
312,344,44566,6,0,B|306:147|98:275|90:19,1,420,0|4
256,192,46873,12,0,48604
56,64,49181,6,0,B|120:120|184:64,1,140,4|8
294,65,50335,2,0,B|358:121|422:65,1,140,0|8
419,179,51489,2,0,B|357:233|293:177,2,140,0|8|0
392,128,52931,1,0
360,88,53220,1,8
248,88,53796,6,0,B|176:80|168:176,2,105
248,144,54950,2,0,B|320:152|328:56,2,105
248,200,56104,5,4
248,312,56681,1,4
135,312,57258,1,4
135,199,57835,1,4
192,104,58412,6,8,B|312:104,2,105
256,192,59566,12,4,60720
64,64,69950,6,0,B|128:120|216:48,3,140,0|8|0|8
305,65,72258,2,0,B|369:121|457:49,3,140,0|8|0|8
376,160,74566,5,4
257,278,75431,5,0
200,278,75720,1,8
144,278,76008,1,0
88,278,76296,1,8
32,280,76585,1,0
256,192,76873,12,0,79181
56,64,81489,5,0
56,147,81921,1,0
56,231,82354,1,0
56,287,82643,1,0
168,287,83220,6,4,B|168:232,4,35
280,287,84373,5,8
336,287,84662,1,0
391,287,84950,1,0
391,174,85527,1,8
278,174,86104,6,0,B|190:174,2,70,0|0|8
278,61,87258,1,0
222,61,87546,1,0
165,61,87835,1,8
72,120,88412,6,4,B|72:256,1,105
156,225,89277,1,4
212,225,89566,2,4,B|212:112,1,105
296,120,90431,1,4
256,192,90720,12,0,92450
112,72,93027,5,0
112,128,93316,1,0
112,183,93604,1,8
112,239,93893,1,0
112,294,94181,1,0
224,294,94758,1,8
336,294,95335,6,0,B|416:296|416:200,1,140,0|8
303,202,96489,1,0
247,202,96777,1,4
190,202,97066,1,4
110,122,97643,5,0
165,122,97931,1,0
221,122,98220,1,8
332,122,98796,1,0
388,122,99085,1,0
443,122,99373,1,8
443,234,99950,5,4
443,346,100527,1,4
330,346,101104,1,4
330,233,101681,1,4
217,233,102258,6,4,B|217:297|129:297,2,105
217,176,103412,2,0,B|216:128,2,46.6666666666667
256,192,103989,12,0,106873
