osu file format v6

[General]
AudioFilename: Scream.mp3
AudioLeadIn: 0
PreviewTime: -1
Countdown: 1
SampleSet: Normal
StackLeniency: 0.7
Mode: 0
LetterboxInBreaks: 1

[Editor]
DistanceSpacing: 0.800000011920929
BeatDivisor: 1
GridSize: 32

[Metadata]
Title:Scream
Artist:BoA
Creator:lilmitsurugi
Version:Easy
Source:
Tags:

[Difficulty]
HPDrainRate:6
CircleSize:4
OverallDifficulty:4
SliderMultiplier:1.4
SliderTickRate:1

[Events]
//Background and Video events
0,0,"BoA.jpg"
//Break Periods
2,106325,111011
//Storyboard Layer 0 (Background)
//Storyboard Layer 1 (Fail)
//Storyboard Layer 2 (Pass)
//Storyboard Layer 3 (Foreground)
//Storyboard Sound Samples
//Background Colour Transformations
3,100,163,162,255

[TimingPoints]
8883.63698179807,1034.48275862069,4,1,0,100,1,0

[HitObjects]
256,192,4745,12,0,8883
256,64,10952,6,0,B|256:320,3,140
64,96,16125,5,0
160,96,17159,1,0
256,96,19228,1,0
352,96,20262,1,0
448,96,21297,1,0
448,288,23366,5,0
224,288,25435,1,0
64,288,27504,1,0
64,160,28538,1,0
64,32,29573,1,0
160,32,30607,1,0
256,32,31642,1,0
352,32,32676,1,0
384,256,34745,1,0
288,160,35780,1,0
192,64,36814,1,0
32,256,38883,5,0
96,160,39918,1,0
160,256,40952,1,0
192,160,43021,1,0
256,256,45090,1,0
320,128,47159,1,0
224,128,48193,1,0
128,128,49228,1,0
128,128,50262,1,0
128,256,51297,1,0
288,256,52331,1,0
32,32,54400,5,0
32,160,55435,1,0
32,320,57504,1,0
192,320,58538,1,0
192,160,59573,1,0
192,32,60607,1,0
256,192,61642,1,0
256,192,65780,5,0
256,320,67849,1,0
256,64,68883,1,0
448,288,70952,1,0
288,288,71987,1,0
128,288,73021,1,0
256,192,74056,1,0
384,96,75090,1,0
256,96,77159,1,0
96,96,78193,1,0
256,96,79228,1,0
384,96,80262,1,0
256,192,81297,1,0
128,288,82331,1,0
256,288,83366,1,0
384,288,84400,1,0
256,192,85435,1,0
96,64,86469,1,0
256,192,87504,1,0
256,192,89573,5,0
384,64,90607,1,0
256,192,91642,1,0
96,320,92676,1,0
256,192,93711,1,0
448,320,95780,1,0
256,192,96814,1,0
416,64,97849,1,0
256,192,98883,1,0
128,320,99918,1,0
256,192,100952,1,0
256,64,101987,1,0
256,320,103021,1,0
256,192,104056,1,0
96,192,105090,1,0
384,192,106125,1,0
64,192,112331,6,0,B|352:192,3,280
448,192,120607,5,0
320,192,121642,1,0
192,192,122676,1,0
64,192,123711,1,0
256,192,125780,1,0
256,32,127849,1,0
256,160,128883,1,0
256,288,129918,1,0
256,192,130952,1,0
416,192,131987,1,0
256,192,133021,1,0
96,192,134056,1,0
256,192,135090,1,0
256,64,136125,1,0
256,192,137159,5,0
256,320,138193,1,0
416,320,139228,1,0
416,192,140262,1,0
416,64,141297,1,0
256,64,142331,1,0
256,128,145435,5,0
256,128,146469,1,0
256,288,148538,1,0
256,192,149573,1,0
256,96,150607,1,0
160,96,151642,1,0
160,192,152676,1,0
160,288,153711,1,0
256,288,154745,1,0
352,288,155780,1,0
352,192,156814,1,0
448,256,158883,5,0
384,160,159918,1,0
320,256,160952,1,0
256,160,161987,1,0
192,256,163021,1,0
128,160,164056,1,0
64,256,165090,1,0
128,160,166125,1,0
192,256,167159,1,0
256,160,168193,1,0
320,256,169228,1,0
384,160,170262,1,0
480,256,171297,1,0
256,64,173366,1,0
256,192,174400,1,0
256,320,175435,1,0
256,192,176469,1,0
128,192,177504,1,0
384,192,178538,1,0
256,192,179573,1,0
256,192,180607,1,0
160,64,182676,2,0,B|352:64|288:320|128:224|32:192|0:192,1,420
