osu file format v5

[General]
AudioFilename: BoA - Meri Kuri.mp3
AudioLeadIn: 2945
PreviewTime: -1
Countdown: 0
SampleSet: Normal
StackLeniency: 0.7
Mode: 0
LetterboxInBreaks: 1

[Metadata]
Title:Meri Kuri
Artist:BoA
Creator:Alace
Version:Beginner
Source:
Tags:

[Difficulty]
HPDrainRate:3
CircleSize:4
OverallDifficulty:5
SliderMultiplier:0.6
SliderTickRate:0.5

[Events]
//Background and Video events
0,0,"vladstudio_xmas_1600x1200.jpg"
//Break Periods
//Storyboard Layer 0 (Background)
//Storyboard Layer 1 (Failing)
//Storyboard Layer 2 (Passing)
//Storyboard Layer 3 (Foreground)
//Storyboard Sound Samples
//Background Colour Transformations
3,100,0,0,0

[TimingPoints]
215,370.37037037037,4,2,1,100,1
78980,370.37037037037,4,1,1,100,0
96758,370.37037037037,4,2,1,100,0
105647,370.37037037037,4,1,1,100,0
113177,370.37037037037,4,2,1,100,0

[Colours]
Combo1 : 255,251,221
Combo2 : 255,223,255
Combo3 : 232,239,255
Combo4 : 223,255,223

[HitObjects]
40,176,17992,1,2
120,224,18733,1,0
120,128,19474,1,2
200,176,20214,2,0,B|280:80,2,120,8|2|0
288,208,22437,5,2
360,272,23177,1,8
432,208,23918,2,0,B|472:152|424:96,1,120,2|0
328,96,25400,1,2
232,96,26140,6,0,B|176:96,5,40,8|2|0|2|2|2
64,96,28363,1,2
128,96,28856,6,2,B|176:96,4,40,2|0|0|2|2
32,96,30585,6,0,B|16:176|48:216,1,120
136,208,32066,1,2
232,208,32807,6,2,B|272:184,3,40
352,152,34289,1,2
352,56,35029,1,8
272,104,35770,5,2
272,200,36511,1,0
184,160,37252,1,2
184,256,37992,2,2,B|56:344|56:160|56:128,1,240,8|0
112,56,40214,5,2
112,152,40955,1,8
192,104,41696,1,2
192,200,42437,1,0
192,264,42931,5,2
192,264,43177,1,2
192,328,43671,6,0,B|240:328,4,40,2|2|0|2|8
96,328,45400,5,2
96,232,46140,1,0
176,176,46881,1,2
96,120,47622,1,8
176,64,48363,1,2
264,24,49103,2,2,B|336:56|472:136|480:160,1,240,0|8
376,184,51326,5,2
280,184,52066,5,2
184,184,52807,5,2
88,192,53548,6,0,B|88:64,3,120,4|2|2|4
184,72,56511,1,2
280,72,57252,1,2
376,72,57992,6,2,B|376:200,3,120,4|2|8|4
384,288,60955,1,2
288,288,61696,1,2
192,288,62437,6,0,B|64:288,3,120,4|2|2|4
72,192,65400,1,2
120,112,66140,5,2
176,192,66881,5,4
224,112,67622,5,2
280,192,68363,5,2
224,272,69103,5,4
176,192,69844,6,2,L|180:188|184:199|190:190|197:199|203:191|207:201|213:192|219:200|223:190|229:200|234:191|240:200|245:191|251:200|257:191|263:200|269:192|273:202|279:194|284:203|291:193|299:202,1,232.5,2|4
400,184,72066,5,2
400,280,72807,2,0,B|344:320|280:272,1,120,2|4
192,248,74289,2,0,B|144:232|120:144,2,120,2|2|4
264,184,76511,5,2
336,248,77252,1,2
416,192,77992,2,0,B|472:160|448:80,1,120,4|2
384,88,79227,5,0
384,88,79474,1,0
288,88,80214,5,4
336,168,80955,1,0
240,168,81696,1,0
208,256,82437,2,4,B|142:242|129:216|137:190|126:174,1,120,4|0
55,239,83918,6,2,B|49:215|65:167|121:151,1,120,0|4
208,192,85400,1,0
304,192,86140,1,0
256,272,86881,1,0
256,336,87375,5,0
256,336,87622,1,0
256,336,87869,1,0
256,336,88116,1,0
256,336,88363,5,4
352,336,89103,2,0,B|440:248,1,120
440,152,90585,2,4,B|344:72,1,120,4|0
248,72,92066,2,4,B|144:152,1,120,0|4
240,192,93548,2,2,B|359:192,3,120,0|0|4|0
456,192,96511,5,0
456,128,97005,2,0,B|456:80,4,40,8|2|2|8|8
376,176,98733,5,2
280,176,99474,1,0
184,176,100214,2,8,B|56:176,1,120,2|8
64,80,101696,2,8,B|192:80,1,120,2|8
280,80,103177,5,4
280,176,103918,5,8
280,80,104659,6,0,L|288:94|283:100|289:108|282:117|288:125|280:134|287:142|279:150|286:158|278:166|286:173|278:180|287:185|279:192|286:200|278:208|286:215|278:221|285:229|277:236|285:244|277:252|285:259,1,240,4|4
360,312,106881,6,2,B|465:240,1,120,0|0
448,144,108363,2,0,B|331:86,2,120,0|4|0
448,208,110338,5,0
448,208,110585,1,0
352,208,111326,5,4
256,208,112066,5,0
256,112,112807,5,0
256,192,113548,12,0,115029
