osu file format v12

[General]
AudioFilename: mamoritai white wishes.mp3
AudioLeadIn: 2000
PreviewTime: 55786
Countdown: 0
SampleSet: Soft
StackLeniency: 0.7
Mode: 0
LetterboxInBreaks: 0

[Editor]
DistanceSpacing: 0.9
BeatDivisor: 4
GridSize: 4

[Metadata]
Title:Mamoritai ~White Wishes~ (English Version)
TitleUnicode:まもりたい ~White Wishes~ (English Version)
Artist:BoA
ArtistUnicode:BoA
Creator:meiikyuu
Version:Wish
Source:Tales of Graces
Tags:lunarsakuya opening tog namco
BeatmapID:204753
BeatmapSetID:71430

[Difficulty]
HPDrainRate:6
CircleSize:4
OverallDifficulty:5
ApproachRate:7
SliderMultiplier:2
SliderTickRate:2

[Events]
//Background and Video events
0,0,"bg1.jpg",0,0
//Break Periods
2,74312,82102
//Storyboard Layer 0 (Background)
//Storyboard Layer 1 (Fail)
//Storyboard Layer 2 (Pass)
//Storyboard Layer 3 (Foreground)
//Storyboard Sound Samples
//Background Colour Transformations
3,100,64,128,128

[TimingPoints]
780,555.555555555556,4,2,1,35,1,0
7446,-133.333333333333,4,2,1,35,0,0
9668,-100,4,2,1,50,0,1
9807,-100,4,2,1,50,0,0
18002,-100,4,2,1,40,0,0
18557,-100,4,2,1,50,0,0
56335,-100,4,2,1,50,0,1
73557,-100,4,2,1,40,0,1
74113,-100,4,2,1,50,0,0
120780,-100,4,2,1,50,0,1
138002,-100,4,2,1,40,0,1
138557,-100,4,2,1,50,0,0
174113,-100,4,2,1,50,0,1
191335,-100,4,2,1,40,0,1
191891,558.139534883721,4,2,1,50,1,0
194113,-100,4,2,1,35,0,0
198620,714.285714285714,4,2,1,35,1,0
200048,1000,4,2,1,35,1,0
201048,1578.94736842105,4,2,1,35,1,0
202626,555.555555555556,4,2,1,35,1,0
202786,-100,4,2,1,15,0,0
209292,-100,4,2,1,8,0,0

[Colours]
Combo1 : 49,152,255
Combo2 : 128,128,255
Combo3 : 100,255,100
Combo4 : 255,128,192

[HitObjects]
360,252,780,2,0,P|404:240|456:212,2,100,2|0|0,0:0|0:0|0:0,0:0:0:0:
284,316,1613,1,2,0:0:0:0:
284,316,2168,2,0,P|252:224|300:128,1,200
368,72,3002,6,0,P|391:118|381:171,2,100,2|0|0,0:0|0:0|0:0,0:0:0:0:
248,48,3835,1,2,0:0:0:0:
248,48,4391,2,0,P|176:88|64:72,1,200
64,184,5224,6,0,P|64:240|80:284,2,100,2|0|0,0:0|0:0|0:0,0:0:0:0:
160,224,6057,1,2,0:0:0:0:
160,224,6613,2,0,P|256:208|344:256,1,200
416,192,7446,5,2,0:0:0:0:
352,332,8002,1,0,0:0:0:0:
160,332,8557,1,2,0:0:0:0:
96,192,9113,1,0,0:0:0:0:
256,56,9668,6,0,L|256:156,1,100,4|0,0:0|0:0,0:0:0:0:
304,244,10224,2,0,P|352:232|400:200,1,100,8|0,0:0|0:0,0:0:0:0:
372,92,10779,1,0,0:0:0:0:
256,56,11057,2,0,P|208:56|156:76,2,100,0|8|0,0:0|0:0|0:0,0:0:0:0:
216,148,11891,6,0,L|188:244,1,100
88,304,12446,1,8,0:0:0:0:
108,192,12724,2,0,P|164:238|289:217,1,200
352,148,13557,1,8,0:0:0:0:
408,232,13835,6,0,L|384:336,2,100
352,148,14668,1,8,0:0:0:0:
272,88,14946,2,0,P|172:80|108:156,1,200
104,248,15779,2,0,P|204:256|268:180,1,200,8|0,0:0|0:0,0:0:0:0:
168,164,16613,2,0,L|128:68,1,100,0|8,0:0|0:0,0:0:0:0:
48,148,17168,1,0,0:0:0:0:
104,248,17446,2,0,P|128:288|172:316,1,100,4|0,0:0|0:0,0:0:0:0:
272,328,18002,2,8,L|328:312,3,50
352,292,18557,6,0,P|384:252|400:200,2,100,4|0|8,0:0|0:0|0:0,0:0:0:0:
312,200,19391,2,0,L|328:100,1,100
200,48,19946,1,0,0:0:0:0:
180,136,20224,1,8,0:0:0:0:
92,120,20502,2,0,P|80:176|76:220,1,100
156,304,21057,2,0,P|120:340|76:364,2,100,0|8|0,0:0|0:0|0:0,0:0:0:0:
204,228,21891,2,0,P|260:300|368:284,1,200,0|8,0:0|0:0,0:0:0:0:
300,212,22724,1,0,0:0:0:0:
224,140,23002,6,0,P|172:144|132:168,1,100
92,248,23557,1,8,0:0:0:0:
48,168,23835,2,0,P|40:116|40:64,1,100
172,36,24391,1,0,0:0:0:0:
256,72,24668,1,8,0:0:0:0:
344,64,24946,2,0,L|376:20,2,50
296,148,25502,2,0,B|340:196|444:120|488:168,1,200
428,252,26335,6,0,P|400:308|376:340,1,100
288,288,26891,1,8,0:0:0:0:
288,288,27030,1,0,0:0:0:0:
288,288,27168,1,2,0:0:0:0:
152,328,27446,5,0,0:0:0:0:
136,232,27724,2,0,P|88:256|60:296,2,100,0|8|0,0:0|0:0|0:0,0:0:0:0:
224,212,28557,1,0,0:0:0:0:
308,184,28835,2,0,P|356:160|384:120,2,100,0|8|0,0:0|0:0|0:0,0:0:0:0:
224,212,29668,1,2,0:0:0:0:
168,112,29946,2,0,P|216:92|264:100,2,100,0|8|0,0:0|0:0|0:0,0:0:0:0:
108,180,30780,2,0,L|120:288,1,100
220,336,31335,2,0,L|208:228,1,100,8|0,0:0|0:0,0:0:0:0:
316,268,31891,6,0,P|364:288|420:280,1,100
456,204,32446,1,8,0:0:0:0:
436,116,32724,2,0,P|356:64|252:84,1,200
160,176,33557,2,0,P|212:184|260:168,1,100,8|0,0:0|0:0,0:0:0:0:
376,184,34113,6,0,L|360:232,3,50,2|0|0|0,0:0|0:0|0:0|0:0,0:0:0:0:
336,268,34668,2,0,P|300:304|252:328,1,100,8|0,0:0|0:0,0:0:0:0:
160,300,35224,2,0,P|144:328|132:340,2,50
96,224,35780,2,0,L|104:168,3,50,8|0|0|0,0:0|0:0|0:0|0:0,0:0:0:0:
120,132,36335,5,4,0:0:0:0:
228,80,36613,2,0,P|220:56|216:28,2,50,0|0|8,0:0|0:0|0:0,0:0:0:0:
352,108,37168,1,0,0:0:0:0:
356,124,37307,1,0,0:0:0:0:
360,140,37446,2,0,P|380:196|388:236,2,100,0|0|8,0:0|0:0|0:0,0:0:0:0:
292,216,38280,6,0,P|252:248|200:256,1,100
148,328,38835,2,0,P|112:292|96:240,1,100,0|8,0:0|0:0,0:0:0:0:
8,244,39391,2,0,P|8:160|84:76,1,200
172,116,40224,1,10,0:0:0:0:
272,120,40502,6,0,P|252:172|220:208,2,100
352,60,41335,2,0,P|368:112|380:160,1,100,8|0,0:0|0:0,0:0:0:0:
356,252,41891,1,0,0:0:0:0:
208,304,42168,1,0,0:0:0:0:
304,344,42446,1,8,0:0:0:0:
260,212,42724,2,0,P|200:172|92:220,1,200
24,152,43557,1,8,0:0:0:0:
64,60,43835,2,0,P|152:76|252:32,1,200
340,52,44668,2,0,L|384:80,2,50,10|0|0,0:0|0:0|0:0,0:0:0:0:
280,140,45224,5,0,0:0:0:0:
352,208,45502,2,0,P|384:204|408:192,2,50,0|0|8,0:0|0:0|0:0,0:0:0:0:
288,284,46057,2,0,P|284:312|292:336,2,50
208,224,46613,2,0,P|160:240|112:236,1,100,0|8,0:0|0:0,0:0:0:0:
60,152,47168,2,0,P|88:184|113:241,1,100
144,48,47724,2,0,P|165:102|170:149,1,100,0|8,0:0|0:0,0:0:0:0:
244,236,48280,2,0,P|276:164|260:40,1,200
176,112,49113,1,10,0:0:0:0:
148,252,49391,5,0,0:0:0:0:
148,252,49668,2,0,P|176:304|304:308,1,200,0|8,0:0|0:0,0:0:0:0:
352,220,50502,2,0,P|340:168|320:120,1,100
224,100,51057,1,0,0:0:0:0:
144,160,51335,1,8,0:0:0:0:
44,140,51613,2,0,P|48:88|72:40,1,100
256,192,52030,12,2,54113,0:0:0:0:
164,80,55780,6,0,P|135:119|129:172,1,100
220,324,56335,6,0,P|252:288|264:236,1,100,4|0,0:0|0:0,0:0:0:0:
216,156,56891,1,8,0:0:0:0:
328,184,57168,2,0,P|392:192|436:180,1,100
376,72,57724,1,0,0:0:0:0:
296,32,58002,1,8,0:0:0:0:
248,108,58280,2,0,P|168:156|64:128,1,200
152,64,59113,1,8,0:0:0:0:
164,192,59391,2,0,L|176:292,1,100
264,340,59946,2,0,L|272:240,1,100,0|8,0:0|0:0,0:0:0:0:
344,160,60502,6,0,P|364:208|368:256,2,100
264,100,61335,1,8,0:0:0:0:
252,200,61613,2,0,P|336:171|358:69,1,200
264,100,62446,2,0,L|164:128,2,100,8|0|0,0:0|0:0|0:0,0:0:0:0:
252,200,63280,2,0,L|155:226,1,100,0|8,0:0|0:0,0:0:0:0:
92,312,63835,2,0,P|140:328|192:324,1,100,0|2,0:0|0:0,0:0:0:0:
208,320,64252,1,0,0:0:0:0:
228,316,64391,1,0,0:0:0:0:
324,264,64668,1,8,0:0:0:0:
420,316,64946,1,0,0:0:0:0:
444,208,65224,6,0,P|440:120|360:44,1,200,4|8,0:0|0:0,0:0:0:0:
292,132,66057,2,0,P|244:152|192:156,1,100
92,120,66613,2,0,P|44:144|12:180,1,100,0|8,0:0|0:0,0:0:0:0:
40,284,67168,2,0,P|88:260|120:224,1,100,0|0,0:0|0:0,0:0:0:0:
188,300,67724,2,0,P|216:260|224:208,1,100,0|8,0:0|0:0,0:0:0:0:
320,232,68280,2,0,P|310:140|248:48,1,200
180,120,69113,1,8,0:0:0:0:
136,208,69391,6,0,P|80:208|40:192,2,100
232,180,70224,1,8,0:0:0:0:
312,120,70502,2,0,P|396:84|496:112,1,200,2|0,0:0|0:0,0:0:0:0:
456,208,71335,1,8,0:0:0:0:
380,280,71613,2,0,P|324:292|276:280,1,100
204,152,72168,2,0,P|258:170|293:205,1,100,0|8,0:0|0:0,0:0:0:0:
180,248,72724,2,0,P|124:224|100:92,1,200
176,44,73557,2,0,L|232:20,4,50,8|8|8|8|4,0:0|0:0|0:0|0:0|0:0,0:0:0:0:
256,48,83002,5,2,0:0:0:0:
316,116,83280,2,0,P|376:120|420:104,2,100,0|0|2,0:0|0:0|0:0,0:0:0:0:
204,256,84391,2,0,P|144:252|100:268,2,100,0|0|0,0:0|0:0|0:0,0:0:0:0:
280,304,85224,1,2,0:0:0:0:
368,288,85502,2,0,P|412:252|444:220,1,100
424,132,86057,2,0,P|388:100|360:56,1,100
272,48,86613,2,0,P|224:72|184:104,2,100,0|0|0,0:0|0:0|0:0,0:0:0:0:
187,100,87446,6,0,P|136:92|96:64,1,100,2|0,0:0|0:0,0:0:0:0:
68,216,88002,1,0,0:0:0:0:
68,216,88280,2,0,P|148:184|264:216,1,200,2|0,0:0|0:0,0:0:0:0:
320,280,89113,1,0,0:0:0:0:
320,280,89391,2,0,P|288:312|236:328,1,100,0|2,0:0|0:0,0:0:0:0:
128,312,89946,2,0,P|88:276|104:140,1,200,0|2,0:0|0:0,0:0:0:0:
316,44,91057,1,0,0:0:0:0:
372,112,91335,1,0,0:0:0:0:
380,200,91613,1,0,0:0:0:0:
344,284,91891,5,0,0:0:0:0:
256,224,92168,2,0,P|236:272|244:324,2,100,0|8|0,0:0|0:0|0:0,0:0:0:0:
96,128,93280,2,0,P|116:80|108:28,2,100,0|8|0,0:0|0:0|0:0,0:0:0:0:
96,228,94113,1,0,0:0:0:0:
184,296,94391,2,0,P|236:292|288:280,1,100,0|8,0:0|0:0,0:0:0:0:
332,176,94946,2,0,P|280:180|228:192,1,100
282,281,95502,2,0,P|304:336|332:368,2,100,0|8|0,0:0|0:0|0:0,0:0:0:0:
412,248,96335,6,0,P|432:204|432:152,1,100
396,60,96891,1,8,0:0:0:0:
316,116,97168,2,0,P|252:124|188:20,1,200
280,28,98002,1,8,0:0:0:0:
316,116,98280,1,0,0:0:0:0:
320,216,98557,6,0,L|308:268,3,50
292,304,99113,2,0,P|248:336|204:344,1,100,8|0,0:0|0:0,0:0:0:0:
112,288,99668,2,0,P|92:308|84:328,2,50
184,200,100224,2,0,L|228:164,3,50
252,140,100780,5,4,0:0:0:0:
152,88,101057,2,0,P|144:60|144:36,2,50,0|0|8,0:0|0:0|0:0,0:0:0:0:
72,156,101613,1,0,0:0:0:0:
72,176,101752,1,0,0:0:0:0:
76,196,101891,2,0,P|88:244|120:284,2,100,0|0|8,0:0|0:0|0:0,0:0:0:0:
184,108,102724,6,0,P|184:152|172:208,1,100
272,208,103280,2,0,P|252:252|220:292,1,100,0|8,0:0|0:0,0:0:0:0:
312,328,103835,2,0,P|364:260|360:148,1,200
288,84,104668,1,10,0:0:0:0:
192,108,104946,6,0,P|136:112|88:112,2,100,0|0|0,0:0|0:0|0:0,0:0:0:0:
252,188,105780,1,8,0:0:0:0:
232,284,106057,2,0,P|200:328|160:356,1,100
136,256,106613,1,0,0:0:0:0:
116,156,106891,1,8,0:0:0:0:
168,72,107168,2,0,P|260:40|356:76,1,200
376,172,108002,2,0,P|368:224|344:264,1,100,8|0,0:0|0:0,0:0:0:0:
256,220,108557,2,0,B|292:160|220:88|260:16,2,200,0|10|0,0:0|0:0|0:0,0:0:0:0:
172,168,109946,6,0,P|144:160|128:148,2,50,0|0|8,0:0|0:0|0:0,0:0:0:0:
340,168,110502,2,0,P|368:160|384:148,2,50,0|0|0,0:0|0:0|0:0,0:0:0:0:
256,264,111057,2,0,L|256:364,1,100,0|8,0:0|0:0,0:0:0:0:
172,332,111613,6,0,B|112:260|120:192|164:168|208:196,1,200,0|0,0:0|0:0,0:0:0:0:
256,264,112446,1,8,0:0:0:0:
340,332,112724,2,0,B|400:260|392:192|348:168|304:196,1,200
256,120,113557,2,0,L|256:20,1,100,10|0,0:0|0:0,0:0:0:0:
172,52,114113,6,0,P|144:96|104:120,1,100
32,188,114668,1,8,0:0:0:0:
88,272,114946,2,0,P|128:304|180:316,1,100
264,268,115502,1,0,0:0:0:0:
356,228,115780,2,0,P|400:212|456:216,2,100,8|0|0,0:0|0:0|0:0,0:0:0:0:
256,192,116474,12,2,118557,0:0:0:0:
372,128,120224,6,0,P|400:172|404:224,1,100
352,344,120780,6,0,P|272:280|256:176,1,200,4|8,0:0|0:0,0:0:0:0:
216,96,121613,2,0,L|152:176,1,100
60,212,122168,1,0,0:0:0:0:
108,300,122446,1,8,0:0:0:0:
204,280,122724,2,0,P|244:192|212:92,1,200
116,100,123557,1,8,0:0:0:0:
148,196,123835,2,0,L|352:176,1,200
380,80,124668,1,8,0:0:0:0:
440,160,124946,6,0,P|444:212|420:264,2,100
380,80,125780,1,8,0:0:0:0:
284,52,126057,2,0,P|196:48|128:132,1,200
228,132,126891,1,8,0:0:0:0:
172,216,127168,2,0,P|260:220|328:136,2,200
76,184,128557,2,0,P|60:164|52:140,2,50,0|2|0,0:0|0:0|0:0,0:0:0:0:
116,276,129113,6,0,P|140:324|176:352,1,100,8|0,0:0|0:0,0:0:0:0:
272,324,129668,2,0,P|336:264|452:272,1,200,4|8,0:0|0:0,0:0:0:0:
452,168,130502,2,0,L|352:136,1,100
264,96,131057,1,0,0:0:0:0:
184,156,131335,2,0,P|162:109|171:53,2,100,8|0|0,0:0|0:0|0:0,0:0:0:0:
284,176,132168,2,0,P|263:227|224:252,1,100,0|8,0:0|0:0,0:0:0:0:
132,284,132724,2,0,P|160:328|208:348,1,100
304,348,133280,2,0,L|408:320,2,100,0|8|0,0:0|0:0|0:0,0:0:0:0:
256,260,134113,5,0,0:0:0:0:
324,184,134391,1,0,0:0:0:0:
256,112,134668,1,8,0:0:0:0:
188,184,134946,2,0,P|160:132|224:20,1,200,2|0,0:0|0:0,0:0:0:0:
324,40,135780,1,8,0:0:0:0:
372,128,136057,2,0,P|420:144|468:144,2,100,0|2|0,0:0|0:0|0:0,0:0:0:0:
272,132,136891,2,0,P|232:168|176:184,1,100,8|0,0:0|0:0,0:0:0:0:
88,132,137446,2,0,P|128:96|184:80,1,100,0|0,0:0|0:0,0:0:0:0:
272,132,138002,2,8,L|320:168,3,50
344,192,138557,6,0,P|384:236|380:340,2,150,4|0|0,0:0|0:0|0:0,0:0:0:0:
268,256,139668,2,0,B|228:272|188:312|188:312|144:272|104:256,1,200,0|8,0:0|0:0,0:0:0:0:
112,156,140502,1,0,0:0:0:0:
212,168,140780,2,0,P|276:140|312:72,2,150
224,68,141891,2,0,B|220:152|344:140|348:208,1,200,0|10,0:0|0:0,0:0:0:0:
328,308,142724,1,0,0:0:0:0:
256,236,143002,6,0,P|204:284|184:368,2,150
256,236,144113,2,0,P|308:284|328:368,2,150
224,140,145224,2,0,B|176:92|160:44|208:-12|240:4|256:36|256:36|272:4|304:-12|352:44|336:92|288:140,2,400
112,316,148002,6,0,L|100:212,1,100,8|0,0:0|0:0,0:0:0:0:
88,116,148557,2,0,P|144:132|188:208,2,150,4|4|4,0:0|0:0|0:0,0:0:0:0:
100,216,149668,2,0,P|140:284|256:304,1,200,0|8,0:0|0:0,0:0:0:0:
352,292,150502,1,0,0:0:0:0:
288,216,150779,6,0,P|244:148|272:32,1,200,0|10,0:0|0:0,0:0:0:0:
360,80,151613,1,0,0:0:0:0:
420,160,151891,2,0,P|428:244|340:312,1,200,0|8,0:0|0:0,0:0:0:0:
256,192,152585,12,2,154113,0:0:0:0:
156,192,155224,5,0,0:0:0:0:
356,192,155779,1,2,0:0:0:0:
256,336,156335,6,0,P|152:336|88:268,1,200,4|0,0:0|0:0,0:0:0:0:
64,184,157168,1,2,0:0:0:0:
212,84,157724,2,0,P|188:40|144:16,2,100
156,156,158557,2,0,P|260:160|300:84,1,200,2|0,0:0|0:0,0:0:0:0:
212,84,159391,2,0,P|252:160|356:156,1,200,2|0,0:0|0:0,0:0:0:0:
432,108,160224,1,0,0:0:0:0:
432,200,160502,6,0,P|484:188|512:152,2,100,0|2|0,0:0|0:0|0:0,0:0:0:0:
344,216,161335,1,0,0:0:0:0:
256,208,161613,2,0,P|188:212|136:324,1,200,2|0,0:0|0:0,0:0:0:0:
224,296,162446,1,0,0:0:0:0:
312,276,162724,2,0,P|344:224|272:116,2,200,0|0|2,0:0|0:0|0:0,0:0:0:0:
224,296,164113,2,0,L|128:264,1,100
88,156,164668,6,0,P|144:172|176:204,1,100
224,296,165224,2,0,P|280:244|276:128,1,200,4|8,0:0|0:0,0:0:0:0:
196,68,166057,2,0,L|288:24,1,100
380,64,166613,1,0,0:0:0:0:
436,144,166891,1,8,0:0:0:0:
420,244,167168,2,0,P|408:292|372:332,1,100
316,248,167724,2,0,P|280:284|232:296,1,100,0|8,0:0|0:0,0:0:0:0:
220,196,168279,2,0,P|128:200|56:120,1,200
160,112,169113,1,8,0:0:0:0:
304,176,169391,6,0,P|296:224|268:268,2,100
244,96,170224,1,8,0:0:0:0:
144,88,170502,2,0,P|68:152|72:256,1,200,2|0,0:0|0:0,0:0:0:0:
132,324,171335,1,8,0:0:0:0:
232,324,171613,2,0,B|268:316|292:276|328:272,1,100,0|4,0:0|0:0,0:0:0:0:
256,192,172029,12,0,173002,0:0:0:0:
256,60,173557,6,0,L|256:164,1,100
312,276,174113,6,0,P|364:196|344:88,1,200,4|8,0:0|0:0,0:0:0:0:
256,60,174946,2,0,L|156:84,1,100
68,172,175502,1,0,0:0:0:0:
132,252,175779,1,8,0:0:0:0:
228,232,176057,2,0,P|284:212|308:172,1,100
304,72,176613,2,0,P|252:88|220:128,1,100,0|8,0:0|0:0,0:0:0:0:
304,180,177168,2,0,P|380:188|456:96,1,200
356,92,178002,1,8,0:0:0:0:
304,180,178279,5,0,0:0:0:0:
260,268,178557,2,0,P|224:304|176:320,1,100
80,296,179113,1,8,0:0:0:0:
152,228,179391,2,0,P|188:132|136:48,1,200
48,84,180224,1,8,0:0:0:0:
116,156,180502,2,0,P|204:133|241:30,2,200,0|0|2,0:0|0:0|0:0,0:0:0:0:
52,232,181891,2,0,L|28:280,2,50,0|2|0,0:0|0:0|0:0,0:0:0:0:
140,280,182446,6,0,P|188:272|244:276,1,100,8|0,0:0|0:0,0:0:0:0:
308,348,183002,2,0,P|348:296|304:176,1,200,4|8,0:0|0:0,0:0:0:0:
208,192,183835,2,0,L|184:92,1,100
256,24,184391,1,0,0:0:0:0:
328,95,184668,1,8,0:0:0:0:
312,192,184946,2,0,P|296:236|256:276,1,100
133,254,185502,2,0,P|161:217|212:191,1,100,0|8,0:0|0:0,0:0:0:0:
200,308,186057,2,0,P|132:340|48:264,1,200
64,168,186891,1,8,0:0:0:0:
192,192,187168,6,0,P|236:220|292:224,2,100
172,92,188002,1,8,0:0:0:0:
260,44,188279,2,0,P|360:44|432:112,1,200,2|0,0:0|0:0,0:0:0:0:
420,208,189113,1,8,0:0:0:0:
348,276,189391,2,0,P|296:276|248:248,2,100,0|2|0,0:0|0:0|0:0,0:0:0:0:
320,180,190224,2,0,P|308:128|296:80,1,100,8|0,0:0|0:0,0:0:0:0:
200,56,190779,2,0,P|212:108|224:156,1,100,0|0,0:0|0:0,0:0:0:0:
216,252,191335,2,8,L|200:304,3,50
188,224,191891,6,0,P|132:228|88:208,1,100,2|0,0:0|0:0,0:0:0:0:
68,124,192449,1,0,0:0:0:0:
156,144,192728,2,0,P|240:112|328:172,1,200,2|0,0:0|0:0,0:0:0:0:
308,256,193565,1,0,0:0:0:0:
224,288,193844,2,0,B|188:292|152:264|120:276,1,100,0|4,0:0|0:0,0:0:0:0:
48,232,194402,5,0,0:0:0:0:
60,144,194681,2,0,P|80:88|104:56,1,100
156,132,195239,2,0,P|201:93|238:77,1,100
380,188,196077,1,0,0:0:0:0:
348,272,196356,6,0,P|296:304|252:312,1,100,2|0,0:0|0:0,0:0:0:0:
180,264,196914,2,0,P|128:240|72:232,2,100,0|0|2,0:0|0:0|0:0,0:0:0:0:
268,264,197751,1,0,0:0:0:0:
340,212,198030,1,0,0:0:0:0:
344,124,198309,1,0,0:0:0:0:
256,36,198620,6,0,P|212:60|184:132,1,100
152,184,199334,2,0,P|112:152|100:100,2,100,0|0|2,0:0|0:0|0:0,0:0:0:0:
240,192,200548,6,0,B|272:168|320:200|360:168,1,100,0|2,0:0|0:0,0:0:0:0:
256,192,202626,12,0,209292,0:0:0:0:
