osu file format v12

[General]
AudioFilename: mamoritai white wishes.mp3
AudioLeadIn: 2000
PreviewTime: 55786
Countdown: 0
SampleSet: Soft
StackLeniency: 0.7
Mode: 0
LetterboxInBreaks: 0

[Editor]
DistanceSpacing: 1
BeatDivisor: 4
GridSize: 4

[Metadata]
Title:Mamoritai ~White Wishes~ (English Version)
TitleUnicode:まもりたい ~White Wishes~ (English Version)
Artist:BoA
ArtistUnicode:BoA
Creator:meiikyuu
Version:Promise
Source:Tales of Graces
Tags:lunarsakuya opening tog namco
BeatmapID:204752
BeatmapSetID:71430

[Difficulty]
HPDrainRate:7
CircleSize:4
OverallDifficulty:7
ApproachRate:8
SliderMultiplier:2.4
SliderTickRate:2

[Events]
//Background and Video events
0,0,"bg1.jpg",0,0
//Break Periods
2,74313,82252
//Storyboard Layer 0 (Background)
//Storyboard Layer 1 (Fail)
//Storyboard Layer 2 (Pass)
//Storyboard Layer 3 (Foreground)
//Storyboard Sound Samples
//Background Colour Transformations
3,100,64,128,128

[TimingPoints]
780,555.555555555556,4,2,1,35,1,0
7446,-133.333333333333,4,2,1,35,0,0
9668,-100,4,2,1,55,0,1
9807,-100,4,2,1,55,0,0
18002,-100,4,2,1,40,0,0
56335,-100,4,2,1,60,0,1
74113,-100,4,2,1,55,0,0
120224,-133.333333333333,4,2,1,55,0,0
120780,-100,4,2,1,60,0,1
138002,-100,4,2,1,50,0,1
138557,-100,4,2,1,55,0,0
155780,-133.333333333333,4,2,1,55,0,0
165224,-100,4,2,1,55,0,0
174113,-100,4,2,1,60,0,1
191335,-100,4,2,1,45,0,1
191891,558.139534883721,4,2,1,55,1,0
191891,-133.333333333333,4,2,1,55,0,0
196057,-133.333333333333,4,2,1,35,0,0
198620,714.285714285714,4,2,1,35,1,0
200048,1000,4,2,1,35,1,0
201048,1578.94736842105,4,2,1,35,1,0
202626,555.555555555556,4,2,1,35,1,0
202786,-133.333333333333,4,2,1,15,0,0
209292,-133.333333333333,4,2,1,8,0,0

[Colours]
Combo1 : 49,152,255
Combo2 : 128,128,255
Combo3 : 100,255,100
Combo4 : 255,128,192

[HitObjects]
84,272,780,1,2,0:0:0:0:
164,216,1057,1,0,0:0:0:0:
172,312,1335,1,0,0:0:0:0:
84,272,1613,1,2,0:0:0:0:
84,272,2168,1,0,0:0:0:0:
84,272,2724,1,0,0:0:0:0:
164,216,3002,5,2,0:0:0:0:
168,96,3280,1,0,0:0:0:0:
268,160,3557,1,0,0:0:0:0:
164,216,3835,1,2,0:0:0:0:
164,216,4391,1,0,0:0:0:0:
164,216,4946,1,0,0:0:0:0:
276,264,5224,5,2,0:0:0:0:
360,308,5502,1,0,0:0:0:0:
436,252,5780,1,0,0:0:0:0:
436,156,6057,1,2,0:0:0:0:
436,156,6613,1,0,0:0:0:0:
256,40,7168,1,0,0:0:0:0:
184,120,7446,6,0,L|128:196,1,90.0000034332277,2|0,0:0|0:0,0:0:0:0:
328,120,8002,2,0,L|384:196,1,90.0000034332277,0|0,0:0|0:0,0:0:0:0:
204,244,8557,2,0,L|148:320,1,90.0000034332277,0|0,0:0|0:0,0:0:0:0:
308,244,9113,2,0,L|364:320,1,90.0000034332277,0|0,0:0|0:0,0:0:0:0:
436,224,9668,5,4,0:0:0:0:
440,104,9946,1,0,0:0:0:0:
332,156,10224,1,8,0:0:0:0:
296,41,10502,2,0,P|232:44|172:72,1,120
117,200,11057,2,0,P|181:197|232:176,1,120,0|8,0:0|0:0,0:0:0:0:
288,284,11613,1,0,0:0:0:0:
332,156,11891,5,0,0:0:0:0:
420,260,12168,1,0,0:0:0:0:
332,156,12446,1,8,0:0:0:0:
288,284,12724,2,0,P|236:320|160:320,1,120
116,224,13279,2,0,L|84:100,2,120,0|8|0,0:0|0:0|0:0,0:0:0:0:
180,124,14113,5,0,0:0:0:0:
256,216,14391,1,0,0:0:0:0:
316,204,14529,1,0,0:0:0:0:
344,152,14668,1,8,0:0:0:0:
416,56,14946,2,0,P|456:108|460:172,1,120
436,280,15502,1,0,0:0:0:0:
436,280,15779,2,0,B|404:312|348:284|312:316,1,120,10|0,0:0|0:0,0:0:0:0:
168,216,16335,6,0,P|176:144|220:108,1,120
344,216,16891,2,0,P|336:144|292:108,1,120,8|0,0:0|0:0,0:0:0:0:
256,224,17446,1,2,0:0:0:0:
128,308,17724,1,0,0:0:0:0:
76,200,18002,1,8,0:0:0:0:
88,164,18141,1,8,0:0:0:0:
100,128,18280,1,8,0:0:0:0:
112,96,18418,1,8,0:0:0:0:
124,60,18557,1,6,0:0:0:0:
224,124,18835,6,0,P|252:176|300:212,1,120,0|8,0:0|0:0,0:0:0:0:
368,124,19391,2,0,P|340:72|292:36,1,120
172,56,19946,1,0,0:0:0:0:
132,84,20085,1,0,0:0:0:0:
92,112,20224,2,0,P|72:172|76:232,1,120,8|0,0:0|0:0,0:0:0:0:
156,316,20780,1,0,0:0:0:0:
256,248,21057,6,0,L|256:112,2,120,0|8|0,0:0|0:0|0:0,0:0:0:0:
356,316,21891,1,0,0:0:0:0:
416,212,22168,1,0,0:0:0:0:
384,96,22446,1,10,0:0:0:0:
280,32,22724,1,0,0:0:0:0:
176,96,23002,6,0,P|152:152|108:196,1,120,2|0,0:0|0:0,0:0:0:0:
60,224,23418,1,0,0:0:0:0:
44,280,23557,2,0,P|68:340|120:376,1,120,10|0,0:0|0:0,0:0:0:0:
216,312,24113,1,0,0:0:0:0:
336,328,24391,2,0,P|384:276|392:220,1,120,0|8,0:0|0:0,0:0:0:0:
336,93,24946,2,0,P|288:145|280:192,1,120,0|2,0:0|0:0,0:0:0:0:
164,160,25502,1,0,0:0:0:0:
164,160,25641,1,0,0:0:0:0:
164,160,25780,1,8,0:0:0:0:
96,256,26057,5,2,0:0:0:0:
184,340,26335,1,2,0:0:0:0:
256,244,26613,1,0,0:0:0:0:
360,304,26891,1,10,0:0:0:0:
396,272,27030,1,0,0:0:0:0:
420,232,27168,1,0,0:0:0:0:
428,184,27307,1,0,0:0:0:0:
424,136,27446,1,2,0:0:0:0:
332,60,27724,6,0,L|208:92,1,120,0|8,0:0|0:0,0:0:0:0:
184,208,28280,2,0,L|300:178,1,120,0|0,0:0|0:0,0:0:0:0:
240,284,28835,1,0,0:0:0:0:
132,124,29113,1,8,0:0:0:0:
76,228,29391,2,0,P|64:288|16:336,1,120,0|2,0:0|0:0,0:0:0:0:
76,228,29946,1,0,0:0:0:0:
156,320,30224,5,8,0:0:0:0:
256,252,30502,1,0,0:0:0:0:
364,308,30780,1,0,0:0:0:0:
404,280,30918,1,0,0:0:0:0:
408,232,31057,1,0,0:0:0:0:
396,112,31335,2,0,P|336:92|272:108,1,120,8|0,0:0|0:0,0:0:0:0:
188,180,31891,6,0,P|248:200|312:184,1,120,2|0,0:0|0:0,0:0:0:0:
302,189,32307,1,0,0:0:0:0:
302,189,32446,1,8,0:0:0:0:
364,320,32724,2,0,P|256:272|144:328,1,240,2|0,0:0|0:0,0:0:0:0:
151,319,33557,1,8,0:0:0:0:
80,220,33835,1,0,0:0:0:0:
116,104,34113,5,2,0:0:0:0:
152,72,34252,1,0,0:0:0:0:
200,64,34391,1,0,0:0:0:0:
248,76,34530,1,0,0:0:0:0:
280,112,34668,1,8,0:0:0:0:
368,192,34946,1,0,0:0:0:0:
296,288,35224,1,0,0:0:0:0:
296,288,35363,1,0,0:0:0:0:
296,288,35502,1,0,0:0:0:0:
180,312,35780,5,10,0:0:0:0:
144,284,35918,1,0,0:0:0:0:
116,244,36057,1,0,0:0:0:0:
104,196,36196,1,0,0:0:0:0:
112,148,36335,1,4,0:0:0:0:
216,84,36613,5,2,0:0:0:0:
228,136,36752,1,0,0:0:0:0:
240,188,36891,1,10,0:0:0:0:
352,256,37168,1,2,0:0:0:0:
368,204,37307,1,0,0:0:0:0:
380,152,37446,1,2,0:0:0:0:
464,236,37724,1,0,0:0:0:0:
428,352,38002,1,8,0:0:0:0:
312,324,38280,6,0,P|248:312|188:316,1,120
76,340,38835,1,0,0:0:0:0:
68,220,39113,2,0,P|88:160|144:120,1,120,8|0,0:0|0:0,0:0:0:0:
220,208,39668,1,0,0:0:0:0:
304,124,39946,2,0,L|392:36,1,120,0|10,0:0|0:0,0:0:0:0:
452,140,40502,1,0,0:0:0:0:
428,256,40780,5,2,0:0:0:0:
288,288,41057,1,0,0:0:0:0:
420,340,41335,1,8,0:0:0:0:
348,224,41613,1,0,0:0:0:0:
336,360,41891,1,0,0:0:0:0:
196,324,42168,1,0,0:0:0:0:
176,205,42446,6,0,L|196:324,1,120,8|0,0:0|0:0,0:0:0:0:
64,260,43002,2,0,L|44:141,1,120,0|0,0:0|0:0,0:0:0:0:
132,60,43557,1,8,0:0:0:0:
252,48,43835,2,0,P|336:80|288:200,1,240,2|0,0:0|0:0,0:0:0:0:
252,48,44668,2,0,L|200:172,1,120,10|0,0:0|0:0,0:0:0:0:
200,280,45224,5,2,0:0:0:0:
108,204,45502,1,2,0:0:0:0:
92,160,45641,1,0,0:0:0:0:
76,116,45780,1,10,0:0:0:0:
180,136,46057,1,2,0:0:0:0:
188,88,46196,1,0,0:0:0:0:
196,40,46335,1,2,0:0:0:0:
296,88,46613,2,0,L|264:208,1,120,0|8,0:0|0:0,0:0:0:0:
228,316,47168,6,0,P|288:352|380:300,1,180,2|0,0:0|0:0,0:0:0:0:
380,244,47724,2,0,P|360:184|380:132,1,120,0|8,0:0|0:0,0:0:0:0:
488,184,48280,2,0,P|392:120|264:136,1,240,2|0,0:0|0:0,0:0:0:0:
188,216,49113,1,10,0:0:0:0:
80,264,49391,1,0,0:0:0:0:
80,264,49668,6,0,P|116:176|224:256,1,240,2|8,0:0|0:0,0:0:0:0:
432,264,50502,2,0,P|396:176|288:256,1,240,2|0,0:0|0:0,0:0:0:0:
256,340,51335,1,8,0:0:0:0:
256,340,51613,1,0,0:0:0:0:
256,192,51891,12,2,54113,0:0:0:0:
216,64,55780,5,0,0:0:0:0:
324,116,56057,1,0,0:0:0:0:
376,224,56335,6,0,P|360:284|308:328,1,120,6|0,0:0|0:0,0:0:0:0:
200,304,56891,1,8,0:0:0:0:
128,208,57168,2,0,P|144:148|196:104,1,120,0|2,0:0|0:0,0:0:0:0:
304,112,57724,1,0,0:0:0:0:
396,188,58002,5,8,0:0:0:0:
396,188,58280,2,0,B|392:236|340:240|332:308,1,120,2|0,0:0|0:0,0:0:0:0:
256,200,58835,1,0,0:0:0:0:
176,289,59113,2,0,B|172:240|120:236|116:188,2,120,8|0|0,0:0|0:0|0:0,0:0:0:0:
256,380,59946,1,0,0:0:0:0:
256,380,60085,1,0,0:0:0:0:
256,380,60224,1,8,0:0:0:0:
256,200,60502,5,0,0:0:0:0:
256,80,60780,2,0,L|256:200,1,120,2|0,0:0|0:0,0:0:0:0:
372,108,61335,1,8,0:0:0:0:
396,224,61613,2,0,P|364:280|308:312,1,120,2|0,0:0|0:0,0:0:0:0:
115,222,62168,2,0,P|148:280|193:308,1,120,0|8,0:0|0:0,0:0:0:0:
256,208,62724,6,0,B|280:164|244:128|260:72,1,120
356,156,63280,2,0,P|372:96|340:48,1,120,0|8,0:0|0:0,0:0:0:0:
169,50,63835,2,0,P|140:96|156:156,1,120,2|0,0:0|0:0,0:0:0:0:
92,260,64391,1,2,0:0:0:0:
168,352,64668,1,8,0:0:0:0:
208,324,64807,1,2,0:0:0:0:
256,312,64946,1,2,0:0:0:0:
304,324,65085,1,2,0:0:0:0:
344,352,65224,6,0,P|392:300|404:244,1,120,6|0,0:0|0:0,0:0:0:0:
359,97,65780,1,8,0:0:0:0:
359,97,66057,2,0,P|311:149|300:196,1,120,0|0,0:0|0:0,0:0:0:0:
192,248,66613,1,0,0:0:0:0:
120,152,66891,1,8,0:0:0:0:
176,44,67168,1,0,0:0:0:0:
288,88,67446,6,0,P|336:124|412:128,1,120,2|0,0:0|0:0,0:0:0:0:
432,272,68002,2,0,P|373:279|325:315,1,120,8|0,0:0|0:0,0:0:0:0:
204,320,68557,1,0,0:0:0:0:
136,224,68835,1,0,0:0:0:0:
136,224,68974,1,0,0:0:0:0:
136,224,69113,1,8,0:0:0:0:
172,108,69391,1,0,0:0:0:0:
276,52,69668,6,0,L|352:152,1,120,2|0,0:0|0:0,0:0:0:0:
416,248,70224,1,8,0:0:0:0:
300,220,70502,2,0,P|320:120|440:140,1,240,2|0,0:0|0:0,0:0:0:0:
416,248,71335,1,8,0:0:0:0:
356,352,71613,1,0,0:0:0:0:
256,288,71891,5,2,0:0:0:0:
156,352,72168,1,0,0:0:0:0:
80,260,72446,1,8,0:0:0:0:
80,140,72724,1,0,0:0:0:0:
168,60,73002,2,0,P|216:108|232:160,1,120
296,256,73557,5,8,0:0:0:0:
320,216,73696,1,8,0:0:0:0:
344,176,73835,1,8,0:0:0:0:
368,136,73974,1,8,0:0:0:0:
392,96,74113,1,4,0:0:0:0:
324,268,83002,5,2,0:0:0:0:
420,196,83280,1,0,0:0:0:0:
308,156,83557,1,0,0:0:0:0:
324,268,83835,1,0,0:0:0:0:
104,168,84391,1,0,0:0:0:0:
172,69,84668,1,0,0:0:0:0:
216,180,84946,1,0,0:0:0:0:
300,324,85502,5,0,0:0:0:0:
404,260,85780,1,0,0:0:0:0:
432,144,86057,1,0,0:0:0:0:
364,44,86335,2,0,L|240:64,1,120,0|0,0:0|0:0,0:0:0:0:
180,164,86891,2,0,L|298:144,1,120,2|0,0:0|0:0,0:0:0:0:
268,260,87446,6,0,P|216:312|100:216,1,240,2|0,0:0|0:0,0:0:0:0:
208,180,88280,2,0,P|260:128|376:224,1,240,2|0,0:0|0:0,0:0:0:0:
377,206,89113,1,0,0:0:0:0:
356,324,89391,1,0,0:0:0:0:
240,296,89668,5,2,0:0:0:0:
120,312,89946,1,0,0:0:0:0:
120,312,90085,1,0,0:0:0:0:
120,312,90224,1,0,0:0:0:0:
76,200,90502,2,0,P|132:144|240:148,1,180,2|0,0:0|0:0,0:0:0:0:
236,200,91057,2,0,P|296:208|360:180,1,120
432,96,91613,1,0,0:0:0:0:
448,216,91891,5,2,0:0:0:0:
368,304,92168,2,0,P|324:340|248:352,2,120,0|8|0,0:0|0:0|0:0,0:0:0:0:
448,216,93002,1,0,0:0:0:0:
332,184,93280,2,0,P|275:178|213:133,2,120,0|8|0,0:0|0:0|0:0,0:0:0:0:
344,64,94113,1,0,0:0:0:0:
224,48,94391,5,0,0:0:0:0:
112,92,94668,1,8,0:0:0:0:
64,204,94946,1,0,0:0:0:0:
112,316,95224,2,0,L|216:228,1,120
320,212,95780,2,0,L|305:331,1,120,8|0,0:0|0:0,0:0:0:0:
432,256,96335,5,2,0:0:0:0:
412,136,96613,1,0,0:0:0:0:
296,100,96891,1,8,0:0:0:0:
212,188,97168,2,0,P|148:228|112:96,1,240,2|0,0:0|0:0,0:0:0:0:
200,60,98002,1,8,0:0:0:0:
212,188,98280,1,0,0:0:0:0:
228,308,98557,5,2,0:0:0:0:
260,344,98696,1,0,0:0:0:0:
308,356,98835,1,0,0:0:0:0:
356,352,98974,1,0,0:0:0:0:
400,332,99113,2,0,P|420:312|432:276,3,60,8|0|0|0,0:0|0:0|0:0|0:0,0:0:0:0:
412,240,99668,2,0,P|396:212|400:172,3,60
396,136,100224,1,2,0:0:0:0:
376,92,100363,1,0,0:0:0:0:
340,60,100502,1,2,0:0:0:0:
296,40,100641,1,0,0:0:0:0:
248,44,100780,5,4,0:0:0:0:
184,172,101057,2,0,L|152:224,2,60,0|0|8,0:0|0:0|0:0,0:0:0:0:
328,172,101613,2,0,L|360:224,2,60
256,352,102168,2,0,L|256:232,1,120,0|8,0:0|0:0,0:0:0:0:
308,112,102724,6,0,P|260:148|200:164,1,120,2|0,0:0|0:0,0:0:0:0:
88,132,103280,2,0,P|136:96|196:80,1,120,2|8,0:0|0:0,0:0:0:0:
320,236,103835,1,2,0:0:0:0:
228,312,104113,1,0,0:0:0:0:
112,280,104391,1,0,0:0:0:0:
52,176,104668,2,0,L|52:56,1,120,10|0,0:0|0:0,0:0:0:0:
164,104,105224,5,0,0:0:0:0:
256,180,105502,1,0,0:0:0:0:
348,104,105780,1,8,0:0:0:0:
421,198,106057,2,0,P|436:259|423:327,1,120
320,364,106613,2,0,P|311:308|326:247,2,120,0|8|0,0:0|0:0|0:0,0:0:0:0:
240,276,107446,1,2,0:0:0:0:
120,284,107724,1,0,0:0:0:0:
88,240,107863,1,0,0:0:0:0:
60,196,108002,1,8,0:0:0:0:
168,112,108280,6,0,P|256:180|344:108,1,240,2|0,0:0|0:0,0:0:0:0:
256,60,109113,1,10,0:0:0:0:
256,60,109252,1,0,0:0:0:0:
256,60,109391,1,0,0:0:0:0:
256,260,109668,5,2,0:0:0:0:
352,188,109946,2,0,L|372:124,2,60,2|0|8,0:0|0:0|0:0,0:0:0:0:
160,188,110502,2,0,L|140:124,2,60,2|0|0,0:0|0:0|0:0,0:0:0:0:
200,316,111057,2,0,P|259:338|320:304,2,120,0|8|0,0:0|0:0|0:0,0:0:0:0:
256,208,111891,6,0,L|312:96,1,120
360,68,112307,1,0,0:0:0:0:
412,96,112446,2,0,P|432:160|424:224,1,120,8|0,0:0|0:0,0:0:0:0:
360,312,113002,2,0,B|320:340|276:312|224:328,1,120
132,280,113557,1,10,0:0:0:0:
108,164,113835,1,0,0:0:0:0:
132,280,114113,6,0,P|220:248|308:264,1,180,2|0,0:0|0:0,0:0:0:0:
356,292,114668,1,8,0:0:0:0:
444,208,114946,2,0,P|404:160|344:144,1,120
256,220,115502,2,0,P|228:168|232:100,2,120,0|8|0,0:0|0:0|0:0,0:0:0:0:
368,264,116335,5,2,0:0:0:0:
344,304,116474,1,0,0:0:0:0:
304,328,116613,1,0,0:0:0:0:
256,336,116752,1,0,0:0:0:0:
208,328,116891,1,10,0:0:0:0:
168,304,117030,1,0,0:0:0:0:
144,264,117168,1,0,0:0:0:0:
136,216,117307,1,0,0:0:0:0:
140,168,117446,6,0,L|160:104,3,60,2|0|0|0,0:0|0:0|0:0|0:0,0:0:0:0:
188,72,118002,2,8,L|240:28,3,60,8|8|0|0,0:0|0:0|0:0|0:0,0:0:0:0:
280,28,118557,1,2,0:0:0:0:
212,256,120224,6,0,P|256:264|304:256,1,90.0000034332277,0|0,0:0|0:0,0:0:0:0:
368,120,120780,2,0,P|256:92|137:120,1,240,6|8,0:0|0:0,0:0:0:0:
108,236,121613,2,0,L|66:348,1,120
212,176,122168,1,0,0:0:0:0:
184,292,122446,1,8,0:0:0:0:
296,248,122724,6,0,P|360:232|428:256,1,120
296,248,123280,2,0,P|312:312|288:380,1,120,0|8,0:0|0:0,0:0:0:0:
296,248,123835,2,0,P|232:264|164:240,1,120
124,144,124391,1,0,0:0:0:0:
112,100,124530,1,0,0:0:0:0:
120,52,124668,1,8,0:0:0:0:
232,96,124946,5,0,0:0:0:0:
276,208,125224,1,2,0:0:0:0:
372,132,125502,1,0,0:0:0:0:
416,244,125780,1,8,0:0:0:0:
348,344,126057,2,0,P|292:364|220:364,1,120
136,292,126613,1,0,0:0:0:0:
136,292,126752,1,0,0:0:0:0:
136,292,126891,1,8,0:0:0:0:
132,172,127168,6,0,P|160:116|204:80,1,120
380,172,127724,2,0,P|352:116|308:80,1,120,0|8,0:0|0:0,0:0:0:0:
256,252,128280,2,0,L|256:132,1,120,2|0,0:0|0:0,0:0:0:0:
160,204,128835,1,0,0:0:0:0:
164,324,129113,1,8,0:0:0:0:
208,344,129252,1,0,0:0:0:0:
256,352,129391,1,0,0:0:0:0:
304,344,129530,1,0,0:0:0:0:
348,324,129668,6,0,P|384:268|396:204,1,120,4|0,0:0|0:0,0:0:0:0:
332,108,130224,2,0,P|276:92|208:96,1,120,8|0,0:0|0:0,0:0:0:0:
116,160,130780,1,0,0:0:0:0:
80,276,131057,1,0,0:0:0:0:
180,340,131335,2,0,P|240:320|304:320,1,120,8|0,0:0|0:0,0:0:0:0:
412,352,131891,6,0,P|444:296|452:232,1,120,2|0,0:0|0:0,0:0:0:0:
452,192,132307,1,0,0:0:0:0:
444,144,132446,1,8,0:0:0:0:
352,64,132724,2,0,P|288:64|232:96,1,120
175,225,133280,2,0,P|239:225|288:200,1,120,0|8,0:0|0:0,0:0:0:0:
156,328,133835,1,0,0:0:0:0:
156,328,133974,1,0,0:0:0:0:
156,328,134113,6,0,P|215:350|270:344,1,120,2|0,0:0|0:0,0:0:0:0:
352,256,134668,1,8,0:0:0:0:
348,136,134946,2,0,P|240:96|120:144,1,240,2|0,0:0|0:0,0:0:0:0:
72,244,135780,1,8,0:0:0:0:
164,324,136057,1,0,0:0:0:0:
164,324,136335,6,0,L|196:196,1,120,2|0,0:0|0:0,0:0:0:0:
348,324,136891,2,0,L|316:196,1,120,8|0,0:0|0:0,0:0:0:0:
120,192,137446,2,0,P|152:128|204:104,1,120,2|0,0:0|0:0,0:0:0:0:
312,108,138002,1,8,0:0:0:0:
352,136,138141,1,8,0:0:0:0:
376,176,138280,1,8,0:0:0:0:
388,224,138418,1,8,0:0:0:0:
384,272,138557,6,0,P|340:312|268:328,1,120,4|0,0:0|0:0,0:0:0:0:
224,320,138974,2,0,P|168:300|104:312,1,120,2|0,0:0|0:0,0:0:0:0:
52,328,139391,1,2,0:0:0:0:
52,208,139668,2,0,L|156:128,1,120
291,170,140224,2,0,L|196:244,1,120,8|0,0:0|0:0,0:0:0:0:
292,316,140780,6,0,P|360:320|404:288,1,120,2|0,0:0|0:0,0:0:0:0:
416,232,141196,2,0,P|392:168|404:104,1,120,2|0,0:0|0:0,0:0:0:0:
416,60,141613,1,2,0:0:0:0:
312,120,141891,2,0,P|256:148|192:148,1,120,2|0,0:0|0:0,0:0:0:0:
140,148,142307,1,0,0:0:0:0:
88,176,142446,2,0,P|88:236|128:292,1,120,10|0,0:0|0:0,0:0:0:0:
224,344,143002,6,0,P|292:336|336:288,1,120,2|0,0:0|0:0,0:0:0:0:
328,302,143418,1,0,0:0:0:0:
328,302,143557,1,8,0:0:0:0:
368,188,143835,1,0,0:0:0:0:
324,76,144113,2,0,L|200:56,1,120
108,128,144668,2,0,L|120:256,1,120,8|0,0:0|0:0,0:0:0:0:
212,324,145224,5,2,0:0:0:0:
256,344,145363,1,0,0:0:0:0:
304,356,145502,1,0,0:0:0:0:
352,356,145641,1,0,0:0:0:0:
400,348,145779,2,0,P|460:316|488:272,1,120,8|0,0:0|0:0,0:0:0:0:
468,228,146196,2,0,P|424:180|412:128,1,120,2|0,0:0|0:0,0:0:0:0:
376,96,146613,2,0,L|300:60,1,60
272,76,146891,5,2,0:0:0:0:
232,100,147029,1,0,0:0:0:0:
212,144,147168,1,2,0:0:0:0:
212,192,147307,1,0,0:0:0:0:
228,236,147446,1,2,0:0:0:0:
104,92,148002,6,0,L|68:220,1,120
76,304,148557,1,4,0:0:0:0:
256,192,148974,1,4,0:0:0:0:
436,304,149391,1,4,0:0:0:0:
440,207,149668,6,0,L|408:92,1,120
332,304,150224,2,0,L|212:304,1,120,8|0,0:0|0:0,0:0:0:0:
88,236,150779,2,0,P|112:156|200:104,1,180
220,156,151335,2,0,P|236:208|288:252,1,120,10|0,0:0|0:0,0:0:0:0:
372,168,151891,2,0,P|356:116|307:73,1,120,2|0,0:0|0:0,0:0:0:0:
256,192,152446,12,2,154113,0:0:0:0:
136,268,155779,5,2,0:0:0:0:
136,268,156057,1,0,0:0:0:0:
136,268,156335,2,0,P|96:196|112:104,1,180.000006866455,2|0,0:0|0:0,0:0:0:0:
184,48,157168,1,0,0:0:0:0:
312,112,157724,6,0,L|328:200,2,90.0000034332277,0|2|0,0:0|0:0|0:0,0:0:0:0:
400,140,158557,2,0,L|436:324,1,180.000006866455,2|0,0:0|0:0,0:0:0:0:
348,344,159391,2,0,B|288:312|228:368|164:340,1,180.000006866455,0|2,0:0|0:0,0:0:0:0:
60,152,160502,1,0,0:0:0:0:
60,152,160779,5,2,0:0:0:0:
132,100,161057,1,0,0:0:0:0:
180,176,161335,1,0,0:0:0:0:
252,124,161613,1,0,0:0:0:0:
392,240,162168,2,0,L|348:320,1,90.0000034332277
348,319,162724,2,0,P|264:289|160:317,1,180.000006866455
68,164,163835,1,2,0:0:0:0:
152,136,164113,2,0,L|180:44,2,90.0000034332277,0|0|0,0:0|0:0|0:0,0:0:0:0:
220,196,164946,1,0,0:0:0:0:
308,172,165224,6,0,P|392:188|420:340,1,240,2|8,0:0|0:0,0:0:0:0:
308,172,166057,2,0,P|316:240|296:292,1,120
188,332,166613,1,0,0:0:0:0:
88,264,166891,1,8,0:0:0:0:
92,144,167168,2,0,P|128:88|188:68,1,120
236,172,167724,1,0,0:0:0:0:
236,172,167863,1,0,0:0:0:0:
236,172,168002,2,0,P|296:128|312:84,1,120,8|0,0:0|0:0,0:0:0:0:
392,176,168557,2,0,L|364:304,1,120,2|0,0:0|0:0,0:0:0:0:
344,336,168974,1,0,0:0:0:0:
304,364,169113,1,8,0:0:0:0:
164,252,169391,5,0,0:0:0:0:
164,252,169668,2,0,L|136:124,1,120,2|0,0:0|0:0,0:0:0:0:
212,40,170224,1,8,0:0:0:0:
320,92,170502,2,0,B|404:144|344:256|440:300,1,240,2|0,0:0|0:0,0:0:0:0:
460,180,171335,1,8,0:0:0:0:
308,248,171613,1,2,0:0:0:0:
256,192,171891,12,0,173835,0:0:0:0:
256,272,174113,6,0,P|160:228|160:160,1,180,6|0,0:0|0:0,0:0:0:0:
158,164,174668,2,0,P|212:128|232:76,1,120,8|0,0:0|0:0,0:0:0:0:
353,164,175224,1,0,0:0:0:0:
256,272,175502,1,0,0:0:0:0:
136,284,175779,6,0,P|92:236|80:180,1,120,8|0,0:0|0:0,0:0:0:0:
108,68,176335,1,0,0:0:0:0:
220,108,176613,1,0,0:0:0:0:
220,108,176752,1,0,0:0:0:0:
220,108,176891,1,8,0:0:0:0:
332,68,177168,2,0,P|364:120|372:188,1,120
292,305,177724,2,0,P|260:253|252:196,1,120,0|8,0:0|0:0,0:0:0:0:
168,288,178279,1,0,0:0:0:0:
124,176,178557,5,2,0:0:0:0:
180,68,178835,1,0,0:0:0:0:
332,68,179113,1,8,0:0:0:0:
388,176,179391,2,0,P|352:240|304:272,1,120
124,176,179946,2,0,P|160:240|208:272,1,120,0|8,0:0|0:0,0:0:0:0:
256,164,180502,6,0,L|256:44,2,120
256,284,181335,1,8,0:0:0:0:
360,340,181613,1,2,0:0:0:0:
396,308,181752,1,0,0:0:0:0:
420,264,181891,1,0,0:0:0:0:
432,216,182029,1,2,0:0:0:0:
428,168,182168,1,2,0:0:0:0:
356,72,182446,2,0,L|292:188,1,120,8|0,0:0|0:0,0:0:0:0:
236,280,183002,6,0,P|164:256|172:152,1,180,6|0,0:0|0:0,0:0:0:0:
212,132,183557,2,0,L|336:104,1,120,8|0,0:0|0:0,0:0:0:0:
408,196,184113,1,0,0:0:0:0:
388,316,184391,1,0,0:0:0:0:
388,316,184529,1,0,0:0:0:0:
388,316,184668,2,0,L|270:342,1,120,8|0,0:0|0:0,0:0:0:0:
156,308,185224,5,2,0:0:0:0:
88,208,185502,1,0,0:0:0:0:
88,160,185641,1,0,0:0:0:0:
88,112,185779,1,8,0:0:0:0:
180,188,186057,2,0,P|248:136|344:152,1,180,2|0,0:0|0:0,0:0:0:0:
336,208,186613,2,0,P|400:208|448:176,1,120,0|8,0:0|0:0,0:0:0:0:
445,178,187168,1,0,0:0:0:0:
400,292,187446,5,2,0:0:0:0:
288,340,187724,1,0,0:0:0:0:
176,296,188002,1,8,0:0:0:0:
128,188,188279,2,0,L|180:80,1,120,2|0,0:0|0:0,0:0:0:0:
384,188,188835,2,0,L|332:80,1,120,0|8,0:0|0:0,0:0:0:0:
256,172,189391,1,0,0:0:0:0:
256,292,189668,5,2,0:0:0:0:
364,348,189946,1,0,0:0:0:0:
364,348,190085,1,0,0:0:0:0:
364,348,190224,1,8,0:0:0:0:
256,292,190502,1,0,0:0:0:0:
148,348,190779,5,0,0:0:0:0:
88,244,191057,1,0,0:0:0:0:
96,124,191335,1,8,0:0:0:0:
136,96,191474,1,8,0:0:0:0:
184,92,191613,1,8,0:0:0:0:
228,108,191752,1,8,0:0:0:0:
260,144,191891,5,6,0:0:0:0:
308,228,192170,2,0,L|348:312,1,90.0000034332277
353,118,192728,2,0,P|393:164|400:236,1,135.000005149841,2|0,0:0|0:0,0:0:0:0:
400,235,193286,1,0,0:0:0:0:
284,312,193565,2,0,L|203:270,1,90.0000034332277,0|0,0:0|0:0,0:0:0:0:
136,208,194123,6,0,P|96:228|40:232,1,90.0000034332277,2|0,0:0|0:0,0:0:0:0:
60,144,194681,2,0,P|100:124|148:124,1,90.0000034332277,0|0,0:0|0:0,0:0:0:0:
220,168,195239,1,0,0:0:0:0:
220,168,195518,1,0,0:0:0:0:
256,252,196077,5,0,0:0:0:0:
328,304,196356,2,0,P|345:255|336:208,1,90.0000034332277,2|0,0:0|0:0,0:0:0:0:
296,140,196914,2,0,P|284:92|292:48,1,90.0000034332277
204,32,197472,1,0,0:0:0:0:
204,32,197751,1,0,0:0:0:0:
140,96,198030,1,0,0:0:0:0:
120,184,198309,1,0,0:0:0:0:
128,272,198620,6,0,B|152:316|200:300|248:328,1,120,2|0,0:0|0:0,0:0:0:0:
352,312,199334,2,0,P|384:264|388:200,1,120
328,72,200048,6,0,P|292:108|275:173,1,120,2|0,0:0|0:0,0:0:0:0:
185,257,201048,1,0,0:0:0:0:
256,192,202626,12,0,209292,0:0:0:0:
