osu file format v12

[General]
AudioFilename: mamoritai white wishes.mp3
AudioLeadIn: 2000
PreviewTime: 55786
Countdown: 0
SampleSet: Soft
StackLeniency: 0.7
Mode: 0
LetterboxInBreaks: 0

[Editor]
DistanceSpacing: 0.7
BeatDivisor: 4
GridSize: 4

[Metadata]
Title:Mamoritai ~White Wishes~ (English Version)
TitleUnicode:まもりたい ~White Wishes~ (English Version)
Artist:BoA
ArtistUnicode:BoA
Creator:meiikyuu
Version:Hope
Source:Tales of Graces
Tags:lunarsakuya opening tog namco
BeatmapID:204751
BeatmapSetID:71430

[Difficulty]
HPDrainRate:3
CircleSize:3
OverallDifficulty:3
ApproachRate:4
SliderMultiplier:1.7
SliderTickRate:1

[Events]
//Background and Video events
0,0,"bg1.jpg",0,0
//Break Periods
2,74312,81682
2,156335,163904
//Storyboard Layer 0 (Background)
//Storyboard Layer 1 (Fail)
//Storyboard Layer 2 (Pass)
//Storyboard Layer 3 (Foreground)
//Storyboard Sound Samples
//Background Colour Transformations
3,100,64,128,128

[TimingPoints]
780,555.555555555556,4,2,1,35,1,0
9668,-100,4,2,1,55,0,1
9807,-100,4,2,1,55,0,0
56335,-100,4,2,1,65,0,1
74113,-100,4,2,1,55,0,0
120780,-100,4,2,1,65,0,1
138557,-100,4,2,1,55,0,0
174113,-100,4,2,1,65,0,1
191891,558.139534883721,4,2,1,55,1,0
198620,714.285714285714,4,2,1,55,1,0
200048,1000,4,2,1,55,1,0
201048,1578.94736842105,4,2,1,55,1,0
202626,555.555555555556,4,2,1,55,1,0
202626,-100,4,2,1,15,0,0
209292,-100,4,2,1,8,0,0

[Colours]
Combo1 : 49,152,255
Combo2 : 128,128,255
Combo3 : 100,255,100
Combo4 : 255,128,192

[HitObjects]
116,256,780,2,0,P|96:208|96:168,2,85
168,288,1613,2,0,P|256:308|348:284,1,170,2|0,0:0|0:0,0:0:0:0:
416,136,3002,6,0,P|436:184|436:224,2,85
364,104,3835,2,0,P|276:84|184:108,1,170,2|0,0:0|0:0,0:0:0:0:
88,240,5224,6,0,P|80:284|48:332,2,85
140,212,6057,2,0,P|224:192|296:260,1,170,2|0,0:0|0:0,0:0:0:0:
428,132,7446,5,2,0:0:0:0:
316,96,8002,1,0,0:0:0:0:
208,144,8557,1,0,0:0:0:0:
88,144,9113,1,0,0:0:0:0:
108,260,9668,6,0,P|184:296|280:280,1,170,6|8,0:0|0:0,0:0:0:0:
352,204,10779,2,0,P|276:168|180:184,1,170,0|8,0:0|0:0,0:0:0:0:
92,112,11891,2,0,P|48:168|44:280,2,170,0|8|0,0:0|0:0|0:0,0:0:0:0:
204,68,13557,1,8,0:0:0:0:
308,124,14113,6,0,B|380:144|408:80|472:104,2,170,2|8|0,0:0|0:0|0:0,0:0:0:0:
256,232,15779,1,8,0:0:0:0:
184,324,16335,2,0,B|112:304|84:368|20:344,2,170,2|8|0,0:0|0:0|0:0,0:0:0:0:
304,328,18002,2,0,L|392:328,2,85,8|8|4,0:0|0:0|0:0,0:0:0:0:
228,236,19113,5,8,0:0:0:0:
176,128,19668,2,0,P|256:96|340:128,2,170,0|8|0,0:0|0:0|0:0,0:0:0:0:
92,212,21335,2,0,B|72:288|72:288|124:288|168:320,1,170,8|0,0:0|0:0,0:0:0:0:
276,328,22446,2,0,L|352:276,1,85,8|0,0:0|0:0,0:0:0:0:
372,228,23002,6,0,P|388:140|360:56,2,170,2|8|0,0:0|0:0|0:0,0:0:0:0:
256,200,24668,1,8,0:0:0:0:
140,228,25224,2,0,P|124:140|152:56,2,170,0|8|0,0:0|0:0|0:0,0:0:0:0:
80,332,26891,2,0,P|44:292|36:240,2,85,8|2|2,0:0|0:0|0:0,0:0:0:0:
196,304,28002,5,8,0:0:0:0:
308,348,28557,1,0,0:0:0:0:
364,328,28835,2,0,P|400:292|408:244,2,85,0|8|0,0:0|0:0|0:0,0:0:0:0:
308,224,29946,2,0,L|272:136,1,85,0|8,0:0|0:0,0:0:0:0:
232,104,30502,1,0,0:0:0:0:
176,88,30780,6,0,P|100:120|60:216,2,170,0|8|0,0:0|0:0|0:0,0:0:0:0:
196,204,32446,2,0,P|272:172|312:76,1,170,8|0,0:0|0:0,0:0:0:0:
412,160,33557,2,0,L|400:248,1,85,8|0,0:0|0:0,0:0:0:0:
256,192,34113,12,4,36335,0:0:0:0:
102,101,37446,5,0,0:0:0:0:
216,60,38002,1,8,0:0:0:0:
316,124,38557,2,0,L|356:208,2,85,0|0|8,0:0|0:0|0:0,0:0:0:0:
252,224,39668,2,0,L|252:336,2,85,0|0|10,0:0|0:0|0:0,0:0:0:0:
136,256,40780,5,0,0:0:0:0:
96,144,41335,1,8,0:0:0:0:
168,48,41891,1,0,0:0:0:0:
288,48,42446,1,8,0:0:0:0:
372,132,43002,6,0,P|384:176|388:232,1,85
376,272,43557,1,8,0:0:0:0:
336,316,43835,2,0,P|256:340|156:312,1,170
140,272,44668,2,0,P|128:180|144:100,1,170,10|2,0:0|0:0,0:0:0:0:
256,68,45780,5,8,0:0:0:0:
340,152,46335,2,0,L|440:140,2,85,0|0|8,0:0|0:0|0:0,0:0:0:0:
336,212,47168,2,0,P|324:292|244:332,2,170,2|0|0,0:0|0:0|0:0,0:0:0:0:
220,180,48835,1,2,0:0:0:0:
132,100,49391,5,2,0:0:0:0:
92,144,49668,2,0,P|72:228|92:316,1,170,2|8,0:0|0:0,0:0:0:0:
208,308,50780,2,0,P|224:227|204:143,1,170,2|8,0:0|0:0,0:0:0:0:
276,48,51891,5,2,0:0:0:0:
376,108,52446,1,8,0:0:0:0:
408,224,53002,1,0,0:0:0:0:
344,324,53557,2,0,P|308:340|252:336,2,85,2|0|2,0:0|0:0|0:0,0:0:0:0:
180,152,56335,6,0,P|256:120|332:152,1,170,4|8,0:0|0:0,0:0:0:0:
332,272,57446,2,0,P|256:304|180:272,1,170,0|8,0:0|0:0,0:0:0:0:
92,200,58557,2,0,P|52:180|32:144,2,85,2|0|8,0:0|0:0|0:0,0:0:0:0:
144,92,59668,2,0,P|119:54|120:13,2,85,0|0|8,0:0|0:0|0:0,0:0:0:0:
236,156,60780,6,0,P|324:148|380:80,2,170,2|8|0,0:0|0:0|0:0,0:0:0:0:
216,272,62446,1,8,0:0:0:0:
104,312,63002,1,0,0:0:0:0:
88,196,63557,1,8,0:0:0:0:
136,88,64113,2,0,P|220:64|312:88,1,170,0|8,0:0|0:0,0:0:0:0:
404,140,65224,6,0,P|320:164|228:140,2,170,6|8|0,0:0|0:0|0:0,0:0:0:0:
428,256,66891,2,0,L|376:328,1,85,8|0,0:0|0:0,0:0:0:0:
320,308,67446,2,0,P|244:280|152:300,1,170,2|8,0:0|0:0,0:0:0:0:
80,208,68557,2,0,P|84:120|144:60,1,170,0|8,0:0|0:0,0:0:0:0:
236,132,69668,6,0,P|268:164|328:172,1,85,2|0,0:0|0:0,0:0:0:0:
364,164,70224,1,8,0:0:0:0:
424,152,70502,2,0,P|456:228|432:320,1,170,2|0,0:0|0:0,0:0:0:0:
388,344,71335,2,0,L|300:360,2,85,8|0|2,0:0|0:0|0:0,0:0:0:0:
344,236,72446,5,8,0:0:0:0:
256,156,73002,1,0,0:0:0:0:
168,236,73557,2,0,P|132:264|92:272,2,85,8|8|4,0:0|0:0|0:0,0:0:0:0:
304,132,83002,5,2,0:0:0:0:
316,188,83280,2,0,L|336:284,2,85
196,188,84391,2,0,L|176:284,2,85
156,76,85502,2,0,P|112:88|56:76,2,85
212,56,86335,2,0,P|296:40|376:84,1,170
416,184,87446,6,0,P|416:268|352:336,1,170,2|0,0:0|0:0,0:0:0:0:
304,320,88280,2,0,P|216:304|136:328,1,170,0|0,0:0|0:0,0:0:0:0:
84,300,89113,2,0,P|68:256|64:212,2,85,0|0|2,0:0|0:0|0:0,0:0:0:0:
148,200,90224,1,0,0:0:0:0:
176,148,90502,2,0,P|260:128|348:136,1,170,2|0,0:0|0:0,0:0:0:0:
380,180,91335,2,0,L|416:264,1,85
400,316,91891,5,0,0:0:0:0:
284,288,92446,1,8,0:0:0:0:
172,328,93002,1,0,0:0:0:0:
96,236,93557,1,8,0:0:0:0:
112,120,94113,2,0,P|184:80|280:92,1,170,0|8,0:0|0:0,0:0:0:0:
372,144,95224,2,0,P|368:188|336:232,2,85,0|0|8,0:0|0:0|0:0,0:0:0:0:
480,192,96335,6,0,P|464:280|404:352,1,170,0|8,0:0|0:0,0:0:0:0:
296,348,97446,2,0,P|212:320|124:324,1,170,0|8,0:0|0:0,0:0:0:0:
64,224,98557,2,0,P|76:136|132:68,1,170,2|8,0:0|0:0,0:0:0:0:
244,88,99668,2,0,P|284:108|304:152,1,85
272,192,100224,2,0,P|292:240|328:272,2,85,0|0|4,0:0|0:0|0:0,0:0:0:0:
152,204,101335,6,0,P|188:296|240:348,1,170,8|0,0:0|0:0,0:0:0:0:
356,324,102446,1,8,0:0:0:0:
424,228,103002,2,0,P|444:152|424:60,2,170,0|8|0,0:0|0:0|0:0,0:0:0:0:
336,148,104668,2,0,L|264:100,1,85,10|0,0:0|0:0,0:0:0:0:
204,96,105224,6,0,P|152:152|156:252,1,170,2|8,0:0|0:0,0:0:0:0:
256,300,106335,1,0,0:0:0:0:
361,242,106891,1,8,0:0:0:0:
376,128,107446,1,0,0:0:0:0:
304,32,108002,1,8,0:0:0:0:
188,60,108557,2,0,L|84:96,2,85,0|0|8,0:0|0:0|0:0,0:0:0:0:
256,156,109668,5,2,0:0:0:0:
368,192,110224,2,0,B|348:248|292:268|292:268|288:340,1,170,8|0,0:0|0:0,0:0:0:0:
172,304,111335,2,0,L|176:204,1,85,8|0,0:0|0:0,0:0:0:0:
180,160,111891,2,0,P|232:88|324:84,1,170,0|8,0:0|0:0,0:0:0:0:
420,116,113002,2,0,P|368:188|276:192,1,170,0|8,0:0|0:0,0:0:0:0:
224,296,114113,5,2,0:0:0:0:
128,224,114668,1,8,0:0:0:0:
108,108,115224,1,0,0:0:0:0:
204,40,115780,2,0,P|248:48|280:76,1,85,8|0,0:0|0:0,0:0:0:0:
292,132,116335,6,0,P|376:136|448:68,2,170,2|8|0,0:0|0:0|0:0,0:0:0:0:
256,244,118002,2,0,L|256:348,2,85,10|0|2,0:0|0:0|0:0,0:0:0:0:
256,72,120224,6,0,L|256:164,1,85
256,216,120780,6,0,P|200:268|112:252,2,170,4|8|0,0:0|0:0|0:0,0:0:0:0:
368,176,122446,2,0,L|472:160,2,85,8|0|0,0:0|0:0|0:0,0:0:0:0:
320,68,123557,1,8,0:0:0:0:
200,68,124113,1,0,0:0:0:0:
116,152,124668,1,8,0:0:0:0:
132,272,125224,6,0,P|188:336|280:344,1,170,0|8,0:0|0:0,0:0:0:0:
280,228,126335,2,0,P|356:196|448:200,1,170,0|8,0:0|0:0,0:0:0:0:
388,92,127446,2,0,P|300:80|220:44,1,170,0|8,0:0|0:0,0:0:0:0:
116,92,128557,1,0,0:0:0:0:
64,200,129113,2,0,P|48:240|48:296,1,85,8|0,0:0|0:0,0:0:0:0:
68,336,129668,6,0,P|148:368|240:360,1,170,4|8,0:0|0:0,0:0:0:0:
328,296,130780,1,0,0:0:0:0:
444,312,131335,1,8,0:0:0:0:
460,196,131891,2,0,L|472:100,2,85,2|0|8,0:0|0:0|0:0,0:0:0:0:
348,152,133002,2,0,L|344:56,2,85,0|0|8,0:0|0:0|0:0,0:0:0:0:
256,228,134113,6,0,B|180:188|180:188|164:92,1,170,2|8,0:0|0:0,0:0:0:0:
284,116,135224,1,2,0:0:0:0:
356,212,135780,1,8,0:0:0:0:
312,324,136335,1,2,0:0:0:0:
192,312,136891,6,0,L|104:272,1,85,8|0,0:0|0:0,0:0:0:0:
144,224,137446,2,0,L|76:164,1,85
92,108,138002,2,0,P|156:56|244:68,1,170,8|4,0:0|0:0,0:0:0:0:
224,184,139113,6,0,P|320:192|384:140,1,170,8|0,0:0|0:0,0:0:0:0:
464,232,140224,1,8,0:0:0:0:
400,332,140780,1,2,0:0:0:0:
284,312,141335,2,0,P|192:300|112:316,1,170,8|0,0:0|0:0,0:0:0:0:
52,216,142446,1,10,0:0:0:0:
88,104,143002,6,0,B|136:48|136:48|184:32|248:56,2,170,2|8|0,0:0|0:0|0:0,0:0:0:0:
188,168,144668,2,0,P|224:200|280:200,1,85,8|0,0:0|0:0,0:0:0:0:
308,168,145224,6,0,B|400:160|384:360|264:264|256:356,1,255,2|0,0:0|0:0,0:0:0:0:
200,340,146335,2,0,B|194:261|74:357|58:157|150:165,1,255,2|0,0:0|0:0,0:0:0:0:
204,180,147446,5,2,0:0:0:0:
316,140,148002,2,0,P|360:128|400:88,1,85,8|0,0:0|0:0,0:0:0:0:
436,140,148557,2,0,P|456:208|440:280,2,127.5,4|4|2,0:0|0:0|0:0,0:0:0:0:
304,264,150224,1,8,0:0:0:0:
224,176,150779,5,0,0:0:0:0:
108,200,151335,2,0,P|68:268|88:380,1,170,10|0,0:0|0:0,0:0:0:0:
256,192,152446,12,2,154113,0:0:0:0:
372,256,165224,6,0,P|408:176|412:80,2,170,6|8|0,0:0|0:0|0:0,0:0:0:0:
256,288,166891,1,8,0:0:0:0:
140,256,167446,2,0,P|104:176|100:80,2,170,0|8|0,0:0|0:0|0:0,0:0:0:0:
228,176,169113,1,8,0:0:0:0:
212,60,169668,5,2,0:0:0:0:
328,44,170224,1,8,0:0:0:0:
348,160,170779,1,0,0:0:0:0:
228,176,171335,1,8,0:0:0:0:
256,192,171891,12,4,174113,0:0:0:0:
436,108,175224,6,0,P|420:192|356:272,1,170,0|8,0:0|0:0,0:0:0:0:
276,328,176335,2,0,P|192:300|108:308,1,170,2|8,0:0|0:0,0:0:0:0:
56,204,177446,2,0,P|72:120|128:48,1,170,0|8,0:0|0:0,0:0:0:0:
240,72,178557,5,2,0:0:0:0:
340,136,179113,1,8,0:0:0:0:
456,112,179668,1,0,0:0:0:0:
468,232,180224,1,8,0:0:0:0:
404,332,180779,2,0,P|320:352|224:340,2,170,0|8|0,0:0|0:0|0:0,0:0:0:0:
344,232,182446,2,0,P|296:224|256:192,1,85,8|0,0:0|0:0,0:0:0:0:
228,156,183002,6,0,P|152:120|56:124,1,170,4|8,0:0|0:0,0:0:0:0:
92,236,184113,2,0,P|168:272|264:268,1,170,0|8,0:0|0:0,0:0:0:0:
336,184,185224,2,0,P|396:244|420:328,1,170,2|8,0:0|0:0,0:0:0:0:
300,312,186335,2,0,P|240:252|216:168,1,170,0|8,0:0|0:0,0:0:0:0:
176,60,187446,5,0,0:0:0:0:
104,152,188002,1,8,0:0:0:0:
104,272,188557,1,0,0:0:0:0:
176,364,189113,1,8,0:0:0:0:
292,336,189668,6,0,P|368:292|400:208,2,170,2|8|0,0:0|0:0|0:0,0:0:0:0:
180,292,191335,1,8,0:0:0:0:
152,176,191891,2,0,B|216:92|336:216|396:76,2,255,4|2|0,0:0|0:0|0:0,0:0:0:0:
132,292,194123,6,0,P|216:328|300:300,1,170,2|0,0:0|0:0,0:0:0:0:
324,260,194960,2,0,P|352:216|368:180,2,85
156,200,196356,6,0,P|208:128|284:128,2,170,2|0|0,0:0|0:0|0:0,0:0:0:0:
180,316,198030,1,0,0:0:0:0:
296,328,198620,6,0,P|364:312|452:240,1,170,2|0,0:0|0:0,0:0:0:0:
412,128,200048,6,0,B|356:84|304:128|236:68,1,170,0|2,0:0|0:0,0:0:0:0:
256,192,202626,12,0,209292,0:0:0:0:
