osu file format v14

[General]
AudioFilename: BoA - MASAYUME CHASINGTV-Size.mp3
AudioLeadIn: 0
PreviewTime: 44318
Countdown: 0
SampleSet: Soft
StackLeniency: 0.7
Mode: 0
LetterboxInBreaks: 0
WidescreenStoryboard: 0

[Editor]
Bookmarks: 30998
DistanceSpacing: 1.2
BeatDivisor: 4
GridSize: 4
TimelineZoom: 0.9000007

[Metadata]
Title:MASAYUME CHASING (TV Size)
TitleUnicode:MASAYUME CHASING (TV Size)
Artist:BoA
ArtistUnicode:BoA
Creator:Joon
Version:Easy
Source:Fairy Tail
Tags:opening 2014 フェアリーテイル
BeatmapID:457491
BeatmapSetID:191782

[Difficulty]
HPDrainRate:2
CircleSize:2
OverallDifficulty:2
ApproachRate:3
SliderMultiplier:0.9
SliderTickRate:1

[Events]
//Background and Video events
0,0,"fBG.jpg",0,0
//Break Periods
//Storyboard Layer 0 (Background)
//Storyboard Layer 1 (Fail)
//Storyboard Layer 2 (Pass)
//Storyboard Layer 3 (Foreground)
//Storyboard Sound Samples

[TimingPoints]
598,465.116279069767,4,2,0,40,1,0
11760,-100,4,2,0,20,0,0
11877,-100,4,2,0,40,0,0
13621,-100,4,2,0,30,0,0
13737,-100,4,2,0,40,0,0
45249,-100,4,2,0,40,0,1
75016,-100,4,2,0,40,0,0
81993,-100,4,2,0,30,0,0
82923,-100,4,2,0,20,0,0
83853,-100,4,2,0,10,0,0
84784,-100,4,2,0,5,0,0

[Colours]
Combo1 : 243,58,86
Combo2 : 47,187,255
Combo3 : 128,255,128

[HitObjects]
68,108,598,6,0,P|140:80|188:20,1,135,2|2,0:0|0:0,0:0:0:0:
68,284,2458,6,0,P|140:312|188:372,1,135,2|2,0:0|0:0,0:0:0:0:
440,284,4318,6,0,P|368:312|320:372,1,135,2|2,0:0|0:0,0:0:0:0:
440,108,6179,6,0,P|368:80|320:20,1,135,2|2,0:0|0:0,0:0:0:0:
284,192,7574,6,0,L|208:144,1,90,2|4,0:0|3:0,0:0:0:0:
344,56,8737,2,0,L|396:64,1,45,0|0,0:0|0:0,0:0:0:0:
176,92,9900,6,0,P|148:168|224:208,1,180,2|0,0:0|0:0,0:0:0:0:
392,80,11760,6,0,P|416:124|432:256,1,180,4|0,3:0|0:0,0:0:0:0:
304,80,13621,6,0,P|280:124|264:256,1,180,4|0,3:0|3:0,0:0:0:0:
348,316,15016,1,4,0:0:0:0:
248,360,15481,5,0,1:0:0:0:
160,300,15946,1,0,1:0:0:0:
192,196,16411,2,0,B|232:196|232:196|284:244,1,90,0|0,1:0|1:0,0:0:0:0:
372,256,17342,1,0,1:0:0:0:
436,168,17807,2,0,B|432:116|432:116|404:68,1,90,0|0,1:0|1:0,0:0:0:0:
308,56,18737,1,0,1:0:0:0:
204,84,19202,6,0,P|160:68|112:88,2,90,4|0|0,1:0|1:0|1:0,0:0:0:0:
268,172,20597,1,0,1:0:0:0:
156,164,21063,2,0,P|184:248|344:256,1,270,0|2,1:0|0:0,0:0:0:0:
428,316,22923,5,4,1:0:0:0:
484,224,23388,1,0,1:0:0:0:
456,120,23853,2,0,P|408:136|360:120,1,90,0|0,1:0|1:0,0:0:0:0:
328,28,24784,1,0,1:0:0:0:
224,56,25249,2,0,P|176:64|140:92,1,90,0|0,1:0|1:0,0:0:0:0:
80,176,26179,1,0,1:0:0:0:
136,268,26644,5,4,1:0:0:0:
212,192,27109,1,0,1:0:0:0:
248,292,27574,2,0,B|304:332|304:332|370:302|432:312,2,180,0|0|2,1:0|1:0|3:0,0:0:0:0:
316,208,29900,1,4,0:0:0:0:
304,100,30365,6,0,B|260:76|208:96,1,90,4|8,1:0|0:0,0:0:0:0:
112,68,31295,1,0,1:0:0:0:
48,156,31760,2,0,P|56:232|160:264,1,180,8|8,0:0|0:0,0:0:0:0:
228,336,33156,1,2,0:0:0:0:
332,308,33621,1,8,0:0:0:0:
439,308,34086,6,0,B|487:284|487:284|499:228,1,90,4|8,1:0|0:0,0:0:0:0:
494,140,35016,2,0,B|490:84|490:84|452:56,1,90,0|8,1:0|0:0,0:0:0:0:
392,144,35946,2,0,B|348:116|348:116|340:80,2,90,0|8|0,1:0|0:0|1:0,0:0:0:0:
304,204,37342,1,8,0:0:0:0:
248,112,37807,5,0,1:0:0:0:
140,112,38272,1,8,0:0:0:0:
88,204,38737,1,0,1:0:0:0:
196,226,39202,2,0,P|278:354|420:255,1,360,2|8,0:0|0:0,0:0:0:0:
308,244,41528,6,0,B|308:200|272:148,2,90,0|8|0,0:0|0:0|0:0,0:0:0:0:
196,228,42923,1,8,0:0:0:0:
180,336,43388,2,0,P|128:320|104:292,1,90,2|8,3:0|0:0,0:0:0:0:
100,184,44318,2,0,P|128:144|172:120,1,90,2|8,3:0|0:0,0:0:0:0:
196,228,45249,6,0,P|250:246|296:232,1,90,4|8,1:0|0:0,0:0:0:0:
304,128,46179,2,0,P|358:110|404:128,1,90,4|8,1:0|0:0,0:0:0:0:
472,184,47109,2,0,B|492:240|448:276,2,90,0|8|0,1:0|0:0|1:0,0:0:0:0:
460,76,48504,1,8,0:0:0:0:
372,140,48970,6,0,B|328:128|328:128|296:76,1,90,0|8,1:0|0:0,0:0:0:0:
208,136,49900,2,0,B|220:184|220:184|256:212,1,90,0|8,1:0|0:0,0:0:0:0:
348,252,50830,2,0,B|332:296|332:296|284:332,2,90,0|8|0,1:0|0:0|1:0,0:0:0:0:
452,216,52225,5,8,0:0:0:0:
380,136,52691,2,0,B|344:112|336:56,1,90,4|8,1:0|0:0,0:0:0:0:
252,128,53621,2,0,B|217:102|208:48,1,90,4|8,1:0|0:0,0:0:0:0:
100,56,54551,1,0,1:0:0:0:
40,144,55016,2,0,P|20:188|40:244,2,90,8|0|8,0:0|1:0|0:0,0:0:0:0:
148,144,56411,6,0,P|168:188|148:240,1,90,0|8,1:0|0:0,0:0:0:0:
120,320,57342,2,0,P|164:340|220:320,1,90,0|8,1:0|0:0,0:0:0:0:
308,332,58272,6,0,P|404:344|472:292,1,180,0|0,1:0|1:0,0:0:0:0:
372,232,59667,1,8,0:0:0:0:
264,248,60132,6,0,P|168:200|248:96,1,270,4|2,1:0|1:0,0:0:0:0:
348,72,61993,6,0,P|392:148|364:244,1,180,0|2,1:0|1:0,0:0:0:0:
284,164,63388,1,8,0:0:0:0:
220,76,63853,6,0,P|180:152|216:248,1,180,0|0,1:0|1:0,0:0:0:0:
284,164,65249,1,2,1:0:0:0:
392,160,65714,6,0,P|356:240|272:276,2,180,0|0|4,1:0|1:0|1:0,0:0:0:0:
324,76,68039,1,8,0:0:0:0:
220,52,68504,2,0,P|220:104|252:144,1,90,0|2,1:0|1:0,0:0:0:0:
340,180,69435,6,0,P|328:228|276:252,1,90,0|8,1:0|0:0,0:0:0:0:
200,196,70365,1,2,1:0:0:0:
120,124,70830,1,8,0:0:0:0:
32,184,71295,5,4,1:0:0:0:
107,260,71760,1,8,0:0:0:0:
183,336,72225,2,0,L|271:288,1,90,0|2,1:0|1:0,0:0:0:0:
356,236,73156,6,0,B|344:144|344:144|260:84,1,180,0|2,1:0|3:0,0:0:0:0:
208,176,74551,2,0,P|220:224|256:252,1,90,8|2,0:0|0:0,0:0:0:0:
340,160,76877,6,0,P|336:232|272:268,1,135,2|2,0:0|0:0,0:0:0:0:
92,80,78737,6,0,P|52:128|72:204,1,135,2|2,0:0|0:0,0:0:0:0:
312,300,80597,6,0,P|376:260|396:192,1,135,2|2,0:0|0:0,0:0:0:0:
256,192,81528,12,0,85249,0:0:0:0:
