osu file format v13

[General]
AudioFilename: Fairy Tail (2015) Opening 1 [HD] [1080p] (mp3cut.net).mp3
AudioLeadIn: 0
PreviewTime: 41317
Countdown: 0
SampleSet: Soft
StackLeniency: 0.7
Mode: 3
LetterboxInBreaks: 0
SpecialStyle: 0
WidescreenStoryboard: 1

[Editor]
Bookmarks: 15503,45271,60163,75075
DistanceSpacing: 1.3
BeatDivisor: 4
GridSize: 8
TimelineZoom: 1.1

[Metadata]
Title:MASAYUME CHASING (TV Size)
TitleUnicode:MASAYUME CHASING (TV Size)
Artist:BoA
ArtistUnicode:BoA
Creator:[ M o m o ]
Version:7K Hard
Source:Fairy Tail
Tags:15th フェアリーテイル OP15 Opening
BeatmapID:413727
BeatmapSetID:170968

[Difficulty]
HPDrainRate:7
CircleSize:7
OverallDifficulty:7
ApproachRate:8
SliderMultiplier:2
SliderTickRate:1

[Events]
//Background and Video events
0,0,"BG.jpg",0,0
//Break Periods
//Storyboard Layer 0 (Background)
//Storyboard Layer 1 (Fail)
//Storyboard Layer 2 (Pass)
//Storyboard Layer 3 (Foreground)
//Storyboard Sound Samples
//Background Colour Transformations
3,100,163,162,255

[TimingPoints]
608,465.116279069767,4,2,1,30,1,0
13863,-100,4,3,1,30,0,0
15491,-100,4,2,1,30,0,0
28747,-100,4,3,1,30,0,0
30387,-100,4,2,1,30,0,0
43631,-100,4,3,1,30,0,0
45259,-100,4,2,1,30,0,1
56421,-100,4,2,2,30,0,1
60142,-100,4,2,1,30,0,1
72235,-100,4,2,2,30,0,1
75026,-100,4,2,1,30,0,0

[Colours]
Combo1 : 0,0,128
Combo2 : 128,0,0
Combo3 : 128,128,128
Combo4 : 240,196,15

[HitObjects]
475,192,608,5,0,0:0:0:0:
256,192,840,1,0,0:0:0:0:
36,192,1073,1,0,0:0:0:0:
402,192,1305,128,0,2468:0:0:0:0:
109,192,2468,1,0,0:0:0:0:
256,192,2701,1,0,0:0:0:0:
402,192,2933,1,0,0:0:0:0:
109,192,3166,128,0,4328:0:0:0:0:
475,192,4328,1,0,0:0:0:0:
256,192,4561,1,0,0:0:0:0:
402,192,4794,1,0,0:0:0:0:
182,192,5026,128,0,6189:0:0:0:0:
36,192,6189,1,0,0:0:0:0:
329,192,6421,1,0,0:0:0:0:
109,192,6654,1,0,0:0:0:0:
475,192,6887,128,0,7584:0:0:0:0:
329,192,7584,1,0,0:0:0:0:
182,192,7701,1,0,0:0:0:0:
36,192,7817,1,0,0:0:0:0:
256,192,8049,1,0,0:0:0:0:
109,192,8282,1,0,0:0:0:0:
402,192,8514,1,0,0:0:0:0:
256,192,8747,128,0,9910:0:0:0:0:
36,192,8980,1,0,0:0:0:0:
475,192,8980,1,0,0:0:0:0:
36,192,9910,1,0,0:0:0:0:
182,192,10142,1,0,0:0:0:0:
329,192,10375,1,0,0:0:0:0:
475,192,10607,128,0,11770:0:0:0:0:
256,192,10840,1,0,0:0:0:0:
109,192,10840,1,0,0:0:0:0:
109,192,11770,1,0,0:0:0:0:
329,192,12003,1,0,0:0:0:0:
36,192,12235,1,0,0:0:0:0:
402,192,12468,128,0,13631:0:0:0:0:
109,192,12701,1,0,0:0:0:0:
256,192,12701,1,0,0:0:0:0:
109,192,13631,1,0,0:0:0:0:
36,192,13863,1,4,0:0:0:0:
475,192,13863,1,0,0:0:0:0:
182,192,13980,1,4,0:0:0:0:
329,192,13980,1,0,0:0:0:0:
36,192,14096,1,4,0:0:0:0:
475,192,14096,1,0,0:0:0:0:
109,192,14328,1,0,0:0:0:0:
402,192,14328,1,4,0:0:0:0:
182,192,14561,1,0,0:0:0:0:
475,192,14561,1,4,0:0:0:0:
36,192,14677,1,0,0:0:0:0:
329,192,14677,1,4,0:0:0:0:
329,192,14910,1,4,0:0:0:0:
36,192,14910,1,0,0:0:0:0:
182,192,15026,1,0,0:0:0:0:
475,192,15026,1,12,0:0:0:0:
475,192,15259,1,4,0:0:0:0:
329,192,15259,1,0,0:0:0:0:
182,192,15375,1,0,0:0:0:0:
36,192,15375,1,4,0:0:0:0:
109,192,15491,1,0,0:0:0:0:
256,192,15491,1,2,0:0:0:0:
402,192,15491,128,0,16189:0:0:0:0:
256,192,15956,1,2,0:0:0:0:
109,192,16189,128,0,17352:0:0:0:0:
256,192,16421,1,2,0:0:0:0:
256,192,16887,1,2,0:0:0:0:
329,192,17352,1,2,0:0:0:0:
475,192,17352,128,0,18049:0:0:0:0:
329,192,17817,1,2,0:0:0:0:
36,192,18049,128,0,19212:0:0:0:0:
329,192,18282,1,2,0:0:0:0:
329,192,18747,1,2,0:0:0:0:
182,192,19212,128,0,19910:0:0:0:0:
329,192,19212,1,2,0:0:0:0:
36,192,19677,1,2,0:0:0:0:
402,192,19910,128,0,21073:0:0:0:0:
36,192,20142,1,2,0:0:0:0:
36,192,20607,1,2,0:0:0:0:
329,192,21073,1,2,0:0:0:0:
182,192,21073,128,0,21770:0:0:0:0:
329,192,21538,1,2,0:0:0:0:
475,192,21770,128,0,22468:0:0:0:0:
329,192,22003,1,2,0:0:0:0:
329,192,22468,1,2,0:0:0:0:
36,192,22468,1,0,0:0:0:0:
182,192,22584,1,0,0:0:0:0:
402,192,22701,1,0,0:0:0:0:
256,192,22933,1,2,0:0:0:0:
109,192,22933,128,0,23631:0:0:0:0:
256,192,23398,1,2,0:0:0:0:
402,192,23631,128,0,24794:0:0:0:0:
256,192,23863,1,2,0:0:0:0:
256,192,24328,1,2,0:0:0:0:
182,192,24794,1,2,0:0:0:0:
36,192,24794,128,0,25491:0:0:0:0:
182,192,25259,1,2,0:0:0:0:
475,192,25491,128,0,26654:0:0:0:0:
182,192,25724,1,2,0:0:0:0:
182,192,26189,1,2,0:0:0:0:
182,192,26654,1,2,0:0:0:0:
329,192,26654,128,0,27352:0:0:0:0:
475,192,27119,1,2,0:0:0:0:
109,192,27352,128,0,28514:0:0:0:0:
475,192,27584,1,2,0:0:0:0:
475,192,28049,1,2,0:0:0:0:
475,192,28514,1,2,0:0:0:0:
36,192,28747,1,4,0:0:0:0:
329,192,28747,1,0,0:0:0:0:
109,192,28863,1,4,0:0:0:0:
402,192,28863,1,0,0:0:0:0:
182,192,28980,1,4,0:0:0:0:
475,192,28980,1,0,0:0:0:0:
109,192,29212,1,0,0:0:0:0:
402,192,29212,1,4,0:0:0:0:
36,192,29445,1,0,0:0:0:0:
475,192,29445,1,4,0:0:0:0:
182,192,29561,1,0,0:0:0:0:
329,192,29561,1,4,0:0:0:0:
329,192,29794,1,4,0:0:0:0:
182,192,29794,1,8,0:0:0:0:
36,192,29910,1,0,0:0:0:0:
475,192,29910,1,4,0:0:0:0:
109,192,30142,1,0,0:0:0:0:
402,192,30142,1,4,0:0:0:0:
182,192,30259,1,0,0:0:0:0:
329,192,30259,1,4,0:0:0:0:
109,192,30375,1,0,0:0:0:0:
402,192,30375,1,0,0:0:0:0:
256,192,30607,1,0,0:0:0:0:
402,192,30840,1,8,0:0:0:0:
36,192,30840,1,0,0:0:0:0:
182,192,31073,1,0,0:0:0:0:
475,192,31305,1,0,0:0:0:0:
329,192,31305,1,2,0:0:0:0:
109,192,31538,1,0,0:0:0:0:
256,192,31770,1,8,0:0:0:0:
402,192,31770,1,0,0:0:0:0:
36,192,32003,1,0,0:0:0:0:
182,192,32235,1,0,0:0:0:0:
329,192,32235,1,2,0:0:0:0:
109,192,32468,1,0,0:0:0:0:
256,192,32701,1,8,0:0:0:0:
475,192,32701,1,0,0:0:0:0:
36,192,32933,1,0,0:0:0:0:
402,192,33166,1,2,0:0:0:0:
182,192,33166,1,0,0:0:0:0:
256,192,33398,128,4,33631:0:0:0:0:
36,192,33631,1,0,0:0:0:0:
475,192,33631,1,8,0:0:0:0:
182,192,33863,1,0,0:0:0:0:
329,192,34096,1,2,0:0:0:0:
475,192,34096,1,0,0:0:0:0:
109,192,34328,1,0,0:0:0:0:
402,192,34561,1,8,0:0:0:0:
256,192,34561,1,0,0:0:0:0:
36,192,34794,1,0,0:0:0:0:
329,192,35026,1,2,0:0:0:0:
475,192,35026,1,0,0:0:0:0:
182,192,35259,1,0,0:0:0:0:
36,192,35491,1,0,0:0:0:0:
402,192,35491,1,8,0:0:0:0:
256,192,35724,1,0,0:0:0:0:
475,192,35956,1,2,0:0:0:0:
182,192,35956,1,0,0:0:0:0:
109,192,36189,1,0,0:0:0:0:
402,192,36421,1,8,0:0:0:0:
256,192,36421,1,0,0:0:0:0:
36,192,36654,1,0,0:0:0:0:
329,192,36887,1,2,0:0:0:0:
182,192,36887,1,0,0:0:0:0:
329,192,37119,128,4,37352:0:0:0:0:
109,192,37352,1,0,0:0:0:0:
475,192,37352,1,8,0:0:0:0:
109,192,37584,128,4,37817:0:0:0:0:
256,192,37817,1,0,0:0:0:0:
402,192,37817,1,2,0:0:0:0:
36,192,38049,1,0,0:0:0:0:
182,192,38282,1,0,0:0:0:0:
329,192,38282,1,8,0:0:0:0:
475,192,38514,1,0,0:0:0:0:
109,192,38747,1,0,0:0:0:0:
256,192,38747,1,2,0:0:0:0:
329,192,38980,1,0,0:0:0:0:
402,192,39212,1,8,0:0:0:0:
36,192,39212,1,0,0:0:0:0:
256,192,39445,1,0,0:0:0:0:
475,192,39677,1,2,0:0:0:0:
109,192,39677,1,0,0:0:0:0:
182,192,39910,1,0,0:0:0:0:
475,192,40142,128,0,40607:0:0:0:0:
36,192,40142,1,0,0:0:0:0:
256,192,40142,1,8,0:0:0:0:
109,192,40375,1,0,0:0:0:0:
256,192,40607,128,0,41073:0:0:0:0:
182,192,40607,1,2,0:0:0:0:
402,192,40840,1,4,0:0:0:0:
36,192,41073,128,0,41538:0:0:0:0:
329,192,41073,1,8,0:0:0:0:
475,192,41073,1,0,0:0:0:0:
182,192,41305,1,0,0:0:0:0:
475,192,41538,128,0,42003:0:0:0:0:
109,192,41538,1,0,0:0:0:0:
256,192,41538,1,2,0:0:0:0:
182,192,41770,1,0,0:0:0:0:
36,192,42003,1,0,0:0:0:0:
329,192,42003,1,8,0:0:0:0:
182,192,42235,1,0,0:0:0:0:
402,192,42468,1,0,0:0:0:0:
256,192,42701,1,0,0:0:0:0:
109,192,42933,1,0,0:0:0:0:
475,192,42933,1,8,0:0:0:0:
329,192,43166,1,0,0:0:0:0:
36,192,43398,1,0,0:0:0:0:
182,192,43398,1,0,0:0:0:0:
475,192,43631,1,0,0:0:0:0:
329,192,43631,1,4,0:0:0:0:
36,192,43747,1,0,0:0:0:0:
182,192,43747,1,4,0:0:0:0:
475,192,43863,1,0,0:0:0:0:
329,192,43863,1,4,0:0:0:0:
109,192,44096,1,0,0:0:0:0:
256,192,44096,1,4,0:0:0:0:
182,192,44328,1,0,0:0:0:0:
329,192,44328,1,4,0:0:0:0:
36,192,44445,1,0,0:0:0:0:
475,192,44445,1,4,0:0:0:0:
475,192,44677,1,4,0:0:0:0:
36,192,44677,1,0,0:0:0:0:
182,192,44794,1,0,0:0:0:0:
329,192,44794,1,12,0:0:0:0:
36,192,45026,1,0,0:0:0:0:
475,192,45026,1,4,0:0:0:0:
182,192,45142,1,0,0:0:0:0:
329,192,45142,1,4,0:0:0:0:
36,192,45259,1,0,0:0:0:0:
256,192,45259,128,0,45956:0:0:0:0:
475,192,45259,1,0,0:0:0:0:
109,192,45491,1,0,0:0:0:0:
475,192,45724,128,0,45956:0:0:0:0:
182,192,45724,1,8,0:0:0:0:
402,192,45956,1,0,0:0:0:0:
36,192,46189,128,0,46654:0:0:0:0:
329,192,46189,1,2,0:0:0:0:
256,192,46421,1,0,0:0:0:0:
182,192,46654,1,8,0:0:0:0:
475,192,46654,1,0,0:0:0:0:
109,192,46887,1,0,0:0:0:0:
182,192,47119,1,0,0:0:0:0:
402,192,47119,1,2,0:0:0:0:
36,192,47352,1,0,0:0:0:0:
256,192,47584,1,8,0:0:0:0:
475,192,47584,1,0,0:0:0:0:
109,192,47817,1,0,0:0:0:0:
182,192,48049,1,0,0:0:0:0:
402,192,48049,1,2,0:0:0:0:
36,192,48282,1,0,0:0:0:0:
256,192,48282,1,8,0:0:0:0:
36,192,48514,1,0,0:0:0:0:
256,192,48514,1,8,0:0:0:0:
402,192,48747,1,0,0:0:0:0:
109,192,48980,1,0,0:0:0:0:
256,192,48980,1,2,0:0:0:0:
475,192,49212,1,0,0:0:0:0:
36,192,49445,1,0,0:0:0:0:
182,192,49445,1,8,0:0:0:0:
256,192,49677,1,0,0:0:0:0:
329,192,49910,1,2,0:0:0:0:
475,192,49910,1,0,0:0:0:0:
109,192,50142,1,0,0:0:0:0:
402,192,50375,1,0,0:0:0:0:
256,192,50375,1,8,0:0:0:0:
36,192,50607,1,0,0:0:0:0:
182,192,50607,128,0,51073:0:0:0:0:
475,192,50840,1,2,0:0:0:0:
402,192,51073,128,0,51538:0:0:0:0:
36,192,51073,1,0,0:0:0:0:
109,192,51305,1,8,0:0:0:0:
36,192,51538,128,0,52003:0:0:0:0:
182,192,51538,1,0,0:0:0:0:
475,192,51770,1,2,0:0:0:0:
256,192,52003,1,0,0:0:0:0:
36,192,52235,1,8,0:0:0:0:
402,192,52235,1,0,0:0:0:0:
256,192,52468,1,0,0:0:0:0:
36,192,52701,1,2,0:0:0:0:
475,192,52701,128,0,53398:0:0:0:0:
402,192,52701,1,0,0:0:0:0:
182,192,52933,1,0,0:0:0:0:
329,192,53166,128,0,53398:0:0:0:0:
36,192,53166,1,8,0:0:0:0:
182,192,53398,1,0,0:0:0:0:
36,192,53631,128,0,54096:0:0:0:0:
109,192,53631,1,2,0:0:0:0:
402,192,53863,1,0,0:0:0:0:
109,192,54096,1,0,0:0:0:0:
329,192,54096,1,8,0:0:0:0:
256,192,54328,1,0,0:0:0:0:
475,192,54561,1,2,0:0:0:0:
182,192,54561,1,0,0:0:0:0:
36,192,54794,1,0,0:0:0:0:
402,192,55026,1,0,0:0:0:0:
256,192,55026,1,8,0:0:0:0:
36,192,55259,1,0,0:0:0:0:
329,192,55491,1,2,0:0:0:0:
182,192,55491,1,0,0:0:0:0:
109,192,55724,1,8,0:0:0:0:
475,192,55724,1,0,0:0:0:0:
109,192,55956,1,8,0:0:0:0:
475,192,55956,1,0,0:0:0:0:
256,192,56189,1,0,0:0:0:0:
475,192,56421,1,4,0:0:0:0:
36,192,56421,1,2,0:0:0:0:
182,192,56538,1,2,0:0:0:0:
329,192,56654,1,2,0:0:0:0:
109,192,56770,1,2,0:0:0:0:
475,192,56887,1,2,0:0:0:0:
256,192,56887,1,8,0:0:0:0:
36,192,57003,1,2,0:0:0:0:
329,192,57119,1,2,0:0:0:0:
182,192,57235,1,2,0:0:0:0:
329,192,57352,1,2,0:0:0:0:
475,192,57352,1,4,0:0:0:0:
109,192,57468,1,2,0:0:0:0:
256,192,57584,1,2,0:0:0:0:
402,192,57701,1,2,0:0:0:0:
36,192,57817,1,2,0:0:0:0:
182,192,57817,1,8,0:0:0:0:
329,192,57933,1,2,0:0:0:0:
475,192,58049,1,2,0:0:0:0:
329,192,58166,1,2,0:0:0:0:
36,192,58282,1,2,0:0:0:0:
182,192,58282,1,4,0:0:0:0:
402,192,58398,1,2,0:0:0:0:
256,192,58514,1,2,0:0:0:0:
109,192,58631,1,2,0:0:0:0:
329,192,58747,1,8,0:0:0:0:
475,192,58747,1,2,0:0:0:0:
182,192,58863,1,2,0:0:0:0:
36,192,58980,1,2,0:0:0:0:
402,192,59096,1,2,0:0:0:0:
256,192,59212,1,4,0:0:0:0:
109,192,59212,1,2,0:0:0:0:
475,192,59328,1,2,0:0:0:0:
182,192,59445,1,2,0:0:0:0:
402,192,59561,1,2,0:0:0:0:
36,192,59677,1,2,0:0:0:0:
256,192,59677,1,8,0:0:0:0:
475,192,59794,1,2,0:0:0:0:
329,192,59910,1,2,0:0:0:0:
182,192,60026,1,2,0:0:0:0:
36,192,60142,1,2,0:0:0:0:
475,192,60142,1,2,0:0:0:0:
329,192,60142,128,0,61073:0:0:0:0:
182,192,60375,1,0,0:0:0:0:
36,192,60607,1,8,0:0:0:0:
475,192,60607,1,0,0:0:0:0:
256,192,60840,1,0,0:0:0:0:
36,192,61073,128,0,61538:0:0:0:0:
109,192,61073,1,0,0:0:0:0:
256,192,61305,1,0,0:0:0:0:
475,192,61538,128,0,62003:0:0:0:0:
402,192,61538,1,0,0:0:0:0:
109,192,61538,1,8,0:0:0:0:
256,192,61770,1,0,0:0:0:0:
36,192,62003,1,0,0:0:0:0:
402,192,62003,1,2,0:0:0:0:
182,192,62235,1,0,0:0:0:0:
36,192,62468,1,0,0:0:0:0:
402,192,62468,1,8,0:0:0:0:
256,192,62701,1,0,0:0:0:0:
475,192,62933,1,2,0:0:0:0:
36,192,62933,128,0,63166:0:0:0:0:
182,192,62933,1,0,0:0:0:0:
329,192,63166,1,0,0:0:0:0:
36,192,63398,128,0,63631:0:0:0:0:
182,192,63398,1,8,0:0:0:0:
475,192,63398,1,0,0:0:0:0:
329,192,63631,1,0,0:0:0:0:
475,192,63863,1,2,0:0:0:0:
256,192,63863,1,0,0:0:0:0:
109,192,63863,128,0,64794:0:0:0:0:
402,192,64096,1,0,0:0:0:0:
475,192,64328,1,8,0:0:0:0:
36,192,64328,1,0,0:0:0:0:
182,192,64561,1,0,0:0:0:0:
475,192,64794,128,0,65259:0:0:0:0:
329,192,64794,1,2,0:0:0:0:
182,192,65026,1,0,0:0:0:0:
256,192,65259,128,0,65724:0:0:0:0:
36,192,65259,1,8,0:0:0:0:
402,192,65259,1,0,0:0:0:0:
109,192,65491,1,0,0:0:0:0:
36,192,65724,1,0,0:0:0:0:
329,192,65724,1,2,0:0:0:0:
402,192,65956,1,0,0:0:0:0:
475,192,66189,1,0,0:0:0:0:
182,192,66189,1,8,0:0:0:0:
36,192,66421,1,0,0:0:0:0:
402,192,66654,1,0,0:0:0:0:
256,192,66654,1,2,0:0:0:0:
109,192,66887,1,0,0:0:0:0:
329,192,67119,1,8,0:0:0:0:
475,192,67119,1,0,0:0:0:0:
109,192,67352,1,0,0:0:0:0:
182,192,67584,128,0,68514:0:0:0:0:
475,192,67584,1,2,0:0:0:0:
36,192,67817,1,0,0:0:0:0:
402,192,68049,1,0,0:0:0:0:
256,192,68049,1,8,0:0:0:0:
36,192,68282,1,0,0:0:0:0:
475,192,68514,128,0,68980:0:0:0:0:
329,192,68514,1,2,0:0:0:0:
256,192,68747,1,0,0:0:0:0:
36,192,68980,128,0,69445:0:0:0:0:
182,192,68980,1,8,0:0:0:0:
402,192,68980,1,0,0:0:0:0:
329,192,69212,1,0,0:0:0:0:
475,192,69445,1,2,0:0:0:0:
182,192,69445,1,0,0:0:0:0:
256,192,69677,1,0,0:0:0:0:
109,192,69910,1,8,0:0:0:0:
402,192,69910,1,0,0:0:0:0:
329,192,70142,1,0,0:0:0:0:
36,192,70375,1,0,0:0:0:0:
475,192,70375,128,0,70607:0:0:0:0:
182,192,70375,1,2,0:0:0:0:
329,192,70607,1,0,0:0:0:0:
475,192,70840,128,0,71073:0:0:0:0:
36,192,70840,1,0,0:0:0:0:
182,192,70840,1,8,0:0:0:0:
256,192,71073,1,0,0:0:0:0:
329,192,71305,1,2,0:0:0:0:
182,192,71305,1,0,0:0:0:0:
402,192,71538,1,0,0:0:0:0:
109,192,71770,128,0,72235:0:0:0:0:
475,192,71770,1,2,0:0:0:0:
182,192,71770,1,8,0:0:0:0:
329,192,72003,1,0,0:0:0:0:
182,192,72235,1,6,0:0:0:0:
475,192,72352,1,2,0:0:0:0:
36,192,72468,1,2,0:0:0:0:
329,192,72584,1,2,0:0:0:0:
109,192,72701,1,8,0:0:0:0:
475,192,72701,1,2,0:0:0:0:
256,192,72817,1,2,0:0:0:0:
402,192,72933,1,2,0:0:0:0:
36,192,73049,1,2,0:0:0:0:
182,192,73166,1,2,0:0:0:0:
475,192,73166,1,4,0:0:0:0:
36,192,73282,1,2,0:0:0:0:
256,192,73398,1,2,0:0:0:0:
109,192,73514,1,2,0:0:0:0:
256,192,73631,1,8,0:0:0:0:
475,192,73631,1,2,0:0:0:0:
36,192,73747,1,2,0:0:0:0:
402,192,73863,1,2,0:0:0:0:
256,192,73980,1,2,0:0:0:0:
402,192,74096,1,4,0:0:0:0:
109,192,74096,1,2,0:0:0:0:
256,192,74212,1,2,0:0:0:0:
109,192,74328,1,2,0:0:0:0:
402,192,74445,1,2,0:0:0:0:
36,192,74561,1,2,0:0:0:0:
182,192,74561,1,8,0:0:0:0:
329,192,74677,1,2,0:0:0:0:
475,192,74794,1,2,0:0:0:0:
182,192,74910,1,0,0:0:0:0:
402,192,75026,128,0,76421:0:0:0:0:
329,192,75026,1,0,0:0:0:0:
36,192,75026,1,0,0:0:0:0:
36,192,76887,1,0,0:0:0:0:
182,192,77119,1,0,0:0:0:0:
329,192,77352,1,0,0:0:0:0:
475,192,77584,128,0,78747:0:0:0:0:
329,192,78747,1,0,0:0:0:0:
182,192,78980,1,0,0:0:0:0:
36,192,79212,1,0,0:0:0:0:
256,192,79445,128,0,80607:0:0:0:0:
109,192,80607,1,0,0:0:0:0:
256,192,80840,1,0,0:0:0:0:
402,192,81073,1,0,0:0:0:0:
109,192,81305,128,0,84328:0:0:0:0:
