osu file format v14

[General]
AudioFilename: BoA - MASAYUME CHASING (Speed Up Ver.).mp3
AudioLeadIn: 0
PreviewTime: 37468
Countdown: 0
SampleSet: Soft
StackLeniency: 0.7
Mode: 2
LetterboxInBreaks: 0
WidescreenStoryboard: 1

[Editor]
DistanceSpacing: 1.3
BeatDivisor: 4
GridSize: 8
TimelineZoom: 1

[Metadata]
Title:MASAYUME CHASING (Speed Up Ver.)
TitleUnicode:MASAYUME CHASING (Speed Up Ver.)
Artist:BoA
ArtistUnicode:BoA
Creator:Calibus
Version:Salad
Source:Fairy Tail
Tags:フェアリーテイル 보아 Chasing Dreams Opening 15 Sayonara Trance J-Pop Nightcore TV Size Short Fairy Tail Speed Up
BeatmapID:966960
BeatmapSetID:450194

[Difficulty]
HPDrainRate:4
CircleSize:3
OverallDifficulty:7
ApproachRate:7
SliderMultiplier:1.6
SliderTickRate:2

[Events]
//Background and Video events
0,0,"BG.jpg",0,0
//Break Periods
//Storyboard Layer 0 (Background)
//Storyboard Layer 1 (Fail)
//Storyboard Layer 2 (Pass)
//Storyboard Layer 3 (Foreground)
//Storyboard Sound Samples

[TimingPoints]
93,397.614314115308,4,2,0,70,1,0
192,-100,4,2,0,5,0,0
689,-100,4,2,0,70,0,0
1782,-100,4,2,0,5,0,0
2279,-100,4,2,0,70,0,0
3373,-100,4,2,0,5,0,0
3870,-100,4,2,0,70,0,0
4963,-100,4,2,0,5,0,0
5460,-100,4,2,0,70,0,0
6057,-100,4,2,0,60,0,0
6156,-100,4,2,0,5,0,0
6256,-100,4,2,0,60,0,0
6355,-100,4,2,0,5,0,0
6454,-100,4,2,1,70,0,0
6554,-100,4,2,1,5,0,0
7250,-100,4,2,1,70,0,0
8144,-100,4,2,1,5,0,0
8840,-100,4,2,1,70,0,0
9735,-100,4,2,1,5,0,0
10430,-100,4,2,1,70,0,0
11226,-100,4,2,0,70,0,0
11425,-100,4,2,2,100,0,0
11524,-100,4,2,2,70,0,0
11623,-100,4,2,2,100,0,0
12021,-100,4,2,2,70,0,0
12816,-100,4,2,3,70,0,0
25540,-100,4,2,3,70,0,0
31106,-100,4,2,4,55,0,0
31206,-100,4,2,3,70,0,0
33492,-100,4,2,4,55,0,0
33592,-100,4,2,3,70,0,0
38263,-100,4,2,5,90,0,1
46216,-100,4,2,4,75,0,1
46315,-100,4,2,5,90,0,1
48601,-100,4,2,4,75,0,1
48701,-100,4,2,5,90,0,1
49397,-100,4,2,6,85,0,0
49794,-100,4,2,6,90,0,0
50192,-100,4,2,6,95,0,0
50590,-100,4,2,6,100,0,0
50987,-100,4,2,5,90,0,1
56554,-100,4,2,4,75,0,1
56653,-100,4,2,5,90,0,1
62120,-100,4,2,2,85,0,1
62518,-100,4,2,2,90,0,1
62916,-100,4,2,2,95,0,1
63313,-100,4,2,2,100,0,1
63711,-100,4,2,0,85,0,0
63910,-100,4,2,0,75,0,0
64108,-100,4,2,0,65,0,0
64307,-100,4,2,0,55,0,0
64506,-100,4,2,0,45,0,0
64705,-100,4,2,0,35,0,0
64904,-100,4,2,0,25,0,0
65102,-100,4,2,0,15,0,0
65301,-100,4,2,0,5,0,0

[Colours]
Combo1 : 153,153,204
Combo2 : 47,64,132
Combo3 : 128,28,57
Combo4 : 255,255,155
Combo5 : 219,121,158
Combo6 : 232,227,174

[HitObjects]
24,208,93,6,0,P|152:104|192:136,1,240,2|0,0:0|0:0,0:0:0:0:
456,120,1683,6,0,P|416:224|272:280,1,240,2|0,0:0|0:0,0:0:0:0:
32,184,3273,6,0,P|101:95|208:131,1,240,2|0,0:0|0:0,0:0:0:0:
408,320,4864,6,0,P|464:256|352:144,1,240,2|0,0:0|0:0,0:0:0:0:
64,128,6057,5,2,0:0:0:0:
88,136,6156,1,0,0:0:0:0:
112,144,6256,1,2,0:0:0:0:
136,152,6355,1,0,0:0:0:0:
160,160,6454,6,0,P|224:184|176:48,1,320,2|8,0:0|0:0,0:0:0:0:
336,48,7647,1,0,0:0:0:0:
136,224,8045,6,0,P|120:296|288:264,1,320,2|8,0:0|0:0,0:0:0:0:
80,288,9238,1,0,0:0:0:0:
336,240,9635,6,0,P|408:208|280:88,1,320,2|8,0:0|0:0,0:0:0:0:
168,128,10828,1,0,0:0:0:0:
288,184,11226,5,4,0:0:0:0:
392,208,11425,2,0,L|448:240,2,40,8|0|8,0:0|0:0|0:0,0:0:0:0:
288,240,11822,1,8,0:0:0:0:
384,104,12021,2,0,P|376:56|272:32,1,160
200,168,12816,6,0,L|120:168,1,80,2|0,0:0|0:0,0:0:0:0:
200,232,13214,1,2,0:0:0:0:
384,128,13611,2,0,P|360:80|232:56,1,160,2|2,0:0|0:0,0:0:0:0:
152,56,14208,1,0,0:0:0:0:
72,136,14407,6,0,L|160:168,1,80,2|0,0:0|0:0,0:0:0:0:
64,224,14804,1,0,0:0:0:0:
296,256,15202,2,0,P|328:200|288:96,1,160,2|2,0:0|0:0,0:0:0:0:
224,112,15798,1,0,0:0:0:0:
360,32,15997,6,0,L|456:32,1,80,2|0,0:0|0:0,0:0:0:0:
296,176,16395,2,0,L|192:176,1,80,2|0,0:0|0:0,0:0:0:0:
312,232,16792,1,2,0:0:0:0:
208,240,16991,1,0,0:0:0:0:
256,192,17389,12,2,18780,0:0:0:0:
112,160,19178,6,0,L|56:224,1,80,2|0,0:0|0:0,0:0:0:0:
168,312,19576,2,0,L|80:320,1,80,2|0,0:0|0:0,0:0:0:0:
272,304,19973,2,0,P|312:224|264:208,1,160,2|2,0:0|0:0,0:0:0:0:
136,80,20768,6,0,L|232:80,1,80,2|0,0:0|0:0,0:0:0:0:
344,80,21166,2,0,L|312:168,1,80,2|0,0:0|0:0,0:0:0:0:
192,176,21564,2,0,P|136:224|176:320,1,160,2|2,0:0|0:0,0:0:0:0:
400,240,22359,6,0,L|368:152,1,80,2|0,0:0|0:0,0:0:0:0:
224,168,22757,2,0,L|256:64,1,80,2|0,0:0|0:0,0:0:0:0:
128,88,23154,2,0,P|80:144|128:208,1,160,2|2,0:0|0:0,0:0:0:0:
256,328,23751,6,0,P|320:288|216:48,1,400
312,104,24943,5,0,0:0:0:0:
456,104,25142,2,0,L|424:208,1,80
256,208,25540,6,0,P|184:272|120:240,1,160,2|10,0:0|0:0,0:0:0:0:
376,136,26335,2,0,P|424:208|352:264,1,160,2|10,0:0|0:0,0:0:0:0:
192,184,27130,6,0,P|112:200|32:128,1,160,2|10,0:0|0:0,0:0:0:0:
160,88,27727,1,0,0:0:0:0:
336,88,27926,2,0,P|376:144|304:216,1,160,2|10,0:0|0:0,0:0:0:0:
72,248,28721,6,0,L|152:88,1,160,2|10,0:0|0:0,0:0:0:0:
264,104,29317,1,0,0:0:0:0:
440,112,29516,2,0,P|488:168|448:272,1,160,2|10,0:0|0:0,0:0:0:0:
376,296,30112,2,0,L|464:296,2,80,0|2|0,0:0|0:0|0:0,0:0:0:0:
256,296,30709,5,10,0:0:0:0:
96,296,30908,2,0,P|40:248|56:144,1,160
144,128,31504,2,0,L|224:128,1,80,10|0,0:0|0:0,0:0:0:0:
400,120,31902,6,0,L|480:280,1,160,2|10,0:0|0:0,0:0:0:0:
176,176,32697,2,0,P|144:232|200:312,1,160,2|10,0:0|0:0,0:0:0:0:
320,304,33293,2,0,P|400:248|392:240,1,160
272,192,33890,5,10,0:0:0:0:
448,144,34287,1,2,0:0:0:0:
184,144,34685,1,10,0:0:0:0:
440,80,35083,1,2,0:0:0:0:
256,192,35281,12,0,37071,0:0:0:0:
384,168,37468,5,0,0:0:0:0:
304,112,37667,2,0,L|224:112,1,80
344,40,38065,1,0,0:0:0:0:
488,96,38263,6,0,P|432:152|488:232,1,160,2|8,0:0|0:0,0:0:0:0:
216,136,39059,2,0,L|368:184,1,160,2|8,0:0|0:0,0:0:0:0:
264,240,39655,1,0,0:0:0:0:
144,240,39854,6,0,L|56:240,1,80,2|0,0:0|0:0,0:0:0:0:
240,288,40252,2,0,P|272:320|384:264,1,160,8|2,0:0|0:0,0:0:0:0:
272,232,40848,1,8,0:0:0:0:
448,232,41047,1,8,0:0:0:0:
184,168,41444,6,0,P|232:120|336:160,1,160,2|8,0:0|0:0,0:0:0:0:
184,56,42041,1,0,0:0:0:0:
304,40,42240,2,0,L|384:40,1,80,2|0,0:0|0:0,0:0:0:0:
224,232,42637,2,0,L|144:232,1,80,8|0,0:0|0:0,0:0:0:0:
40,232,43035,6,0,P|0:160|64:104,1,160,2|8,0:0|0:0,0:0:0:0:
176,104,43631,1,0,0:0:0:0:
352,104,43830,2,0,L|432:168,2,80,2|0|8,0:0|0:0|0:0,0:0:0:0:
208,104,44426,1,0,0:0:0:0:
368,56,44625,6,0,P|424:120|408:216,1,160,2|8,0:0|0:0,0:0:0:0:
128,176,45421,2,0,L|296:232,1,160,2|8,0:0|0:0,0:0:0:0:
440,240,46017,6,0,P|480:192|456:72,1,160
320,104,46613,2,0,P|392:184|360:240,1,160,8|2,0:0|0:0,0:0:0:0:
240,224,47210,1,8,0:0:0:0:
376,264,47409,1,8,0:0:0:0:
480,224,47607,1,0,0:0:0:0:
392,168,47806,6,0,P|312:136|336:64,1,160,2|8,0:0|0:0,0:0:0:0:
208,80,48403,2,0,P|152:112|208:192,1,160
336,192,48999,2,0,L|328:288,1,80,8|0,0:0|0:0,0:0:0:0:
256,192,49397,12,0,50590,0:0:0:0:
336,120,50987,5,2,0:0:0:0:
256,72,51186,2,0,L|208:72,1,40
352,32,51484,1,0,0:0:0:0:
232,104,51683,1,0,0:0:0:0:
256,144,51782,2,0,L|296:232,1,80,2|0,0:0|0:0,0:0:0:0:
416,216,52180,2,0,L|328:216,1,80,8|0,0:0|0:0,0:0:0:0:
208,248,52578,5,2,0:0:0:0:
120,304,52776,2,0,L|64:304,1,40
216,200,53075,2,0,L|136:144,1,80
120,120,53373,1,2,0:0:0:0:
360,120,53770,1,8,0:0:0:0:
192,88,54168,6,0,L|112:64,1,80,2|0,0:0|0:0,0:0:0:0:
80,64,54466,1,0,0:0:0:0:
176,16,54665,2,0,L|96:16,1,80
48,32,54963,2,0,L|32:136,1,80,2|0,0:0|0:0,0:0:0:0:
200,152,55361,1,8,0:0:0:0:
48,200,55759,6,0,L|144:248,2,80,2|0|8,0:0|0:0|0:0,0:0:0:0:
208,248,56355,2,0,P|280:288|280:216,1,160
400,192,56951,1,8,0:0:0:0:
240,112,57349,5,2,0:0:0:0:
160,48,57548,2,0,L|120:48,1,40
224,24,57846,1,0,0:0:0:0:
112,104,58045,1,0,0:0:0:0:
136,128,58144,2,0,L|200:184,1,80,2|0,0:0|0:0,0:0:0:0:
296,176,58542,2,0,L|264:256,1,80,8|0,0:0|0:0,0:0:0:0:
384,240,58939,6,0,L|464:280,1,80,2|0,0:0|0:0,0:0:0:0:
496,280,59238,1,0,0:0:0:0:
368,328,59436,2,0,L|432:272,1,80
456,248,59735,5,2,0:0:0:0:
240,248,60132,1,8,0:0:0:0:
352,184,60530,6,0,L|440:128,1,80,2|0,0:0|0:0,0:0:0:0:
464,144,60828,1,0,0:0:0:0:
328,96,61027,1,0,0:0:0:0:
472,40,61226,1,0,0:0:0:0:
440,40,61325,2,0,L|352:32,1,80,2|0,0:0|0:0,0:0:0:0:
232,40,61723,1,8,0:0:0:0:
72,136,62120,6,0,L|104:232,1,80
216,216,62518,1,0,0:0:0:0:
360,216,62717,2,0,P|392:184|328:112,1,160
168,112,63313,2,0,P|104:144|112:232,1,160
256,192,63910,12,0,65254,0:0:0:0:
