osu file format v14

[General]
AudioFilename: BoA - MASAYUME CHASING (Speed Up Ver.).mp3
AudioLeadIn: 0
PreviewTime: 37468
Countdown: 0
SampleSet: Soft
StackLeniency: 0.7
Mode: 2
LetterboxInBreaks: 0
WidescreenStoryboard: 0

[Editor]
DistanceSpacing: 1.3
BeatDivisor: 4
GridSize: 8
TimelineZoom: 1

[Metadata]
Title:MASAYUME CHASING (Speed Up Ver.)
TitleUnicode:MASAYUME CHASING (Speed Up Ver.)
Artist:BoA
ArtistUnicode:BoA
Creator:Calibus
Version:Rain
Source:Fairy Tail
Tags:フェアリーテイル 보아 Chasing Dreams Opening 15 Sayonara Trance J-Pop Nightcore TV Size Short Fairy Tail Speed Up
BeatmapID:965892
BeatmapSetID:450194

[Difficulty]
HPDrainRate:6
CircleSize:4
OverallDifficulty:9
ApproachRate:9
SliderMultiplier:2
SliderTickRate:2

[Events]
//Background and Video events
0,0,"BG.jpg",0,0
//Break Periods
//Storyboard Layer 0 (Background)
//Storyboard Layer 1 (Fail)
//Storyboard Layer 2 (Pass)
//Storyboard Layer 3 (Foreground)
//Storyboard Sound Samples

[TimingPoints]
93,397.614314115308,4,2,0,70,1,0
192,-100,4,2,0,5,0,0
689,-100,4,2,0,70,0,0
788,-100,4,2,0,5,0,0
1683,-100,4,2,0,70,0,0
1782,-100,4,2,0,5,0,0
2279,-100,4,2,0,70,0,0
2379,-100,4,2,0,5,0,0
3273,-100,4,2,0,70,0,0
3373,-100,4,2,0,5,0,0
3870,-100,4,2,0,70,0,0
3969,-100,4,2,0,5,0,0
4864,-100,4,2,0,70,0,0
4963,-100,4,2,0,5,0,0
5460,-100,4,2,0,70,0,0
5560,-100,4,2,0,5,0,0
6057,-100,4,2,0,60,0,0
6156,-100,4,2,0,5,0,0
6256,-100,4,2,0,60,0,0
6355,-100,4,2,0,5,0,0
6454,-100,4,2,1,70,0,0
6554,-100,4,2,1,5,0,0
7051,-100,4,2,1,70,0,0
7250,-100,4,2,1,70,0,0
7349,-100,4,2,1,5,0,0
8045,-100,4,2,1,70,0,0
8144,-100,4,2,1,5,0,0
8641,-100,4,2,1,60,0,0
8840,-100,4,2,1,70,0,0
8939,-100,4,2,1,5,0,0
9635,-100,4,2,1,70,0,0
9735,-100,4,2,1,5,0,0
10430,-100,4,2,1,70,0,0
10530,-100,4,2,1,5,0,0
11226,-100,4,2,0,70,0,0
11425,-100,4,2,2,100,0,0
11524,-100,4,2,2,70,0,0
11623,-100,4,2,2,100,0,0
12021,-100,4,2,2,70,0,0
12816,-100,4,2,3,70,0,0
23949,-100,4,2,0,70,0,0
24148,-100,4,2,2,100,0,0
24248,-100,4,2,2,70,0,0
24347,-100,4,2,2,100,0,0
24745,-100,4,2,2,70,0,0
25540,-100,4,2,3,70,0,0
27130,-100,4,2,4,55,0,0
27230,-100,4,2,3,70,0,0
36673,-100,4,2,0,70,0,0
36872,-100,4,2,2,100,0,0
36971,-100,4,2,2,70,0,0
37071,-100,4,2,2,100,0,0
38263,-100,4,2,5,90,0,1
46216,-100,4,2,4,75,0,1
46315,-100,4,2,5,90,0,1
48601,-100,4,2,4,75,0,1
48701,-100,4,2,5,90,0,1
49397,-100,4,2,6,85,0,0
49794,-100,4,2,6,90,0,0
50192,-100,4,2,6,95,0,0
50590,-100,4,2,6,100,0,0
50987,-100,4,2,5,90,0,1
56554,-100,4,2,4,75,0,1
56653,-100,4,2,5,90,0,1
62120,-100,4,2,2,85,0,1
62518,-100,4,2,2,90,0,1
62916,-100,4,2,2,95,0,1
63313,-100,4,2,2,100,0,1
63711,-100,4,2,0,85,0,0
63910,-100,4,2,0,75,0,0
64108,-100,4,2,0,65,0,0
64307,-100,4,2,0,55,0,0
64506,-100,4,2,0,45,0,0
64705,-100,4,2,0,35,0,0
64904,-100,4,2,0,25,0,0
65102,-100,4,2,0,15,0,0
65301,-100,4,2,0,5,0,0

[Colours]
Combo1 : 153,153,204
Combo2 : 47,64,132
Combo3 : 128,28,57
Combo4 : 255,255,155
Combo5 : 219,121,158
Combo6 : 232,227,174

[HitObjects]
48,280,93,6,0,L|272:216,1,200,2|0,0:0|0:0,0:0:0:0:
448,128,689,2,0,P|360:32|272:48,1,200
112,96,1285,2,0,L|112:200,1,100
296,200,1683,6,0,L|520:264,1,200,2|0,0:0|0:0,0:0:0:0:
296,200,2279,2,0,P|264:136|144:176,1,200
0,288,2876,2,0,L|104:288,1,100
400,248,3273,6,0,P|464:192|392:120,1,200,2|0,0:0|0:0,0:0:0:0:
232,144,3870,2,0,P|168:88|240:16,1,200
456,64,4466,2,0,L|352:64,1,100
96,80,4864,6,0,P|48:144|112:248,1,200,2|0,0:0|0:0,0:0:0:0:
368,184,5460,2,0,L|176:256,1,200
320,280,6057,2,0,L|270:280,1,50,2|0,0:0|0:0,0:0:0:0:
160,216,6256,2,0,L|210:216,1,50,2|0,0:0|0:0,0:0:0:0:
448,208,6454,6,0,P|448:136|336:136,1,200,4|0,0:0|0:0,0:0:0:0:
448,208,7051,1,0,0:0:0:0:
88,72,7250,2,0,L|184:280,1,200,8|0,0:0|0:0,0:0:0:0:
448,64,8045,6,0,P|368:80|336:208,1,200,2|0,0:0|0:0,0:0:0:0:
448,200,8641,2,0,L|496:184,1,50
256,88,8840,2,0,L|176:272,1,200,8|0,0:0|0:0,0:0:0:0:
336,272,9436,1,0,0:0:0:0:
64,288,9635,6,0,P|0:240|64:168,1,200,2|0,0:0|0:0,0:0:0:0:
224,168,10232,1,0,0:0:0:0:
384,168,10430,2,0,P|408:104|304:24,1,200,8|0,0:0|0:0,0:0:0:0:
104,72,11226,5,4,0:0:0:0:
288,112,11425,2,0,L|224:112,2,50,8|0|8,0:0|0:0|0:0,0:0:0:0:
408,72,11822,1,8,0:0:0:0:
224,176,12021,2,2,L|160:176,1,50
440,224,12319,1,2,0:0:0:0:
487,233,12418,1,2,0:0:0:0:
507,277,12517,1,2,0:0:0:0:
484,319,12617,1,6,0:0:0:0:
436,325,12716,1,6,0:0:0:0:
184,320,12816,6,0,L|96:264,1,100,2|0,0:0|0:0,0:0:0:0:
304,152,13214,2,0,L|200:152,2,100,2|0|2,0:0|0:0|0:0,0:0:0:0:
432,80,13810,1,0,0:0:0:0:
256,48,14009,2,0,L|360:48,1,100,2|0,0:0|0:0,0:0:0:0:
80,64,14407,6,0,L|32:160,1,100,2|0,0:0|0:0,0:0:0:0:
240,120,14804,2,0,L|296:208,1,100,2|0,0:0|0:0,0:0:0:0:
112,208,15202,1,2,0:0:0:0:
264,264,15401,1,0,0:0:0:0:
72,264,15599,1,2,0:0:0:0:
352,264,15798,1,0,0:0:0:0:
464,160,15997,6,0,L|408:64,1,100,2|0,0:0|0:0,0:0:0:0:
224,72,16395,1,2,0:0:0:0:
352,72,16593,1,0,0:0:0:0:
152,176,16792,2,0,L|256:176,2,100,2|0|2,0:0|0:0|0:0,0:0:0:0:
256,192,17389,12,2,18582,0:0:0:0:
136,104,18979,5,0,0:0:0:0:
280,104,19178,2,0,L|376:144,1,100,2|0,0:0|0:0,0:0:0:0:
192,184,19576,2,0,L|96:224,1,100,2|0,0:0|0:0,0:0:0:0:
400,168,19973,2,0,P|448:256|360:280,1,200,2|2,0:0|0:0,0:0:0:0:
512,80,20570,1,0,0:0:0:0:
184,72,20768,6,0,L|104:136,1,100,2|0,0:0|0:0,0:0:0:0:
312,120,21166,2,0,L|208:120,1,100,2|0,0:0|0:0,0:0:0:0:
480,120,21564,2,0,L|408:320,1,200,2|2,0:0|0:0,0:0:0:0:
280,312,22160,1,0,0:0:0:0:
96,240,22359,6,0,L|200:240,1,100,2|0,0:0|0:0,0:0:0:0:
344,144,22757,2,0,L|240:144,1,100,2|0,0:0|0:0,0:0:0:0:
64,144,23154,6,0,P|104:88|224:112,1,200,2|2,0:0|0:0,0:0:0:0:
376,96,23751,1,0,0:0:0:0:
184,128,23949,5,4,0:0:0:0:
368,184,24148,2,0,L|418:184,2,50,8|0|8,0:0|0:0|0:0,0:0:0:0:
240,184,24546,1,8,0:0:0:0:
112,192,24745,1,2,0:0:0:0:
71,220,24844,1,2,0:0:0:0:
53,266,24943,1,2,0:0:0:0:
64,314,25043,1,2,0:0:0:0:
272,248,25142,5,2,0:0:0:0:
313,276,25241,1,2,0:0:0:0:
331,322,25340,1,2,0:0:0:0:
320,370,25440,1,2,0:0:0:0:
48,176,25540,6,0,L|88:80,1,100,2|0,0:0|0:0,0:0:0:0:
256,128,25937,2,0,L|216:32,1,100,10|0,0:0|0:0,0:0:0:0:
360,80,26335,2,0,L|472:80,2,100,2|0|10,0:0|0:0|0:0,0:0:0:0:
136,80,26931,2,0,P|80:136|136:232,1,200
288,200,27528,6,0,L|208:280,1,100,10|0,0:0|0:0,0:0:0:0:
384,160,27926,2,0,L|440:256,1,100,2|0,0:0|0:0,0:0:0:0:
216,240,28323,2,0,L|272:152,1,100,10|0,0:0|0:0,0:0:0:0:
400,40,28721,6,0,L|296:88,1,100,2|0,0:0|0:0,0:0:0:0:
448,112,29118,1,10,0:0:0:0:
120,112,29317,1,0,0:0:0:0:
272,160,29516,2,0,L|160:160,1,100,2|0,0:0|0:0,0:0:0:0:
32,208,29914,2,0,L|136:208,1,100,10|0,0:0|0:0,0:0:0:0:
424,208,30311,6,0,L|464:304,1,100,2|0,0:0|0:0,0:0:0:0:
272,208,30709,1,10,0:0:0:0:
424,264,30908,1,0,0:0:0:0:
232,264,31106,1,2,0:0:0:0:
512,264,31305,1,0,0:0:0:0:
360,144,31504,2,0,L|460:144,1,100,10|0,0:0|0:0,0:0:0:0:
104,152,31902,6,0,L|16:96,1,100,2|0,0:0|0:0,0:0:0:0:
208,64,32299,2,0,L|104:64,2,100,10|0|2,0:0|0:0|0:0,0:0:0:0:
376,64,32896,1,0,0:0:0:0:
208,152,33094,2,0,L|160:248,1,100,10|0,0:0|0:0,0:0:0:0:
496,152,33492,6,0,L|392:152,1,100,2|0,0:0|0:0,0:0:0:0:
256,192,33890,2,0,L|368:192,1,100,10|0,0:0|0:0,0:0:0:0:
176,224,34287,2,0,L|176:328,1,100,2|0,0:0|0:0,0:0:0:0:
0,88,34685,2,0,L|32:192,1,100,10|0,0:0|0:0,0:0:0:0:
448,168,35083,6,0,L|344:168,1,100,2|0,0:0|0:0,0:0:0:0:
288,168,35381,1,0,0:0:0:0:
112,168,35480,2,0,L|80:272,1,100,8|0,0:0|0:0,0:0:0:0:
288,224,35878,2,0,L|320:328,1,100
480,192,36275,2,0,L|376:192,1,100,8|0,0:0|0:0,0:0:0:0:
112,192,36673,5,4,0:0:0:0:
272,224,36872,2,0,L|208:224,2,50,8|0|8,0:0|0:0|0:0,0:0:0:0:
400,192,37269,1,8,0:0:0:0:
280,120,37468,1,2,0:0:0:0:
236,107,37567,1,2,0:0:0:0:
216,148,37666,1,2,0:0:0:0:
252,176,37766,1,2,0:0:0:0:
448,56,37866,5,2,0:0:0:0:
492,43,37965,1,2,0:0:0:0:
512,84,38064,1,4,0:0:0:0:
476,112,38164,1,4,0:0:0:0:
88,104,38263,6,0,L|56:216,1,100,2|0,0:0|0:0,0:0:0:0:
256,56,38661,2,0,L|152:56,1,100,8|0,0:0|0:0,0:0:0:0:
344,104,39059,1,2,0:0:0:0:
200,104,39258,1,0,0:0:0:0:
344,192,39456,2,0,L|448:248,1,100,8|0,0:0|0:0,0:0:0:0:
376,248,39755,1,0,0:0:0:0:
176,232,39854,6,0,L|64:232,1,100,2|0,0:0|0:0,0:0:0:0:
288,144,40252,2,0,L|184:144,2,100,8|0|2,0:0|0:0|0:0,0:0:0:0:
424,80,40848,1,8,0:0:0:0:
88,80,41047,1,8,0:0:0:0:
216,80,41246,1,0,0:0:0:0:
376,88,41444,6,0,L|280:144,2,100,2|0|8,0:0|0:0|0:0,0:0:0:0:
16,136,42041,1,0,0:0:0:0:
176,184,42240,2,0,L|72:184,1,100,2|0,0:0|0:0,0:0:0:0:
280,248,42637,2,0,L|180:248,1,100,8|0,0:0|0:0,0:0:0:0:
344,248,43035,6,0,L|312:352,1,100,2|0,0:0|0:0,0:0:0:0:
512,136,43432,2,0,L|480:240,1,100,8|0,0:0|0:0,0:0:0:0:
328,64,43830,2,0,L|416:120,1,100,2|0,0:0|0:0,0:0:0:0:
360,144,44128,1,0,0:0:0:0:
192,160,44228,2,0,L|80:160,1,100,8|0,0:0|0:0,0:0:0:0:
192,48,44625,6,0,L|224:160,1,100,2|0,0:0|0:0,0:0:0:0:
384,112,45023,2,0,L|280:112,2,100,8|0|2,0:0|0:0|0:0,0:0:0:0:
512,112,45619,1,0,0:0:0:0:
336,176,45818,1,8,0:0:0:0:
184,184,46017,2,0,P|112:216|184:296,1,200
352,304,46613,6,0,L|232:304,1,100,8|0,0:0|0:0,0:0:0:0:
352,200,47011,1,2,0:0:0:0:
184,144,47210,1,8,0:0:0:0:
480,144,47409,1,8,0:0:0:0:
360,80,47607,1,0,0:0:0:0:
168,64,47806,6,0,L|272:64,1,100,2|0,0:0|0:0,0:0:0:0:
416,64,48204,1,8,0:0:0:0:
272,136,48403,2,0,P|216:192|288:272,1,200
488,272,48999,2,0,L|384:272,1,100,8|0,0:0|0:0,0:0:0:0:
208,280,49397,5,2,0:0:0:0:
160,272,49496,1,2,0:0:0:0:
121,241,49595,1,2,0:0:0:0:
104,194,49695,1,2,0:0:0:0:
288,176,49794,5,10,0:0:0:0:
336,168,49893,1,2,0:0:0:0:
375,137,49992,1,2,0:0:0:0:
392,90,50092,1,2,0:0:0:0:
48,112,50192,5,2,0:0:0:0:
65,65,50292,1,2,0:0:0:0:
104,34,50391,1,2,0:0:0:0:
152,26,50490,1,2,0:0:0:0:
464,240,50590,5,10,0:0:0:0:
509,224,50689,1,2,0:0:0:0:
508,177,50788,1,4,0:0:0:0:
464,163,50888,1,4,0:0:0:0:
256,136,50987,6,0,L|157:143,1,100,2|0,0:0|0:0,0:0:0:0:
120,168,51285,1,0,0:0:0:0:
82,197,51384,1,8,0:0:0:0:
79,245,51483,1,0,0:0:0:0:
113,279,51583,1,0,0:0:0:0:
161,276,51682,1,0,0:0:0:0:
216,272,51782,6,0,L|328:272,1,100,2|0,0:0|0:0,0:0:0:0:
56,136,52180,2,0,L|24:40,1,100,8|0,0:0|0:0,0:0:0:0:
352,80,52578,6,0,L|456:120,1,100,2|0,0:0|0:0,0:0:0:0:
488,144,52876,1,0,0:0:0:0:
507,189,52975,1,8,0:0:0:0:
489,234,53074,1,0,0:0:0:0:
445,254,53174,1,0,0:0:0:0:
399,238,53273,1,0,0:0:0:0:
144,208,53373,6,0,L|244:208,1,100,2|0,0:0|0:0,0:0:0:0:
512,80,53770,2,0,L|412:80,1,100,8|0,0:0|0:0,0:0:0:0:
280,64,54168,6,0,L|384:64,1,100,2|0,0:0|0:0,0:0:0:0:
416,64,54466,1,0,0:0:0:0:
463,69,54565,1,8,0:0:0:0:
485,112,54664,1,0,0:0:0:0:
463,154,54764,1,0,0:0:0:0:
415,159,54863,1,0,0:0:0:0:
184,64,54963,6,0,L|104:136,1,100,2|0,0:0|0:0,0:0:0:0:
280,144,55361,2,0,L|360:216,1,100,8|0,0:0|0:0,0:0:0:0:
200,248,55759,6,0,L|304:248,2,100,2|0|8,0:0|0:0|0:0,0:0:0:0:
80,256,56355,2,0,P|24:216|80:112,1,200
208,120,56951,2,0,L|96:120,1,100,8|0,0:0|0:0,0:0:0:0:
400,128,57349,6,0,L|288:72,1,100,2|0,0:0|0:0,0:0:0:0:
272,72,57647,1,0,0:0:0:0:
230,47,57746,1,8,0:0:0:0:
183,59,57845,1,0,0:0:0:0:
159,102,57945,1,0,0:0:0:0:
173,148,58044,1,0,0:0:0:0:
208,176,58144,6,0,L|312:176,1,100,2|0,0:0|0:0,0:0:0:0:
144,216,58542,2,0,L|40:216,1,100,8|0,0:0|0:0,0:0:0:0:
232,272,58939,6,0,L|320:200,1,100,2|0,0:0|0:0,0:0:0:0:
336,184,59238,1,0,0:0:0:0:
377,159,59337,1,8,0:0:0:0:
378,111,59436,1,0,0:0:0:0:
339,83,59536,1,0,0:0:0:0:
295,101,59635,1,0,0:0:0:0:
112,128,59735,6,0,L|8:128,1,100,2|0,0:0|0:0,0:0:0:0:
368,72,60132,2,0,L|472:72,1,100,8|0,0:0|0:0,0:0:0:0:
288,160,60530,6,0,L|376:208,1,100,2|0,0:0|0:0,0:0:0:0:
408,224,60828,1,0,0:0:0:0:
450,246,60927,1,8,0:0:0:0:
457,294,61026,1,0,0:0:0:0:
424,328,61126,1,0,0:0:0:0:
376,321,61225,1,0,0:0:0:0:
320,176,61325,6,0,L|440:176,1,100,2|0,0:0|0:0,0:0:0:0:
128,96,61723,2,0,L|8:96,1,100,8|0,0:0|0:0,0:0:0:0:
208,160,62120,5,2,0:0:0:0:
242,195,62219,1,2,0:0:0:0:
251,243,62318,1,2,0:0:0:0:
231,288,62418,1,2,0:0:0:0:
64,232,62518,5,2,0:0:0:0:
30,267,62617,1,2,0:0:0:0:
21,315,62716,1,2,0:0:0:0:
41,360,62816,1,2,0:0:0:0:
352,152,62916,5,2,0:0:0:0:
398,147,63015,1,2,0:0:0:0:
410,101,63114,1,2,0:0:0:0:
372,75,63214,1,2,0:0:0:0:
200,96,63313,5,8,0:0:0:0:
153,91,63412,1,2,0:0:0:0:
141,45,63511,1,2,0:0:0:0:
179,19,63611,1,2,0:0:0:0:
472,32,63711,1,4,0:0:0:0:
256,192,63810,12,0,65254,0:0:0:0:
