osu file format v13

[General]
AudioFilename: Masayume Chasing (15).mp3
AudioLeadIn: 2400
PreviewTime: 44325
Countdown: 0
SampleSet: Soft
StackLeniency: 0.7
Mode: 0
LetterboxInBreaks: 1
WidescreenStoryboard: 1

[Editor]
DistanceSpacing: 1.5
BeatDivisor: 4
GridSize: 4
TimelineZoom: 0.8

[Metadata]
Title:MASAYUME CHASING
TitleUnicode:MASAYUME CHASING
Artist:BoA
ArtistUnicode:BoA
Creator:Lasoki
Version:Origin
Source:Fairy Tail
Tags:Opening 15, -APXH, MagoichiSaica
BeatmapID:459907
BeatmapSetID:163400

[Difficulty]
HPDrainRate:7
CircleSize:4
OverallDifficulty:7
ApproachRate:9
SliderMultiplier:1.9
SliderTickRate:1

[Events]
//Background and Video events
Video,0,"Masayume Chasing.avi"
0,0,"Lucy_Rescue_Team.png",0,0
//Break Periods
//Storyboard Layer 0 (Background)
//Storyboard Layer 1 (Fail)
//Storyboard Layer 2 (Pass)
//Storyboard Layer 3 (Foreground)
//Storyboard Sound Samples
//Background Colour Transformations
3,100,163,162,255

[TimingPoints]
605,465.116279069767,4,2,1,70,1,0
721,-100,4,2,1,55,0,0
1302,-100,4,2,1,70,0,0
2581,-100,4,2,1,55,0,0
3163,-100,4,2,1,70,0,0
4442,-100,4,2,1,55,0,0
5023,-100,4,2,1,70,0,0
6302,-100,4,2,1,55,0,0
6884,-100,4,2,1,70,0,0
7116,-100,4,2,1,55,0,0
7581,-100,4,2,1,65,0,0
7814,-100,4,2,1,60,0,0
7930,-100,4,2,1,65,0,0
8046,-100,4,2,1,70,0,0
8163,-100,4,2,1,55,0,0
8744,-100,4,2,1,70,0,0
8977,-200,4,2,1,65,0,0
9442,-200,4,2,1,5,0,0
9907,-200,4,2,1,70,0,0
10023,-200,4,2,1,55,0,0
10604,-200,4,2,1,70,0,0
10837,-200,4,2,1,65,0,0
11302,-200,4,2,1,5,0,0
11767,-200,4,2,1,70,0,0
11884,-200,4,2,1,55,0,0
12465,-200,4,2,1,70,0,0
12698,-200,4,2,1,65,0,0
13163,-200,4,2,1,5,0,0
13628,-133.333333333333,4,2,1,70,0,0
13860,-133.333333333333,4,1,2,65,0,0
14093,-133.333333333333,4,1,2,60,0,0
14558,-133.333333333333,4,1,2,55,0,0
15023,-133.333333333333,4,1,2,50,0,0
15372,-133.333333333333,4,2,1,55,0,0
15488,-133.333333333333,4,2,1,60,0,0
16767,-133.333333333333,4,2,1,5,0,0
16884,-133.333333333333,4,2,1,60,0,0
22465,-133.333333333333,4,2,1,50,0,0
22930,-133.333333333333,4,2,1,60,0,0
28744,-133.333333333333,4,1,2,65,0,0
28977,-133.333333333333,4,1,2,60,0,0
29442,-133.333333333333,4,1,2,55,0,0
29907,-133.333333333333,4,1,2,50,0,0
30372,-100,4,2,1,70,0,0
30721,-100,4,2,1,5,0,0
30837,-100,4,2,1,70,0,0
31186,-100,4,2,1,5,0,0
31302,-100,4,2,1,70,0,0
31651,-100,4,2,1,5,0,0
31767,-100,4,2,1,70,0,0
33046,-100,4,2,1,5,0,0
33163,-100,4,2,1,70,0,0
33395,-100,4,2,1,80,0,0
33628,-100,4,2,1,70,0,0
33977,-100,4,2,1,5,0,0
34093,-100,4,2,1,70,0,0
37116,-100,4,2,1,80,0,0
37349,-100,4,2,1,70,0,0
37581,-100,4,2,1,80,0,0
37814,-100,4,2,1,70,0,0
38163,-100,4,2,1,5,0,0
38279,-100,4,2,1,70,0,0
38628,-100,4,2,1,5,0,0
38744,-100,4,2,1,70,0,0
39093,-100,4,2,1,5,0,0
39209,-100,4,2,1,70,0,0
40837,-100,4,2,1,80,0,0
41070,-100,4,2,1,70,0,0
43628,-100,4,1,2,65,0,0
43860,-100,4,1,2,65,0,0
44325,-100,4,1,2,60,0,0
44791,-100,4,1,2,55,0,0
45256,-100,4,2,2,75,0,0
45604,-100,4,2,2,5,0,0
45721,-100,4,2,2,75,0,0
46070,-100,4,2,2,5,0,0
46186,-100,4,2,2,75,0,0
46535,-100,4,2,2,5,0,0
46651,-100,4,2,2,75,0,0
47930,-100,4,2,2,5,0,0
48046,-100,4,2,2,75,0,0
48279,-100,4,2,2,70,0,0
48744,-100,4,2,2,75,0,0
53046,-100,4,2,2,75,0,0
53163,-100,4,2,2,75,0,0
53511,-100,4,2,2,75,0,0
53628,-100,4,2,2,75,0,0
53977,-100,4,2,2,75,0,0
54093,-100,4,2,2,75,0,0
54442,-100,4,2,2,75,0,0
54558,-100,4,2,2,75,0,0
55721,-100,4,2,2,70,0,0
56186,-100,4,2,2,75,0,0
57116,-100,4,1,2,15,0,0
57349,-100,4,1,2,25,0,0
57581,-100,4,1,2,25,0,0
57814,-100,4,1,2,30,0,0
58046,-100,4,1,2,35,0,0
58279,-100,4,1,2,40,0,0
58511,-100,4,1,2,45,0,0
58744,-100,4,1,2,50,0,0
58977,-100,4,1,2,55,0,0
59209,-100,4,1,2,60,0,0
59442,-100,4,1,2,55,0,0
59674,-100,4,1,2,60,0,0
59907,-100,4,1,2,65,0,0
60139,-100,4,2,2,75,0,0
61535,-66.6666666666667,4,2,2,75,0,0
62000,-100,4,2,2,75,0,0
62930,-66.6666666666667,4,2,2,75,0,0
63860,-100,4,2,2,75,0,0
65256,-66.6666666666667,4,2,2,75,0,0
65721,-100,4,2,2,75,0,0
68977,-66.6666666666667,4,2,2,75,0,0
69442,-100,4,2,2,75,0,0
70372,-66.6666666666667,4,2,2,75,0,0
71302,-100,4,1,2,10,0,0
71535,-100,4,1,2,15,0,0
71767,-100,4,1,2,20,0,0
72000,-100,4,1,2,25,0,0
72232,-100,4,1,2,30,0,0
72465,-100,4,1,2,35,0,0
72698,-100,4,1,2,40,0,0
72930,-100,4,1,2,45,0,0
73163,-100,4,1,2,50,0,0
73395,-100,4,1,2,55,0,0
73628,-100,4,1,2,60,0,0
73860,-100,4,1,2,65,0,0
74093,-100,4,1,2,70,0,0
74325,-100,4,1,2,75,0,0
74558,-100,4,1,2,80,0,0
74791,-100,4,1,2,85,0,0
75023,-200,4,2,1,70,0,0
75256,-200,4,2,1,55,0,0
75721,-200,4,2,1,70,0,0
77116,-200,4,2,1,55,0,0
77581,-200,4,2,1,70,0,0
78977,-200,4,2,1,55,0,0
79442,-200,4,2,1,70,0,0
80837,-200,4,2,1,55,0,0
81302,-335,4,2,1,70,0,0
81418,-335,4,2,3,5,0,0

[Colours]
Combo1 : 55,198,63
Combo2 : 202,0,0
Combo3 : 29,82,148
Combo4 : 226,171,5
Combo5 : 38,138,44
Combo6 : 255,47,47
Combo7 : 41,116,207
Combo8 : 251,205,68

[HitObjects]
104,80,605,5,2,0:3:0:0:
136,192,837,1,0,0:0:0:0:
232,112,1070,1,0,0:0:0:0:
104,80,1302,1,2,0:3:0:0:
104,80,2465,1,2,0:3:0:0:
232,112,2698,1,0,0:0:0:0:
360,144,2930,1,0,0:0:0:0:
488,176,3163,1,2,0:3:0:0:
488,176,4325,21,2,0:3:0:0:
360,144,4558,1,0,0:0:0:0:
384,260,4791,1,0,0:0:0:0:
488,176,5023,1,2,0:3:0:0:
488,176,6186,1,2,0:3:0:0:
384,260,6418,1,0,0:0:0:0:
360,144,6651,1,0,0:0:0:0:
256,228,6884,1,2,0:3:0:0:
232,112,7116,1,0,0:0:0:0:
256,228,7349,1,0,0:0:0:0:
232,344,7581,1,0,0:0:0:0:
184,320,7698,1,0,0:0:0:0:
148,280,7814,1,2,0:0:0:0:
140,224,7930,1,0,0:0:0:0:
152,172,8046,21,2,0:0:0:0:
256,228,8279,1,0,0:0:0:0:
260,108,8511,1,0,0:0:0:0:
152,172,8744,1,2,0:3:0:0:
260,108,8977,2,0,P|332:124|348:140,2,95,8|0|2,0:3|0:0|0:3,0:0:0:0:
256,228,10139,1,0,0:0:0:0:
260,108,10372,1,0,0:0:0:0:
152,172,10604,1,2,0:3:0:0:
372,176,10837,2,0,P|424:204|460:212,2,95,8|0|2,0:3|0:0|0:3,0:0:0:0:
452,96,12000,21,0,0:0:0:0:
256,228,12232,1,0,0:0:0:0:
432,64,12465,1,2,0:0:0:0:
504,196,12698,2,0,L|484:288,2,95,8|0|2,0:3|0:0|0:3,0:0:0:0:
432,64,13860,1,0,0:0:0:0:
408,48,13977,2,0,L|376:80,1,35.625001358986
256,48,14325,1,0,0:0:0:0:
116,192,14558,1,0,0:0:0:0:
184,192,14674,1,0,0:0:0:0:
256,48,14907,1,0,0:0:0:0:
188,48,15023,1,8,3:2:0:0:
116,192,15256,2,0,L|116:156,1,35.625001358986,0|2,0:0|0:0,0:0:0:0:
176,116,15488,22,0,P|200:140|244:152,1,71.2500027179719,2|0,0:0|0:0,0:0:0:0:
476,48,15953,2,0,P|448:80|432:136,1,71.2500027179719,2|0,0:0|0:0,0:0:0:0:
256,48,16418,2,0,L|144:48,1,106.875004076958,0|0,0:0|0:0,0:0:0:0:
288,112,16884,2,0,L|324:180,1,71.2500027179719
256,48,17349,1,0,0:0:0:0:
200,184,17581,1,0,0:0:0:0:
272,28,17814,1,0,0:0:0:0:
116,192,18046,1,0,0:0:0:0:
436,104,18279,2,0,P|412:148|336:196,2,142.500005435944,2|2|2,0:0|0:0|0:0,0:0:0:0:
232,248,19442,22,0,L|252:328,2,71.2500027179719,0|2|0,0:0|0:0|0:0,0:0:0:0:
436,104,20139,2,0,L|468:40,1,71.2500027179719,2|0,0:0|0:0,0:0:0:0:
336,196,20604,2,0,L|368:260,1,71.2500027179719,2|0,0:0|0:0,0:0:0:0:
436,104,21070,1,2,0:0:0:0:
336,196,21302,1,0,0:0:0:0:
216,224,21535,1,2,0:0:0:0:
448,132,21767,1,0,0:0:0:0:
336,196,22000,1,2,0:0:0:0:
208,192,22232,1,0,0:0:0:0:
464,160,22465,2,0,L|416:160,1,35.625001358986
336,92,22698,2,0,L|288:92,1,35.625001358986,2|2,0:0|0:0,0:0:0:0:
336,196,22930,21,2,0:0:0:0:
72,196,23163,1,0,0:0:0:0:
400,328,23395,1,2,0:0:0:0:
200,160,23628,1,0,0:0:0:0:
344,56,23860,2,0,P|352:120|336:196,2,142.500005435944,2|2|2,0:0|0:0|0:0,0:0:0:0:
216,112,25023,1,0,0:0:0:0:
336,196,25256,2,0,P|392:188|432:160,1,106.875004076958,2|0,0:0|0:0,0:0:0:0:
288,104,25721,2,0,L|216:112,1,71.2500027179719,0|0,0:0|0:0,0:0:0:0:
432,160,26186,1,0,0:0:0:0:
200,180,26418,1,0,0:0:0:0:
336,196,26651,22,0,P|360:164|360:112,1,71.2500027179719,2|0,0:0|0:0,0:0:0:0:
168,64,27116,2,0,P|192:100|216:112,1,71.2500027179719,2|0,0:0|0:0,0:0:0:0:
364,132,27581,1,2,0:0:0:0:
216,112,27814,1,0,0:0:0:0:
336,196,28046,1,2,0:0:0:0:
168,64,28279,1,0,0:0:0:0:
308,256,28511,1,2,0:0:0:0:
168,64,28744,1,0,0:0:0:0:
216,112,28860,1,0,0:0:0:0:
268,160,28977,1,0,0:0:0:0:
408,352,29209,1,0,0:0:0:0:
168,64,29442,1,2,0:2:0:0:
216,112,29558,1,0,0:0:0:0:
364,132,29791,1,0,0:0:0:0:
412,180,29907,1,10,3:2:0:0:
312,88,30139,2,0,L|348:32,1,35.625001358986
268,160,30372,22,0,P|268:216|320:284,1,142.5,2|0,0:0|0:0,0:0:0:0:
412,180,30837,2,0,L|368:44,1,142.5,10|0,0:0|0:0,0:0:0:0:
268,160,31302,2,0,L|128:136,1,142.5,2|0,0:0|0:0,0:0:0:0:
412,180,31767,2,0,L|396:276,1,95,10|0,0:0|0:0,0:0:0:0:
112,229,32232,2,0,L|128:136,1,95,2|0,0:0|0:0,0:0:0:0:
268,160,32698,2,0,P|292:88|344:52,1,142.5,10|0,0:0|0:0,0:0:0:0:
128,136,33163,2,0,P|140:216|176:256,1,95,2|0,0:0|0:0,0:0:0:0:
344,52,33628,2,0,L|464:128,1,142.5,10|0,0:0|0:0,0:0:0:0:
268,160,34093,22,0,L|212:236,1,95,2|0,0:0|0:0,0:0:0:0:
248,152,34558,1,10,0:0:0:0:
344,52,34791,1,0,0:0:0:0:
228,144,35023,2,0,L|172:220,1,95,2|0,0:0|0:0,0:0:0:0:
344,52,35488,1,10,0:0:0:0:
172,220,35721,2,0,P|120:236|68:228,2,95,0|2|0,0:0|0:0|0:0,0:0:0:0:
344,52,36418,1,10,0:0:0:0:
80,232,36651,2,0,P|84:288|112:332,1,95,0|2,0:0|0:0,0:0:0:0:
248,168,37116,1,0,0:0:0:0:
344,52,37349,1,10,0:0:0:0:
192,244,37581,1,0,0:0:0:0:
344,52,37814,22,0,P|404:120|408:168,1,142.5,2|0,0:0|0:0,0:0:0:0:
136,240,38279,2,0,P|172:192|248:168,1,142.5,10|0,0:0|0:0,0:0:0:0:
208,32,38744,2,0,L|248:168,1,142.5,2|0,0:0|0:0,0:0:0:0:
408,168,39209,2,0,P|444:192|496:196,1,95,10|0,0:0|0:0,0:0:0:0:
480,88,39674,1,2,0:0:0:0:
408,168,39907,1,0,0:0:0:0:
208,32,40139,1,10,0:0:0:0:
280,112,40372,1,0,0:0:0:0:
136,240,40604,1,2,0:0:0:0:
64,320,40837,1,0,0:0:0:0:
176,88,41070,1,10,0:0:0:0:
248,168,41303,1,0,0:0:0:0:
208,32,41535,21,2,0:0:0:0:
280,112,41767,1,0,0:0:0:0:
180,132,42000,1,8,0:0:0:0:
208,32,42232,1,0,0:0:0:0:
424,124,42465,1,0,0:0:0:0:
240,252,42698,1,0,0:0:0:0:
208,32,42930,1,8,0:0:0:0:
424,124,43163,1,0,0:0:0:0:
240,252,43395,1,2,0:0:0:0:
332,192,43628,1,0,0:0:0:0:
284,220,43744,1,0,0:0:0:0:
240,252,43860,1,0,0:0:0:0:
332,192,44093,1,0,0:0:0:0:
240,252,44325,1,0,0:0:0:0:
284,220,44442,1,0,0:0:0:0:
304,168,44558,1,0,0:0:0:0:
296,112,44674,1,0,0:0:0:0:
260,68,44791,1,0,0:0:0:0:
212,40,44907,1,0,0:0:0:0:
160,64,45023,2,0,L|136:104,1,47.5
208,156,45256,38,0,L|344:116,1,142.5,2|0,0:0|0:0,0:0:0:0:
136,104,45721,2,0,L|0:144,1,142.5,10|0,0:0|0:0,0:0:0:0:
232,176,46186,2,0,L|368:136,1,142.5,2|0,0:0|0:0,0:0:0:0:
112,84,46651,1,10,0:0:0:0:
208,156,46884,1,0,0:0:0:0:
464,64,47116,21,2,0:0:0:0:
368,136,47349,1,0,0:0:0:0:
272,208,47581,2,0,P|204:240|144:212,1,142.5,10|0,0:0|0:0,0:0:0:0:
112,84,48046,2,0,L|132:128,1,47.5
64,184,48279,1,0,3:0:0:0:
448,184,48511,1,0,3:0:0:0:
256,184,48744,1,0,0:0:0:0:
64,184,48977,22,0,L|20:268,1,95,2|0,0:0|0:0,0:0:0:0:
112,84,49442,1,10,0:0:0:0:
20,268,49674,1,0,0:0:0:0:
224,268,49907,2,0,L|328:268,1,95,2|0,0:0|0:0,0:0:0:0:
208,252,50372,1,10,0:0:0:0:
256,96,50604,2,0,P|272:140|256:184,1,95,0|2,0:0|0:0,0:0:0:0:
8,148,51070,22,0,P|40:112|84:100,1,95,0|10,0:0|0:0,0:0:0:0:
428,100,51535,2,0,P|473:112|503:148,1,95,0|2,0:0|0:0,0:0:0:0:
424,184,52000,1,0,0:0:0:0:
256,288,52232,1,10,0:0:0:0:
88,184,52465,1,0,0:0:0:0:
424,184,52698,22,0,P|432:248|388:308,1,142.5,2|0,0:0|0:0,0:0:0:0:
88,200,53163,2,0,P|80:136|124:76,1,142.5,10|0,0:0|0:0,0:0:0:0:
388,308,53628,2,0,L|296:192,1,142.5,2|0,0:0|0:0,0:0:0:0:
124,76,54093,2,0,L|182:150,1,95,10|0,0:0|0:0,0:0:0:0:
212,188,54442,1,0,0:0:0:0:
212,188,54558,22,0,L|304:160,1,95,2|0,0:0|0:0,0:0:0:0:
124,76,55023,2,0,L|216:48,1,95,2|0,0:0|0:0,0:0:0:0:
304,160,55488,1,2,0:0:0:0:
216,48,55721,1,0,3:0:0:0:
392,272,55953,1,0,3:0:0:0:
304,160,56186,1,0,0:0:0:0:
392,272,56418,22,0,P|396:320|368:368,1,95,2|0,0:0|0:0,0:0:0:0:
376,252,56884,1,10,0:0:0:0:
216,48,57116,2,0,L|168:48,1,47.5,0|0,0:0|0:0,0:0:0:0:
84,100,57349,1,0,0:0:0:0:
80,136,57465,1,0,0:0:0:0:
88,172,57581,2,0,L|104:216,1,47.5
208,160,57814,1,0,0:0:0:0:
240,148,57930,1,0,0:0:0:0:
276,160,58046,2,0,L|324:164,1,47.5
168,44,58279,22,0,L|216:48,1,47.5,0|0,0:0|0:0,0:0:0:0:
352,48,58511,1,0,0:0:0:0:
352,48,58628,1,0,0:0:0:0:
352,48,58744,2,0,L|348:96,1,47.5
248,208,58977,1,0,0:0:0:0:
248,208,59093,1,0,0:0:0:0:
248,208,59209,2,0,L|288:240,1,47.5
172,328,59442,2,0,L|216:312,1,47.5
320,336,59674,1,0,0:0:0:0:
336,328,59752,1,0,0:0:0:0:
352,320,59829,1,0,0:0:0:0:
368,312,59907,1,0,0:0:0:0:
384,304,59984,1,0,0:0:0:0:
400,296,60062,1,0,0:0:0:0:
416,288,60139,22,0,L|452:248,1,47.5,2|0,0:0|0:0,0:0:0:0:
360,140,60372,1,0,0:0:0:0:
360,140,60488,2,0,L|320:104,1,47.5,0|10,0:0|0:0,0:0:0:0:
248,208,60721,2,0,L|208:172,1,47.5
192,60,60953,1,0,0:0:0:0:
192,60,61070,2,0,L|240:52,1,47.5,2|0,0:0|0:0,0:0:0:0:
212,176,61302,2,0,L|164:184,1,47.5,0|0,0:0|0:0,0:0:0:0:
60,108,61535,6,0,P|24:172|40:236,1,142.5,10|0,0:0|0:0,0:0:0:0:
240,52,62000,6,0,L|272:88,1,47.5,2|0,0:0|0:0,0:0:0:0:
60,108,62232,1,0,0:0:0:0:
60,108,62349,2,0,L|104:88,1,47.5,0|10,0:0|0:0,0:0:0:0:
40,236,62581,2,0,L|84:216,1,47.5
212,176,62814,1,0,0:0:0:0:
212,176,62930,6,0,P|256:92|240:52,1,142.500005435944,2|0,0:0|0:0,0:0:0:0:
40,236,63395,2,0,P|80:312|136:340,1,142.500005435944,10|0,0:0|0:0,0:0:0:0:
240,52,63860,6,0,L|288:60,1,47.5,2|0,0:0|0:0,0:0:0:0:
212,176,64093,1,0,0:0:0:0:
212,176,64209,2,0,L|168:200,1,47.5,0|10,0:0|0:0,0:0:0:0:
352,176,64442,2,0,L|376:132,1,47.5
288,60,64674,1,0,0:0:0:0:
288,60,64791,2,0,L|264:104,1,47.5,2|0,0:0|0:0,0:0:0:0:
424,40,65023,2,0,L|472:52,1,47.5
240,52,65256,6,0,L|96:68,1,142.500005435944
272,332,65721,6,0,L|369:320,1,95,2|0,0:0|0:0,0:0:0:0:
156,156,66186,2,0,P|144:204|156:248,1,95,10|0,0:0|0:0,0:0:0:0:
272,332,66535,1,0,0:0:0:0:
280,348,66651,2,0,L|316:256,1,95,2|0,0:0|0:0,0:0:0:0:
200,84,67116,2,0,P|152:72|108:84,1,95,10|0,0:0|0:0,0:0:0:0:
156,248,67581,22,0,L|204:256,1,47.5,2|0,0:0|0:0,0:0:0:0:
200,84,67814,1,0,0:0:0:0:
200,84,67930,2,0,L|248:92,1,47.5,0|10,0:0|0:0,0:0:0:0:
396,212,68163,2,0,L|408:164,1,47.5
280,56,68395,1,0,0:0:0:0:
280,56,68511,2,0,L|320:32,1,47.5,2|0,0:0|0:0,0:0:0:0:
408,168,68744,2,0,L|448:144,1,47.5
320,32,68977,6,0,L|280:168,1,142.500005435944,10|0,0:0|0:0,0:0:0:0:
56,40,69442,6,0,L|104:36,1,47.5,2|0,0:0|0:0,0:0:0:0:
100,256,69674,1,0,0:0:0:0:
100,256,69791,2,0,L|116:308,1,47.5,0|10,0:0|0:0,0:0:0:0:
280,168,70023,2,0,L|324:184,1,47.5
168,72,70256,1,0,0:0:0:0:
168,72,70372,6,0,P|248:68|296:32,1,142.500005435944,2|0,0:0|0:0,0:0:0:0:
344,312,70837,2,0,P|264:316|216:352,1,142.500005435944,10|0,0:0|0:0,0:0:0:0:
132,168,71302,5,2,0:2:0:0:
144,148,71418,1,0,0:0:0:0:
160,132,71535,1,0,0:0:0:0:
180,120,71651,1,0,0:0:0:0:
200,112,71767,1,10,0:2:0:0:
220,108,71884,1,0,0:0:0:0:
244,104,72000,1,0,0:0:0:0:
268,108,72116,1,0,0:0:0:0:
384,48,72232,1,2,0:2:0:0:
396,76,72349,1,0,0:0:0:0:
392,112,72465,1,0,0:0:0:0:
380,148,72581,1,0,0:0:0:0:
360,176,72698,1,10,0:2:0:0:
336,204,72814,1,0,0:0:0:0:
304,220,72930,1,0,0:0:0:0:
272,232,73046,1,0,0:0:0:0:
164,240,73163,21,2,0:2:0:0:
180,204,73279,1,0,0:0:0:0:
196,164,73395,1,0,0:0:0:0:
212,128,73511,1,0,0:0:0:0:
152,60,73628,1,10,0:2:0:0:
136,96,73744,1,0,0:0:0:0:
120,136,73860,1,0,0:0:0:0:
104,172,73976,1,0,0:0:0:0:
80,264,74093,1,2,0:2:0:0:
92,292,74209,1,0,0:0:0:0:
164,240,74325,1,0,0:0:0:0:
196,252,74442,1,0,0:0:0:0:
284,212,74558,1,10,0:2:0:0:
316,196,74674,1,0,0:0:0:0:
288,104,74791,1,0,0:0:0:0:
320,88,74907,1,0,0:0:0:0:
288,184,75023,5,2,0:3:0:0:
196,252,75256,1,0,0:0:0:0:
176,148,75488,1,0,0:0:0:0:
288,184,75721,1,2,0:3:0:0:
288,184,76884,1,2,0:3:0:0:
176,148,77116,1,0,0:0:0:0:
64,112,77349,1,0,0:0:0:0:
400,220,77581,1,2,0:3:0:0:
400,220,78744,21,2,0:3:0:0:
380,104,78977,1,0,0:0:0:0:
284,184,79209,1,0,0:0:0:0:
400,220,79442,1,2,0:3:0:0:
400,220,80604,1,2,0:3:0:0:
256,120,80837,1,0,0:0:0:0:
112,220,81070,1,0,0:0:0:0:
60,304,81302,2,0,B|96:328|160:304|160:304|208:256|208:192|208:192|184:172|164:148|156:112|160:72|192:8|256:-8|320:8|352:72|356:112|348:144|328:172|304:192|304:192|304:256|352:304|352:304|416:328|444:304,1,879.10447761194,2|0,0:3|0:0,0:0:0:0:
