osu file format v13

[General]
AudioFilename: Masayume Chasing (15).mp3
AudioLeadIn: 0
PreviewTime: 44325
Countdown: 0
SampleSet: Soft
StackLeniency: 0.7
Mode: 0
LetterboxInBreaks: 1
WidescreenStoryboard: 1

[Editor]
Bookmarks: 81286
DistanceSpacing: 1.3
BeatDivisor: 4
GridSize: 4
TimelineZoom: 3.399999

[Metadata]
Title:MASAYUME CHASING
TitleUnicode:MASAYUME CHASING
Artist:BoA
ArtistUnicode:BoA
Creator:Lasoki
Version:Insane
Source:Fairy Tail
Tags:Opening 15, -APXH, MagoichiSaica
BeatmapID:401654
BeatmapSetID:163400

[Difficulty]
HPDrainRate:7
CircleSize:4
OverallDifficulty:7
ApproachRate:8
SliderMultiplier:1.6
SliderTickRate:1

[Events]
//Background and Video events
Video,0,"Masayume Chasing.avi"
0,0,"Lucy_Rescue_Team.png",0,0
//Break Periods
//Storyboard Layer 0 (Background)
//Storyboard Layer 1 (Fail)
//Storyboard Layer 2 (Pass)
//Storyboard Layer 3 (Foreground)
//Storyboard Sound Samples
//Background Colour Transformations
3,100,163,162,255

[TimingPoints]
605,465.116279069767,4,2,1,60,1,0
7581,-100,4,2,1,70,0,0
13860,-100,4,1,2,75,0,0
15488,-100,4,2,1,80,0,0
28744,-100,4,1,2,75,0,0
30372,-100,4,2,1,80,0,0
43628,-100,4,1,2,80,0,0
45256,-66.6666666666667,4,2,2,100,0,1
58511,-66.6666666666667,4,1,2,100,0,1
60139,-100,4,2,1,90,0,0
73395,-100,4,1,2,90,0,0
75023,-100,4,2,1,90,0,0
76651,-100,4,2,1,70,0,0
78744,-100,4,2,1,60,0,0
79442,-133.333333333333,4,2,1,60,0,0
79674,-133.333333333333,4,2,1,50,0,0
79907,-133.333333333333,4,2,1,40,0,0
80139,-133.333333333333,4,2,1,30,0,0
80372,-133.333333333333,4,2,1,20,0,0
80604,-100,4,2,1,60,0,0
81418,-100,4,2,3,5,0,0

[Colours]
Combo1 : 55,198,63
Combo2 : 202,0,0
Combo3 : 29,82,148
Combo4 : 226,171,5
Combo5 : 38,138,44
Combo6 : 255,47,47
Combo7 : 41,116,207
Combo8 : 251,205,68

[HitObjects]
88,40,605,6,0,L|176:40,1,80,2|0,0:3|0:0,0:0:0:0:
168,40,1070,1,0,0:0:0:0:
188,96,1186,1,0,0:0:0:0:
228,52,1302,1,2,0:3:0:0:
188,96,2465,6,0,L|271:123,1,80,2|0,0:3|0:0,0:0:0:0:
264,120,2930,1,0,0:0:0:0:
268,180,3046,1,0,0:0:0:0:
320,148,3162,1,2,0:3:0:0:
268,180,4326,6,0,L|183:205,1,80,2|0,0:3|0:0,0:0:0:0:
191,202,4791,1,0,0:0:0:0:
172,260,4906,1,0,0:0:0:0:
132,216,5022,1,2,0:3:0:0:
172,260,6186,6,0,L|112:320,1,80,2|0,0:3|0:0,0:0:0:0:
115,316,6651,1,0,0:0:0:0:
124,376,6767,1,0,0:0:0:0:
68,352,6883,1,2,0:3:0:0:
404,220,7581,70,0,L|348:180,1,40
320,164,7814,1,2,0:0:0:0:
220,96,8046,1,2,0:0:0:0:
228,216,8279,1,0,0:0:0:0:
168,216,8395,1,0,0:0:0:0:
124,176,8511,1,0,0:0:0:0:
124,176,8744,2,0,L|208:104,1,80,0|8,0:0|0:3,0:0:0:0:
16,24,9907,6,0,L|64:64,1,40
96,84,10139,1,0,0:0:0:0:
80,204,10372,1,0,0:0:0:0:
184,264,10604,2,0,L|264:216,1,80,0|8,0:0|0:3,0:0:0:0:
416,56,11767,6,0,L|416:112,1,40
416,156,12000,1,0,0:0:0:0:
324,188,12232,1,0,0:0:0:0:
324,188,12465,2,0,L|324:88,1,80,0|8,0:0|0:3,0:0:0:0:
184,28,13628,1,0,0:0:0:0:
272,108,13860,5,0,0:0:0:0:
312,156,13977,1,0,0:0:0:0:
252,164,14093,1,0,0:0:0:0:
132,164,14325,1,0,0:0:0:0:
272,248,14558,1,0,0:0:0:0:
252,164,14674,1,0,0:0:0:0:
368,176,14907,1,0,0:0:0:0:
312,156,15023,1,0,0:0:0:0:
252,164,15139,1,0,0:0:0:0:
192,168,15256,70,0,L|120:180,2,40,0|0|2,0:0|0:0|0:0,0:0:0:0:
140,60,15721,1,0,0:0:0:0:
72,160,15953,2,0,P|80:212|104:232,1,80,2|0,0:0|0:0,0:0:0:0:
192,304,16418,1,2,0:0:0:0:
312,96,16884,1,2,0:0:0:0:
376,328,17349,1,2,0:0:0:0:
324,220,17581,1,0,0:0:0:0:
216,272,17814,2,0,P|192:232|208:192,2,80,2|0|2,0:0|0:0|0:0,0:0:0:0:
356,76,18744,1,2,0:0:0:0:
268,160,18977,5,0,0:0:0:0:
156,124,19209,1,2,0:0:0:0:
116,236,19442,2,0,P|196:236|208:228,1,80,0|2,0:0|0:0,0:0:0:0:
296,176,19907,1,0,0:0:0:0:
392,100,20139,1,2,0:0:0:0:
172,192,20604,1,2,0:0:0:0:
256,192,20837,12,0,22232,0:0:0:0:
256,192,22465,6,0,L|204:156,2,40,2|0|0,0:0|0:0|0:0,0:0:0:0:
376,188,22930,1,2,0:0:0:0:
320,292,23163,1,0,0:0:0:0:
228,368,23395,2,0,P|172:320|212:232,1,160,2|2,0:0|0:0,0:0:0:0:
164,128,24093,1,0,0:0:0:0:
280,104,24325,6,0,P|280:160|264:200,1,80,2|0,0:0|0:0,0:0:0:0:
392,160,24791,1,2,0:0:0:0:
392,280,25023,1,0,0:0:0:0:
280,328,25256,2,0,P|264:284|280:232,1,80,2|0,0:0|0:0,0:0:0:0:
152,288,25721,1,2,0:0:0:0:
256,72,26186,69,2,0:0:0:0:
464,192,26651,1,2,0:0:0:0:
256,312,27116,2,0,B|332:252,1,80,2|0,0:0|0:0,0:0:0:0:
416,192,27581,1,2,0:0:0:0:
204,84,28046,1,2,0:0:0:0:
204,84,28511,1,2,0:0:0:0:
108,156,28744,5,0,0:0:0:0:
128,212,28860,1,0,0:0:0:0:
184,204,28977,1,0,0:0:0:0:
256,300,29209,1,0,0:0:0:0:
308,192,29442,1,0,0:0:0:0:
356,156,29558,1,0,0:0:0:0:
256,88,29791,1,0,0:0:0:0:
228,140,29907,1,0,0:0:0:0:
108,156,30139,2,0,L|108:220,1,40
108,240,30372,6,0,B|100:284|100:284|148:320,1,80,2|0,0:0|0:0,0:0:0:0:
248,308,30837,1,8,0:0:0:0:
340,232,31070,1,0,0:0:0:0:
356,112,31302,1,2,0:0:0:0:
132,192,31767,1,8,0:0:0:0:
12,360,32232,2,0,P|48:384|84:384,1,80,2|0,0:0|0:0,0:0:0:0:
80,280,32698,1,8,0:0:0:0:
132,192,32930,2,0,P|172:164|216:160,1,80,0|2,0:0|0:0,0:0:0:0:
304,148,33395,1,0,0:0:0:0:
236,68,33628,1,8,0:0:0:0:
324,12,33860,1,0,0:0:0:0:
324,12,34093,6,0,L|368:32,1,40,2|0,0:0|0:0,0:0:0:0:
408,48,34325,1,0,0:0:0:0:
384,148,34558,2,0,P|432:164|464:196,1,80,8|0,0:0|0:0,0:0:0:0:
376,252,35023,2,0,L|340:316,1,40,2|0,0:0|0:0,0:0:0:0:
332,332,35256,1,0,0:0:0:0:
228,340,35488,2,0,P|176:344|148:316,1,80,8|0,0:0|0:0,0:0:0:0:
208,240,35953,69,2,0:0:0:0:
268,152,36186,2,0,L|348:96,1,80,0|8,0:0|0:0,0:0:0:0:
256,16,36651,1,0,0:0:0:0:
232,140,36884,2,0,L|144:88,1,80,2|0,0:0|0:0,0:0:0:0:
56,152,37349,1,8,0:0:0:0:
44,92,37465,1,0,0:0:0:0:
68,36,37581,1,0,0:0:0:0:
184,64,37814,2,0,P|184:120|160:160,1,80,2|0,0:0|0:0,0:0:0:0:
292,108,38279,1,8,0:0:0:0:
404,152,38511,6,0,L|444:188,1,40
484,212,38744,2,0,B|500:316|404:364,1,160,2|8,0:0|0:0,0:0:0:0:
224,312,39674,2,0,L|128:288,1,80
220,216,40139,2,0,L|316:200,1,80
260,108,40604,1,0,0:0:0:0:
156,100,40837,1,0,0:0:0:0:
216,16,41070,1,0,0:0:0:0:
216,16,41535,1,0,0:0:0:0:
100,192,42000,5,8,0:0:0:0:
112,72,42232,2,0,B|152:72|152:72|184:104,1,80,0|0,0:0|0:0,0:0:0:0:
260,192,42698,1,0,0:0:0:0:
256,312,42930,2,0,B|248:352|248:352|288:368,1,80,8|0,0:0|0:0,0:0:0:0:
376,292,43395,5,2,0:0:0:0:
260,252,43628,1,0,0:0:0:0:
312,224,43744,1,0,0:0:0:0:
260,192,43860,1,0,0:0:0:0:
140,192,44093,1,0,0:0:0:0:
40,256,44325,1,0,0:0:0:0:
16,200,44442,1,0,0:0:0:0:
16,140,44558,1,0,0:0:0:0:
40,84,44674,1,0,0:0:0:0:
84,44,44791,1,0,0:0:0:0:
140,28,44907,1,0,0:0:0:0:
204,24,45023,1,0,0:0:0:0:
260,48,45139,1,0,0:0:0:0:
352,40,45256,5,2,0:0:0:0:
260,192,45488,1,0,2:0:0:0:
440,192,45721,1,8,0:0:0:0:
296,300,45953,1,0,0:0:0:0:
352,128,46186,1,2,0:0:0:0:
408,300,46418,1,0,0:0:0:0:
352,128,46651,1,8,0:0:0:0:
352,308,46884,2,0,P|280:348|240:340,2,120.000004577637,0|2|0,0:0|0:0|0:0,0:0:0:0:
260,152,47581,2,0,P|224:120|128:120,2,120.000004577637,8|0|2,0:0|0:0|0:0,0:0:0:0:
148,292,48279,2,0,L|120:372,2,60.0000022888184,8|0|8,0:0|0:0|0:0,0:0:0:0:
152,112,48744,2,0,L|88:128,2,60.0000022888184,0|0|2,0:0|0:0|0:0,0:0:0:0:
292,224,49209,6,0,L|200:168,2,60.0000022888184,0|0|8,0:0|0:0|0:0,0:0:0:0:
280,296,49558,1,0,0:0:0:0:
344,332,49674,1,0,0:0:0:0:
396,280,49791,1,0,0:0:0:0:
356,216,49907,2,0,P|380:160|380:152,2,60.0000022888184,2|0|0,0:0|0:0|0:0,0:0:0:0:
396,40,50372,1,8,0:0:0:0:
256,152,50604,1,0,0:0:0:0:
332,316,50837,2,0,P|268:340|180:316,1,120.000004577637,2|0,0:0|0:0,0:0:0:0:
60,244,51302,2,0,P|20:172|36:92,1,120.000004577637,8|0,0:0|0:0,0:0:0:0:
200,140,51767,1,2,0:0:0:0:
148,228,52000,5,0,0:0:0:0:
196,52,52232,1,8,0:0:0:0:
372,92,52465,1,0,0:0:0:0:
324,268,52698,6,0,P|284:324|308:372,1,120.000004577637,2|0,0:0|0:0,0:0:0:0:
480,332,53163,1,8,0:0:0:0:
300,312,53395,1,0,0:0:0:0:
408,168,53628,70,0,P|360:136|280:184,1,120.000004577637,2|0,0:0|0:0,0:0:0:0:
376,316,54093,1,8,0:0:0:0:
304,152,54325,2,0,P|240:184|224:240,1,120.000004577637,0|2,0:0|0:0,0:0:0:0:
224,226,54791,2,0,L|352:226,1,120.000004577637,0|8,0:0|0:0,0:0:0:0:
288,56,55256,1,0,0:0:0:0:
408,188,55488,2,0,L|300:72,1,120.000004577637,2|8,0:0|0:0,0:0:0:0:
208,236,55953,1,8,0:0:0:0:
232,56,56186,6,0,L|168:56,1,60.0000022888184,0|0,0:0|0:0,0:0:0:0:
168,144,56418,2,0,L|72:144,1,60.0000022888184,2|0,0:0|0:0,0:0:0:0:
108,52,56651,2,0,L|36:52,1,60.0000022888184,0|0,0:0|0:0,0:0:0:0:
44,144,56884,1,8,0:0:0:0:
224,144,57116,1,0,0:0:0:0:
72,244,57349,2,0,L|192:244,1,120.000004577637,2|0,0:0|0:0,0:0:0:0:
192,244,57698,1,0,0:0:0:0:
192,244,57814,1,8,0:0:0:0:
368,216,58046,5,0,0:0:0:0:
420,144,58163,1,0,0:0:0:0:
332,128,58279,1,2,0:0:0:0:
332,128,58511,2,0,B|296:124|296:124|276:164,2,60.0000022888184,0|0|8,0:0|0:0|0:2,0:0:0:0:
484,28,58977,2,0,B|456:32|456:32|440:68|440:68,2,60.0000022888184,0|0|2,0:0|0:0|0:2,0:0:0:0:
484,28,59325,1,0,0:0:0:0:
448,112,59442,1,0,0:0:0:0:
500,184,59558,1,0,0:0:0:0:
492,272,59674,2,0,B|420:272|420:272|420:208,1,120.000004577637,8|0,0:2|0:0,0:0:0:0:
300,220,60139,70,0,L|184:220,1,80,2|0,0:0|0:0,0:0:0:0:
212,160,60488,1,0,0:0:0:0:
208,100,60604,1,8,0:0:0:0:
324,76,60837,1,0,0:0:0:0:
428,136,61070,1,2,0:0:0:0:
428,136,61302,2,0,L|444:216,1,80,0|8,0:0|0:0,0:0:0:0:
384,224,61651,1,0,0:0:0:0:
324,236,61767,1,2,0:0:0:0:
240,148,62000,69,2,0:0:0:0:
332,68,62232,1,0,0:0:0:0:
428,136,62465,2,0,L|408:220,1,80,8|0,0:0|0:0,0:0:0:0:
292,196,62930,1,0,0:0:0:0:
328,244,63046,1,0,0:0:0:0:
368,288,63163,1,0,0:0:0:0:
276,212,63395,1,8,0:0:0:0:
232,252,63511,1,0,0:0:0:0:
188,292,63628,1,0,0:0:0:0:
112,200,63860,5,2,0:0:0:0:
160,164,63977,1,0,0:0:0:0:
208,128,64093,1,0,0:0:0:0:
328,108,64325,1,8,0:0:0:0:
436,156,64558,2,0,B|420:196|420:196|364:212,1,80,0|2,0:0|0:0,0:0:0:0:
324,204,64907,1,0,0:0:0:0:
264,200,65023,1,0,0:0:0:0:
300,84,65256,2,2,L|220:84,1,80,2|0,0:0|0:0,0:0:0:0:
100,64,65721,6,0,L|156:64,1,40,2|0,0:0|0:0,0:0:0:0:
172,16,65953,2,0,L|212:48,1,40,0|0,0:0|0:0,0:0:0:0:
260,20,66186,2,0,L|288:64,1,40,8|0,0:0|0:0,0:0:0:0:
340,52,66418,2,0,L|348:108,1,40
404,108,66651,2,0,L|388:172,1,40,2|0,0:0|0:0,0:0:0:0:
432,196,66884,2,0,L|392:236,1,40
368,176,67116,2,0,L|284:156,1,80,8|2,0:0|0:0,0:0:0:0:
172,140,67581,6,0,B|200:172|200:172|232:140,1,80,2|0,0:0|0:0,0:0:0:0:
226,145,67930,1,0,0:0:0:0:
226,145,68046,1,8,0:0:0:0:
344,116,68279,1,0,0:0:0:0:
344,116,68511,2,0,B|368:152|368:152|400:116,1,80,2|0,0:0|0:0,0:0:0:0:
392,124,68860,1,0,0:0:0:0:
392,124,68977,1,8,0:0:0:0:
368,240,69209,1,2,0:0:0:0:
316,348,69442,69,2,0:0:0:0:
268,240,69674,1,0,0:0:0:0:
188,328,69907,1,8,0:0:0:0:
212,212,70139,1,0,0:0:0:0:
160,240,70256,1,0,0:0:0:0:
160,180,70372,1,2,0:0:0:0:
92,80,70604,2,0,L|156:56,1,40,0|0,0:0|0:0,0:0:0:0:
188,52,70837,1,8,0:0:0:0:
248,56,70953,2,0,L|288:76,1,40,0|0,0:0|0:0,0:0:0:0:
404,60,71302,5,2,0:0:0:0:
436,176,71535,1,0,0:0:0:0:
432,296,71767,2,0,P|384:292|360:248,1,80,8|0,0:0|0:0,0:0:0:0:
344,212,72116,1,0,0:0:0:0:
300,172,72232,2,0,P|336:140|372:172,1,80,2|0,0:0|0:0,0:0:0:0:
256,212,72698,1,8,0:0:0:0:
256,332,72930,1,0,0:0:0:0:
376,316,73163,6,0,L|376:252,1,40,2|0,0:0|0:0,0:0:0:0:
320,252,73395,2,0,L|304:196,1,40
252,232,73628,2,0,L|204:208,1,40,8|0,0:2|0:0,0:0:0:0:
180,260,73860,2,0,L|124:260,1,40
124,200,74093,2,0,L|92:160,1,40,2|0,0:2|0:0,0:0:0:0:
148,136,74325,2,0,L|188:88,1,40
212,56,74558,5,8,0:2:0:0:
212,56,74791,1,0,0:0:0:0:
256,192,75023,12,0,76418,0:0:0:0:
108,28,76884,69,2,0:3:0:0:
56,152,77116,1,0,0:0:0:0:
188,132,77349,1,0,0:0:0:0:
272,32,77581,2,0,P|320:48|332:88,1,80,2|0,0:3|0:0,0:0:0:0:
272,32,78744,6,0,P|288:80|328:92,1,80,2|0,0:3|0:0,0:0:0:0:
348,192,79209,1,0,0:0:0:0:
276,220,79442,2,0,B|276:156|276:156|232:176|232:176|228:120|160:152|160:152|144:100|144:100,1,240.000009155274,2|0,0:3|0:0,0:0:0:0:
150,121,80604,5,2,0:3:0:0:
100,212,80837,2,0,L|168:272,1,80,0|0,0:0|0:0,0:0:0:0:
244,328,81302,1,2,0:3:0:0:
256,192,81535,12,0,84325,2:2:0:0:
