osu file format v9

[General]
AudioFilename: Every Heart.mp3
AudioLeadIn: 0
PreviewTime: 44947
Countdown: 0
SampleSet: Soft
StackLeniency: 1
Mode: 0
LetterboxInBreaks: 1

[Editor]
Bookmarks: 30796,44740,83613,111923,125866,153331,196852,210373
DistanceSpacing: 1
BeatDivisor: 2
GridSize: 4

[Metadata]
Title:Every Heart
Artist:BoA
Creator:Evil_Twilight
Version:Twilight Heart
Source:Inuyasha
Tags:Tomoka Rin

[Difficulty]
HPDrainRate:7
CircleSize:5
OverallDifficulty:7
ApproachRate:7
SliderMultiplier:1.6
SliderTickRate:1

[Events]
//Background and Video events
0,0,"bgrmk.jpg"
//Break Periods
2,72189,82920
2,183738,196160
//Storyboard Layer 0 (Background)
//Storyboard Layer 1 (Fail)
//Storyboard Layer 2 (Pass)
//Storyboard Layer 3 (Foreground)
//Storyboard Sound Samples
//Background Colour Transformations
3,100,128,128,192

[TimingPoints]
4384,422.535211267606,4,2,0,40,1,0
44947,-100,4,1,0,30,0,1
45053,-100,4,1,0,30,0,0
56778,-100,4,2,0,40,0,0
58468,-100,4,1,0,30,0,0
63538,-100,4,2,0,40,0,0
65229,-100,4,1,0,30,0,0
70299,-100,4,2,0,40,0,0
97341,-200,4,2,0,10,0,0
99031,-100,4,2,0,40,0,0
126074,-100,4,1,0,30,0,1
126179,-100,4,1,0,30,0,0
128186,-100,4,2,0,40,0,0
129454,-100,4,1,0,30,0,0
131989,-100,4,2,0,40,0,0
132834,-100,4,1,0,30,0,0
138961,-100,4,2,0,40,0,0
139595,-100,4,1,0,30,0,0
145088,-100,4,2,0,40,0,0
146355,-100,4,1,0,30,0,0
151426,-100,4,2,0,40,0,0
154806,-200,4,2,0,40,0,0
160299,-100,4,2,0,40,0,0
163257,-200,4,2,0,40,0,0
164313,-100,4,2,0,40,0,0
197060,-100,4,1,0,30,0,1
197165,-100,4,1,0,30,0,0
202764,-100,4,2,0,40,0,0
203820,-100,4,1,0,30,0,0
205933,-100,4,2,0,40,0,0
207200,-100,4,1,0,30,0,0
209947,-100,4,2,0,40,0,0
210581,-100,4,1,0,30,0,1
216285,-100,4,2,0,40,0,1
217341,-100,4,1,0,30,0,1
222412,-100,4,2,0,40,0,1
224102,-100,4,1,0,30,0,0
229806,-100,4,2,0,40,0,0
230862,-100,4,1,0,30,0,0
233820,-100,4,1,0,20,0,0
234031,-100,4,1,0,10,0,0
234243,-200,4,2,0,40,0,0
236989,-100,4,2,0,40,0,0

[Colours]
Combo1 : 128,128,192
Combo2 : 0,140,140
Combo3 : 0,128,192

[HitObjects]
60,84,4384,6,0,B|128:40|228:68,1,160,2|0
452,160,5229,2,0,B|384:116|284:144,1,160,2|0
276,216,5862,1,0
356,216,6074,2,0,B|400:148|372:48,1,160,2|0
220,28,6919,6,0,B|180:52|172:104,1,80,2|0
96,80,7341,2,0,B|96:127|137:160,1,80
208,152,7764,2,0,B|116:192|104:284,1,160,2|0
28,252,8398,2,0,B|52:344,1,80,0|2
28,252,8820,2,0,B|72:176|20:88,1,160
92,56,9454,2,0,B|140:56|180:40,2,80,2|0|0
92,56,10299,1,4
92,56,10510,1,0
452,300,11144,6,0,B|384:344|284:316,1,160,2|0
60,224,11989,2,0,B|128:268|228:240,1,160,2|0
276,192,12623,1,0
276,192,12834,2,0,B|208:148|108:176,1,160,2|0
244,68,13679,6,0,B|288:68|332:44,1,80,2|0
396,80,14102,2,0,B|396:124|372:168,1,80
300,144,14524,2,0,B|256:228|332:308,1,160,2|0
392,320,15158,1,2
318,292,15369,1,0
252,336,15581,2,0,B|176:312|88:328,1,160
28,228,16214,2,0,B|104:252|192:236,2,160,2|0|4
300,56,17905,6,0,B|392:56|456:132,1,160,2|0
442,117,18538,1,0
460,196,18750,1,2
388,164,18961,1,0
388,164,19172,2,0,B|368:204|372:252,1,80
440,284,19595,2,0,B|356:264|280:304,1,160,2|0
128,332,20440,6,0,B|88:264,1,80,2|0
120,192,20862,1,0
180,136,21074,2,0,B|220:204,1,80,0|2
372,156,21707,1,0
372,156,21919,1,0
256,48,22341,2,0,B|172:28|96:56,1,160
24,84,22975,2,0,B|24:124|8:176,2,80,2|0|0
96,124,23609,1,0
96,124,23820,1,4
76,300,24665,6,0,B|148:344|244:316,1,160,2|0
304,352,25299,2,0,B|344:344|384:352,2,80,0|2|0
232,320,25933,2,0,B|320:284|328:196,1,160,0|2
396,240,26567,1,0
396,240,26989,1,0
452,184,27200,5,2
444,104,27412,1,0
396,40,27623,2,0,B|312:52,1,80
332,128,28045,2,0,B|260:144|168:116,1,160,2|0
136,48,28679,1,0
64,80,28891,1,2
68,156,29102,1,0
144,180,29313,2,0,B|152:216|132:264,1,80
212,236,29736,2,0,B|296:212|376:268,1,160,2|0
365,260,30369,1,0
365,260,30581,1,6
228,344,31003,5,0
300,312,31214,1,0
228,344,31426,2,0,B|140:360|72:304,1,160,8|2
56,232,32060,2,0,B|144:216|212:272,1,160,0|0
444,312,33116,2,0,B|460:224|404:156,1,160,8|0
332,140,33750,2,0,B|316:228|372:296,1,160,0|0
368,292,34384,2,0,B|368:344|324:372,1,80,2|0
284,304,34806,6,0,B|212:268|116:296,1,160,8|2
60,252,35440,1,0
148,120,35862,2,0,B|156:76|136:36,2,80,0|2|0
220,152,36496,1,8
344,52,36919,1,2
392,116,37130,1,0
368,192,37341,1,4
472,312,37764,6,0,B|388:340,1,80,2|0
364,264,38186,2,0,B|280:248|212:304,1,160,8|2
128,220,38820,2,0,B|212:236|280:180,1,160,0|0
277,181,39454,1,2
348,36,39876,2,0,B|264:20|196:76,1,160,8|2
140,20,40510,2,0,B|84:84|98:171,1,160,0|0
36,220,41144,1,2
36,220,41355,1,0
256,192,41567,12,4,44524
76,112,44947,6,0,B|156:144|244:112,1,160,12|0
272,48,45581,1,0
340,88,45792,2,0,B|432:112|464:192,1,160,0|0
340,292,46637,2,0,B|288:348|188:348,1,160,8|0
124,308,47271,2,0,B|176:252|276:252,1,160,0|0
340,292,47905,2,0,B|352:212,1,80
420,116,48327,6,0,B|460:132|512:128,2,80,8|0|0
440,40,48961,2,0,B|368:20|276:44,1,160,0|0
220,92,49595,2,0,B|220:136|204:180,1,80,0|0
140,216,50017,2,0,B|216:184|308:216,1,160,8|0
376,336,50862,1,0
296,304,51074,1,0
216,312,51285,2,0,B|192:352|140:352,1,80,8|0
84,328,51707,6,0,B|68:284|76:240,1,80,12|0
152,276,52130,1,0
140,196,52341,1,0
216,224,52553,2,0,B|236:140|184:60,1,160,8|0
296,160,53398,2,0,B|276:244|328:324,1,160,8|0
376,256,54031,2,0,B|292:236|212:288,1,160,0|0
184,352,54665,2,0,B|144:336|120:304,1,80
44,212,55088,6,0,B|60:132,2,80,12|0|0
120,240,55722,2,0,B|200:240|268:172,1,160,0|0
340,204,56355,1,0
340,204,56567,1,0
340,204,56778,5,4
452,160,57095,1,4
360,84,57412,1,4
204,60,57834,6,2,B|220:12,4,40
92,108,58468,6,0,B|20:156|8:244,1,160,12|0
68,344,59102,2,0,B|140:296|152:208,1,160,0|0
220,172,59736,1,0
256,256,59947,1,0
300,192,60158,2,0,B|311:109|383:61,1,160,8|0
442,166,60792,2,0,B|430:248|358:296,1,160,0|0
284,332,61426,1,0
256,256,61637,1,0
340,168,61848,6,0,B|336:104|424:104|412:32,1,160,8|0
332,24,62482,1,0
276,80,62693,2,0,B|244:108|232:160,1,80,8|0
116,168,63116,2,0,B|148:140|160:88,1,80,0|0
92,56,63538,5,4
24,156,63855,1,4
68,268,64172,1,4
180,228,64384,6,2,B|232:192,2,40
204,304,64806,1,2
276,336,65017,1,4
388,296,65229,6,0,B|444:224|412:132,1,160,12|0
488,112,65862,2,0,B|432:52,1,80,0|8
364,92,66285,2,0,B|272:96|216:28,1,160
144,52,66919,5,8
164,128,67130,1,0
320,160,67553,1,0
340,236,67764,1,0
272,280,67975,2,0,B|264:324|284:372,2,80,0|8|0
204,240,68609,5,12
56,304,69031,1,0
56,304,69243,1,8
88,148,69665,1,0
136,84,69876,1,0
212,56,70088,1,0
240,56,70193,1,0
268,64,70299,5,4
368,132,70616,1,4
260,184,70933,1,4
184,324,71355,5,2
220,344,71461,1,2
256,356,71567,1,2
292,344,71672,1,2
328,324,71778,1,2
256,228,71989,5,4
360,72,83820,6,2,B|348:124,1,40
256,36,84137,2,2,B|256:92,1,40
152,72,84454,2,2,B|164:124,2,40
152,72,84876,1,4
44,288,85510,5,2
108,336,85722,1,0
184,308,85933,2,0,B|224:292|276:300,1,80
332,340,86355,1,2
396,288,86567,1,0
372,212,86778,2,0,B|412:196|464:204,2,80,0|0|2
316,156,87412,1,0
444,60,87834,1,0
444,60,88045,6,0,B|400:76|348:64,1,80,2|0
308,124,88468,2,0,B|264:108|212:120,1,80
200,40,88891,2,0,B|216:120|156:192,1,160,2|0
88,156,89524,1,0
88,156,89736,2,0,B|60:196|88:248,1,80,2|0
152,268,90158,1,0
124,344,90369,1,0
124,344,90475,1,0
124,344,90581,1,2
204,332,90792,5,2
204,332,90898,1,2
316,372,91109,1,2
316,372,91214,1,2
380,272,91426,1,4
248,180,91848,5,0
176,212,92060,1,0
156,192,92165,1,0
144,168,92271,2,0,B|80:188|8:164,2,120,2|0|0
196,108,93116,2,0,B|260:88|332:112,2,120,2|0|2
116,92,93961,2,0,B|48:168|112:264,1,160
97,240,94489,1,0
97,240,94595,1,2
84,360,94806,6,0,B|168:352,1,80
188,336,95123,1,0
208,316,95229,2,0,B|248:304|292:328,1,80,0|2
356,360,95651,2,0,B|404:284|488:268,1,160
460,152,96285,2,0,B|412:228|328:244,1,160,2|0
328,164,96919,2,0,B|280:160|252:208,1,80,0|2
196,244,97341,6,0,B|120:212|36:240,2,160
192,164,99243,5,0
248,108,99454,1,0
248,108,99665,2,0,B|284:92|344:96,2,80,0|2|0
192,168,100299,1,0
112,160,100510,2,0,B|144:236|112:320,1,160
113,316,101144,1,0
184,352,101355,1,0
212,344,101461,1,0
240,348,101567,5,2
304,300,101778,1,0
372,344,101989,2,0,B|404:316|456:320,1,80
508,268,102412,2,0,B|444:212|448:116,1,160,2|0
496,60,103045,1,0
340,88,103468,1,0
292,24,103679,2,0,B|260:52|204:56,1,80,2|0
188,128,104102,5,0
116,96,104313,1,2
116,96,104419,1,2
60,152,104630,1,2
60,152,104736,1,2
96,224,104947,1,0
176,212,105158,1,2
176,212,105264,1,2
292,244,105581,1,2
292,244,105686,1,2
292,244,105792,6,0,B|368:212|464:244,1,160,6|0
476,316,106426,1,0
396,308,106637,2,0,B|364:232|396:136,1,160,2|0
472,144,107271,1,0
472,144,107376,1,0
472,144,107482,2,0,B|460:48,1,80,2|0
344,36,107905,2,0,B|356:132,1,80,0|0
236,88,108327,5,2
164,52,108538,1,0
84,64,108750,1,0
36,128,108961,1,0
84,192,109172,2,0,B|76:232,2,40,2|0|0
160,224,109595,1,0
220,276,109806,2,0,B|228:316,2,40,0|0|2
160,224,110229,2,0,B|192:144,1,80
352,160,110651,2,0,B|320:240,1,80,0|0
392,272,111074,6,2,B|372:308,1,40
292,300,111391,2,2,B|272:336,1,40
192,328,111707,1,4
36,300,112130,5,2
84,236,112341,1,0
36,172,112553,2,0,B|36:88|124:28,1,160,4|2
176,84,113186,1,0
176,84,113398,1,8
252,56,113609,2,0,B|296:56|332:44,2,80,0|2|0
340,136,114243,5,8
416,108,114454,1,0
476,160,114665,2,0,B|492:200|468:248,2,80,2|0|8
404,192,115299,1,0
404,192,115405,1,0
404,192,115510,2,0,B|388:232|412:280,1,80,2|0
348,324,115933,5,8
188,344,116355,1,2
112,316,116567,1,0
64,252,116778,1,8
52,172,116989,1,0
88,100,117200,1,2
236,164,117623,5,8
320,76,117834,1,2
344,88,117939,1,2
416,48,118151,1,2
440,60,118256,1,2
456,84,118362,2,0,B|472:96|472:120,1,40
456,196,118679,1,0
376,176,118891,6,0,B|352:212|368:264,1,80,2|0
388,272,119207,1,0
392,300,119313,2,0,B|292:304|236:348,1,160,4|2
168,312,119947,2,0,B|76:292,2,80,0|8|0
232,264,120581,1,2
232,264,120792,1,0
284,204,121003,2,0,B|328:216,2,40,8|0|0
220,156,121426,1,2
260,88,121637,2,0,B|184:56|100:88,1,160,0|0
56,152,122271,1,2
56,152,122376,1,0
56,152,122482,1,0
256,192,122693,12,0,124172
176,128,124384,5,0
336,124,124806,1,0
256,264,125229,5,2
248,236,125334,1,2
256,208,125440,1,2
264,180,125545,1,2
256,152,125651,1,2
248,124,125757,1,2
256,96,125862,1,2
264,68,125968,1,2
256,40,126074,5,12
180,16,126285,1,0
128,76,126496,2,0,B|132:156|60:224,1,160,0|0
24,148,127130,1,0
24,148,127236,1,0
24,148,127341,2,0,B|104:144|172:216,1,160,0|8
32,296,128186,5,0
92,348,128398,1,2
236,280,128820,1,0
296,332,129032,1,2
376,340,129243,1,0
376,340,129454,6,0,B|440:292,1,80,8|0
408,176,129876,2,0,B|344:224,1,80,0|0
280,176,130299,1,8
208,208,130510,2,0,B|160:200|120:200,2,80
216,128,131144,2,0,B|176:100|176:52,1,80,8|0
256,60,131567,1,0
335,61,131778,2,8,B|336:100|296:128,1,80,0|2
256,196,132200,1,2
308,256,132412,1,2
256,316,132623,1,2
204,256,132834,5,12
64,332,133257,1,0
112,268,133468,1,0
112,268,133574,1,0
112,268,133679,2,0,B|120:224|108:172,1,80,8|0
40,148,134102,1,0
40,148,134313,2,0,B|80:76,1,80,0|8
240,80,134947,2,0,B|200:8,2,80,0|0|8
316,60,135581,1,0
316,60,135792,2,0,B|340:92|340:148,1,80
372,252,136214,6,0,B|328:328|224:308,1,160,12|0
256,192,136848,1,0
140,131,137060,2,0,B|184:56|277:74,1,160,8|0
336,20,137693,2,0,B|356:100,1,80
436,88,138117,5,0
436,88,138222,1,0
412,164,138433,1,0
412,164,138539,1,0
408,324,138961,5,2
380,312,139067,1,2
352,308,139172,1,2
324,308,139278,1,2
300,320,139384,1,2
184,344,139595,6,0,B|136:344|108:320,1,80,12|0
92,244,140017,1,0
92,244,140229,2,0,B|140:244|168:268,1,80,0|8
176,188,140651,1,0
176,188,140862,1,0
136,120,141074,1,0
136,120,141179,1,0
136,120,141285,6,0,B|204:64|296:72,1,160,8|0
328,4,141919,2,0,B|410:34|449:118,1,160,0|0
384,160,142553,1,0
376,188,142658,1,0
380,216,142764,1,0
340,284,142975,6,0,B|376:304|420:308,2,80,12|0|0
304,212,143609,2,0,B|268:192|224:188,2,80,0|8|0
380,216,144243,2,0,B|372:136|420:48,1,160,0|12
256,96,145088,5,0
176,100,145299,1,2
152,176,145510,1,0
84,220,145722,1,2
96,244,145827,1,0
120,260,145933,1,0
148,268,146039,1,0
176,264,146144,1,2
196,340,146355,6,0,B|148:340|112:356,2,80,12|0|0
244,276,146989,1,0
244,276,147095,1,0
244,276,147200,2,0,B|320:300|408:268,1,160,8|0
416,192,147834,1,0
336,208,148045,2,0,B|312:284|344:372,2,160,8|0|8
464,112,149313,2,0,B|396:56|300:72,1,160,0|12
268,136,149947,1,0
268,136,150158,6,0,B|200:76,1,80,0|0
92,120,150581,2,0,B|160:180,1,80,8|0
148,252,151003,1,0
256,304,151214,1,0
364,252,151426,5,4
256,196,151743,1,4
256,76,152060,1,4
256,76,152482,5,2
244,100,152588,1,2
256,124,152693,1,2
268,148,152799,1,2
256,172,152905,1,2
256,252,153116,5,4
104,200,153538,6,0,B|40:260,1,80,2|0
96,364,153961,2,0,B|160:304,1,80,2|0
228,340,154384,1,2
228,340,154595,1,0
292,292,154806,6,0,B|340:280|364:232,1,80,0|0
220,92,155651,2,0,B|172:104|148:152,1,80,8|0
56,260,156496,1,0
56,260,156919,1,0
116,312,157130,2,0,B|164:264|228:336|276:292,1,160,0|0
336,340,158186,5,2
408,304,158398,2,2,B|384:280,1,20
440,224,158714,2,2,B|404:224,1,20
412,144,159031,1,8
368,76,159243,1,0
292,52,159454,1,0
212,56,159665,2,2,B|192:40,2,20
72,136,160299,5,2
132,188,160510,1,0
100,260,160722,1,10
132,188,160933,1,0
208,164,161144,1,2
132,188,161355,1,0
132,188,161567,2,0,B|188:232|224:320,1,160,8|0
256,244,162200,1,0
289,317,162412,2,0,B|324:232|380:188,1,160,8|0
484,68,163257,6,8,B|424:32|328:40,1,160
329,39,164313,1,0
329,39,164524,1,0
284,108,164736,5,2
260,96,164841,1,2
232,92,164947,1,2
132,24,165264,1,2
40,104,165581,1,2
60,180,165792,1,8
180,168,166109,1,0
296,192,166426,1,0
356,140,166637,6,0,B|388:160|408:200,1,80,6|0
484,228,167060,2,0,B|464:308|364:352,1,160,2|8
352,268,167693,1,0
300,328,167905,2,2,B|228:352|136:324,1,160
28,216,168750,2,2,B|100:192|192:220,1,160,2|8
185,218,169278,1,0
185,218,169384,1,0
252,260,169595,6,0,B|276:176,1,80,2|0
240,112,170017,2,2,B|300:168|408:168,1,160,2|2
432,100,170651,1,0
356,80,170862,2,2,B|300:140|300:248,1,160,8|2
460,224,171707,2,0,B|452:288|416:336,2,120,2|0|0
460,224,172553,1,8
368,92,172975,5,2
300,48,173186,1,0
232,92,173398,2,0,B|152:116|64:88,1,160,6|2
28,156,174031,1,0
104,188,174243,2,0,B|132:260|84:344,1,160,6|2
164,328,174876,5,0
164,328,175088,1,2
244,188,175510,1,0
244,188,175722,1,2
388,252,176144,1,0
388,252,176355,1,2
372,92,176778,6,0,B|456:96|520:180,2,160,0|0|8
312,36,177834,1,0
312,36,178045,1,0
236,64,178257,1,0
240,144,178468,1,2
316,168,178680,1,2
316,168,178785,1,2
324,248,178996,1,2
324,248,179102,1,2
248,272,179313,1,0
248,272,179524,1,0
196,212,179736,1,0
196,212,179841,1,0
196,212,179947,1,0
256,192,180158,12,4,183538
408,256,197060,6,0,B|364:264|320:244,1,80,12|0
300,172,197482,1,0
244,228,197693,1,0
228,148,197905,2,0,B|240:108|236:64,1,80,8|0
236,68,198222,1,0
236,68,198327,2,0,B|168:20|68:44,1,160,0|8
16,140,198961,2,0,B|84:188|184:164,1,160,0|0
204,240,199595,2,0,B|192:280|156:316,2,80,8|0|0
252,176,200229,1,0
252,176,200334,1,0
252,176,200440,6,0,B|316:136|424:148,1,160,12|0
468,92,201074,1,0
468,92,201179,1,0
468,92,201285,2,0,B|508:156|496:264,1,160,8|0
420,224,201919,1,0
376,288,202130,6,0,B|340:264,1,40,0|0
228,300,202447,2,0,B|264:324,1,40,0|0
188,356,202764,1,2
160,356,202869,1,2
132,344,202975,1,2
88,280,203186,1,2
168,272,203398,1,2
196,196,203609,1,6
124,164,203820,6,0,B|56:172|-4:148,2,120,4|0|0
104,84,204665,1,8
164,32,204876,1,0
164,32,204982,1,0
164,32,205088,2,0,B|248:16|324:60,1,160,0|8
476,40,205933,1,0
456,116,206144,1,2
296,140,206567,1,0
316,216,206778,1,2
316,216,206989,1,0
300,292,207200,6,0,B|256:308|216:300,1,80,12|0
184,372,207623,2,0,B|148:341|135:303,1,80,0|0
56,316,208045,2,0,B|64:269|91:239,1,80,8|0
24,192,208468,1,0
92,148,208679,1,0
120,140,208785,1,0
148,140,208891,5,0
180,68,209101,1,0
180,68,209207,1,0
236,124,209418,1,0
236,124,209524,1,0
392,160,209947,2,2,B|440:144,4,40
436,228,210581,5,4
396,296,210792,1,0
320,268,211003,2,0,B|232:300,1,80,0|0
188,352,211426,1,8
112,332,211637,2,0,B|136:252|76:176,1,160
136,76,212271,5,8
136,76,212376,1,0
136,76,212482,2,0,B|216:40,1,80
376,76,212905,2,0,B|296:40,1,80,0|8
256,108,213327,2,0,B|224:148|288:204|256:264,1,160
188,224,213961,5,12
192,304,214172,1,0
256,352,214384,1,0
316,300,214595,2,0,B|372:236|472:248,1,160,0|0
428,364,215229,1,0
300,268,215440,2,0,B|356:204|456:216,1,160,0|0
444,214,215968,5,0
492,104,216285,1,2
472,84,216391,1,2
448,72,216496,1,2
360,108,216707,1,2
272,40,216919,1,2
172,120,217130,1,2
28,128,217341,6,0,B|20:172|40:208,1,80,12|0
64,212,217658,1,0
92,204,217764,2,0,B|148:272|144:368,1,160,0|8
224,340,218398,2,0,B|304:352,2,80
200,264,219031,2,0,B|212:224,2,40,8|0|0
280,276,219454,2,0,B|324:260,1,40
340,276,219665,2,0,B|376:248|388:192,1,80,0|8
464,200,220088,2,0,B|372:188|312:120,1,160
320,52,220722,5,12
252,12,220933,1,0
60,156,221355,1,0
128,116,221566,1,0
316,264,221989,1,0
248,224,222200,1,0
180,268,222412,5,4
256,40,222729,1,4
432,200,223045,1,4
364,344,223468,5,2
344,328,223574,1,2
316,320,223679,1,2
288,316,223785,1,2
260,324,223891,1,2
144,348,224102,6,0,B|104:328|80:292,1,80,12|0
16,256,224524,2,0,B|0:176,2,80,0|0|8
76,204,225158,2,0,B|92:124,1,80
208,88,225581,2,0,B|192:168,1,80,0|8
192,248,226003,1,0
192,248,226214,2,0,B|264:216|356:236,1,160,0|8
360,312,226848,1,0
280,304,227060,2,0,B|264:136,1,160,0|12
328,96,227693,1,0
328,96,227905,6,0,B|296:56|264:40,1,80,0|0
152,72,228327,2,0,B|184:112|216:128,1,80,8|0
140,160,228750,1,0
140,160,228855,1,0
140,160,228961,1,0
156,280,229172,5,8
172,256,229278,1,0
256,340,229489,1,0
256,312,229595,1,0
356,280,229806,1,2
340,256,229912,1,2
336,228,230017,1,2
348,204,230123,1,2
368,184,230229,1,2
424,128,230440,2,0,B|368:56,1,80,2|6
312,116,230862,6,0,B|221:128,1,80,12|0
180,68,231285,1,0
112,108,231496,2,8,B|64:164|64:260,1,160,0|0
400,108,232553,2,8,B|448:164|448:260,1,160,8|0
368,252,233186,2,0,B|380:340,2,80,0|8|0
288,252,233820,2,0,B|300:164,1,80,0|0
256,192,234243,12,0,236778
192,172,236989,5,2
220,144,237095,1,2
256,132,237201,1,2
292,144,237306,1,2
320,172,237412,1,2
256,220,237623,5,6
