osu file format v9

[General]
AudioFilename: Every Heart.mp3
AudioLeadIn: 0
PreviewTime: 44947
Countdown: 0
SampleSet: Soft
StackLeniency: 1
Mode: 0
LetterboxInBreaks: 1

[Editor]
Bookmarks: 30796,37345,44740,83613,111923,125866,153331,166426,196852,210373
DistanceSpacing: 1
BeatDivisor: 4
GridSize: 4

[Metadata]
Title:Every Heart
Artist:BoA
Creator:Evil_Twilight
Version:Normal
Source:Inuyasha
Tags:Tomoka Rin

[Difficulty]
HPDrainRate:4
CircleSize:4
OverallDifficulty:3
ApproachRate:3
SliderMultiplier:1.2
SliderTickRate:1

[Events]
//Background and Video events
0,0,"bgrmk.jpg"
//Break Periods
2,72189,84070
2,112753,121253
2,153316,165197
2,183738,195620
//Storyboard Layer 0 (Background)
//Storyboard Layer 1 (Fail)
//Storyboard Layer 2 (Pass)
//Storyboard Layer 3 (Foreground)
//Storyboard Sound Samples
//Background Colour Transformations
3,100,128,128,192

[TimingPoints]
4384,422.535211267606,4,2,0,40,1,0
44947,-100,4,1,0,30,0,1
45053,-100,4,1,0,30,0,0
56778,-100,4,2,0,40,0,0
58468,-100,4,1,0,30,0,0
70299,-100,4,2,0,40,0,0
126074,-100,4,1,0,30,0,1
126179,-100,4,1,0,30,0,0
131567,-100,4,2,0,40,0,0
132834,-100,4,1,0,30,0,0
137905,-100,4,2,0,40,0,0
139595,-100,4,1,0,30,0,0
151426,-100,4,2,0,40,0,0
197060,-100,4,1,0,30,0,1
197165,-100,4,1,0,30,0,0
202553,-100,4,2,0,40,0,0
203820,-100,4,1,0,30,0,0
208891,-100,4,2,0,40,0,0
210581,-100,4,1,0,30,0,1
222412,-100,4,2,0,40,0,1
224102,-100,4,1,0,30,0,0
233820,-100,4,1,0,20,0,0
234031,-100,4,1,0,10,0,0
234243,-100,4,2,0,40,0,0

[Colours]
Combo1 : 128,128,192
Combo2 : 0,140,140
Combo3 : 0,128,192

[HitObjects]
76,96,4384,2,0,B|124:52|204:80,1,120,2|0
276,160,5229,2,0,B|228:204|148:176,2,120,2|0|2
276,40,6496,2,0,B|344:32|380:100,1,120,0|2
484,308,7764,6,0,B|416:304|368:344,1,120,2|0
284,260,8609,2,0,B|239:222|171:226,1,120,2|0
196,344,9454,1,2
196,344,10299,1,4
16,184,11144,6,0,B|14:114|59:61,1,120,2|0
136,156,11989,2,0,B|134:225|179:278,1,120,2|0
64,324,12834,2,0,B|133:322|186:367,1,120,2|0
288,312,13679,6,0,B|357:313|410:268,1,120,2|0
436,160,14524,2,0,B|366:158|313:203,1,120,2|0
228,120,15369,2,0,B|172:92|104:100,2,120,2|0|2
228,120,17060,1,4
404,284,17905,6,0,B|342:305|279:277,1,120,2|0
256,308,18538,2,0,B|196:324,2,60,0|2|0
248,268,19172,2,0,B|205:218|137:211,1,120,0|2
156,92,20017,2,0,B|84:76|40:136,2,120,0|2|0
264,144,21285,6,0,B|320:104|396:136,1,120,2|0
264,144,22130,2,0,B|304:200|272:276,1,120,2|0
172,200,22975,1,2
172,200,23820,1,4
320,356,24665,5,2
480,176,25510,1,2
248,112,26355,1,2
20,32,27200,6,0,B|-1:90|26:162,1,120,2|0
132,100,28045,2,0,B|153:158|125:230,1,120,2|0
200,316,28891,2,0,B|124:312|64:360,2,120,2|0|2
344,204,30369,2,0,B|344:136,1,60,0|4
112,88,31426,6,0,B|172:116|192:188,1,120,4|0
296,124,32271,2,0,B|268:184|288:248,1,120,8|0
356,340,33116,2,0,B|296:312|232:332,1,120,2|0
144,256,33961,2,0,B|139:321|89:367,1,120,8|0
28,260,34806,6,0,B|41:201|96:163,2,120,2|0|8
144,256,36074,1,0
144,256,36496,2,0,B|212:248|264:284,1,120,2|0
360,348,37341,2,0,B|352:280|388:228,1,120,8|0
472,148,38186,6,0,B|424:108|352:108,1,120,4|0
361,108,39031,1,8
360,108,39876,1,2
252,164,40299,2,0,B|216:112,1,60
136,200,40933,2,0,B|68:232|60:296,1,120
256,192,41567,12,4,44524
132,292,44947,6,0,B|188:328|272:288,1,120,12|0
312,196,45792,2,0,B|256:160|172:200,1,120,0|0
116,100,46637,2,0,B|71:114|95:170|47:194,3,120,8|0|0|0
88,308,48327,6,0,B|136:348|208:352,1,120,8|0
314,351,49172,2,0,B|376:348|424:308,1,120
364,204,50017,2,8,B|304:272|204:272|152:200,1,240,8|0
356,72,51707,6,0,B|392:76|428:64,2,60,12|0|0
280,164,52553,2,0,B|212:172|148:144,1,120
68,76,53398,2,0,B|-16:144|128:256|32:312,1,240,8|0
164,272,54665,1,0
164,272,55088,6,0,B|228:268|280:304,1,120,8|0
244,188,55933,2,0,B|240:124|276:72,1,120,8|0
160,112,56778,2,4,B|156:164|116:200,2,90
68,36,57834,6,0,B|24:76,2,60,2|0|2
128,36,58468,6,0,B|188:32|256:52,1,120,12|0
360,84,59313,2,0,B|392:132|380:216,1,120
312,296,60158,2,0,B|356:344|444:348,2,120,8|0|0
200,296,61426,2,0,B|156:344|68:348,2,120,0|8|0
256,192,62693,5,0
256,192,63538,1,8
256,192,64384,1,0
40,84,65229,6,0,B|100:64|172:80,1,120,12|0
224,176,66074,2,0,B|164:196|92:180,1,120
180,276,66919,2,0,B|240:256|312:272,1,120,8|0
412,308,67764,2,0,B|432:248|416:176,1,120
308,140,68609,6,0,B|324:88|384:96|396:44,2,120,12|0|0
196,92,69876,1,0
256,192,70299,2,4,B|236:228|240:280,2,90
256,192,71989,5,4
412,292,85510,6,0,B|352:280|296:232,1,120,2|0
206,239,86355,2,0,B|159:279|99:291,2,120,0|0|2
96,24,88045,5,2
184,108,88468,1,0
300,76,88891,2,0,B|360:84|424:56,2,120,2|0|2
212,156,90158,2,0,B|152:164|88:136,2,120,0|2|0
300,236,91426,1,4
68,304,92271,6,0,B|28:268|28:200,2,90,2|0|0
116,268,93116,2,0,B|156:304|156:372,2,90,2|0|0
144,216,93961,2,0,B|180:160|164:88,1,120,2|0
268,36,94806,6,0,B|324:36|396:64,1,120,2|0
468,144,95651,2,0,B|468:200|440:272,1,120,2|0
452,320,96285,2,0,B|392:316|328:264,1,120
164,260,97341,2,0,B|232:288|268:156|388:188,1,240
444,84,98609,1,0
444,84,99031,5,4
208,48,99876,2,0,B|140:56|96:112,1,120,2|0
8,176,100722,2,0,B|76:184|120:240,1,120,2|0
212,164,101567,6,0,B|272:160|336:172,2,120,2|0|2
112,232,102834,2,0,B|56:276,1,60
180,300,103468,2,0,B|236:344,1,60
324,264,104102,2,0,B|384:268|452:240,3,120,2|0|2|0
440,124,105792,6,0,B|382:100|322:104,1,120,2|0
256,204,106637,1,2
168,124,107060,2,0,B|110:147|50:143,2,120,0|2|0
248,32,108327,5,2
452,148,109172,2,0,B|488:208|460:280,1,120,2|0
380,348,110017,2,0,B|328:312|256:316,1,120,2|0
148,340,110862,2,0,B|120:280|144:204,2,120,2|0|2
256,192,112553,5,4
256,192,122693,12,0,125229
328,104,126074,6,0,B|356:96|400:92,2,60,12|0|0
284,144,126707,2,0,B|220:160|168:128,1,120
36,248,127764,2,0,B|100:232|152:264,1,120,8|0
244,340,128609,2,0,B|308:356|360:324,1,120
444,240,129454,5,12
224,148,130299,1,0
336,104,130722,1,0
240,36,131144,1,8
120,40,131567,2,0,B|56:52,1,60,0|2
120,156,132200,2,0,B|98:217,1,60,0|2
216,248,132834,6,0,B|220:308|180:360,2,120,12|0|0
328,204,134102,2,0,B|381:230|406:291,2,120,0|8|0
408,116,135369,2,0,B|358:82|293:91,1,120
196,160,136214,2,0,B|136:164|83:124,2,120
316,140,137482,1,0
428,184,137905,2,4,B|436:136|412:88,2,90
384,296,138961,6,2,B|408:316|444:316,2,60
356,244,139595,6,0,B|292:244|232:288,1,120,12|0
144,348,140440,1,0
40,284,140862,2,0,B|72:228|48:160,1,120,0|8
128,76,141707,2,0,B|184:100,1,60
292,48,142341,2,0,B|348:72,1,60
464,52,142975,6,0,B|432:112|456:176,1,120,12|0
408,280,143820,2,0,B|344:296|280:272,1,120
184,328,144665,2,0,B|120:312|56:336,2,120
176,88,146355,6,0,B|124:96|68:68,2,90,12|0|0
292,64,147412,2,0,B|356:68|400:128,1,120
340,144,148045,2,0,B|393:179|401:253,1,120,8|0
428,360,148891,2,0,B|364:380|300:352,1,120
240,260,149736,5,12
64,96,150581,1,0
168,32,151003,1,0
172,152,151426,2,4,B|224:152|276:136,2,90
256,192,153116,5,4
196,160,166637,6,0,B|172:100|200:32,2,120,4|0|0
316,160,167905,2,0,B|340:100|312:32,2,120
256,264,169172,1,8
320,32,170017,6,0,B|368:68|452:56,2,120,4|0|0
256,132,171285,1,0
208,240,171707,2,0,B|160:204|76:216,2,120,0|0|8
284,336,172975,5,0
324,340,173186,1,0
360,316,173398,2,0,B|424:280|432:200,1,120,4|0
452,104,174243,2,0,B|418:56|345:57,1,120,4|0
256,132,175088,5,2
256,372,175933,1,2
108,184,176778,2,0,B|156:92|348:92|428:188,2,360
108,184,179736,1,0
256,192,180158,12,4,183538
104,76,197060,6,0,B|152:80|156:140|216:148,1,120,12|0
256,40,197905,1,0
312,144,198327,2,0,B|356:140|360:80|408:76,1,120,0|8
464,184,199172,2,0,B|424:284|304:220|260:320,1,240
156,348,200440,6,0,B|80:360|40:300,1,120,12|0
32,192,201285,2,0,B|108:180|148:240,2,120,0|0|8
104,96,202553,2,0,B|164:76,1,60,0|2
236,168,203186,2,0,B|176:148,1,60,0|2
264,64,203820,6,0,B|336:60|388:104,1,120,12|0
496,68,204665,2,0,B|500:140|456:192,1,120
428,296,205510,2,0,B|356:256|244:312|232:388,1,240,8|0
140,304,206778,6,0,B|156:236|232:212,1,120,0|12
316,148,207623,2,0,B|348:160|380:156,2,60
244,52,208468,2,0,B|180:60,1,60
144,48,208891,2,4,B|104:44|104:100|56:88,2,90,4|4|4
160,168,209947,6,2,B|160:240,2,60
188,136,210581,6,0,B|256:120|316:176,1,120,12|0
248,272,211426,2,0,B|316:288|376:232,1,120
464,180,212271,2,0,B|500:232|464:300,2,120,8|0|0
368,108,213538,2,0,B|304:104|256:60,1,120,0|8
144,100,214384,6,0,B|184:152|164:224,1,120
272,272,215229,2,0,B|232:220|252:148,1,120,0|8
360,204,216074,2,0,B|416:192|420:256|488:244,2,120
352,324,217341,5,12
232,336,217764,2,0,B|168:324|112:348,1,120
88,228,218609,2,0,B|152:216|208:240,1,120,0|8
304,172,219454,2,0,B|310:113|353:64,2,120
208,100,220722,5,12
104,40,221144,2,0,B|64:96,1,60
136,188,221778,2,0,B|176:244,1,60
188,356,222412,2,4,B|136:368|96:328,2,90
300,316,223468,6,2,B|332:304|376:312,2,60
268,288,224102,6,0,B|236:236|256:168,1,120,12|0
348,100,224947,1,0
240,44,225369,2,0,B|188:76|120:56,1,120,0|8
60,160,226214,1,0
152,236,226637,2,0,B|184:288|164:356,1,120
284,348,227482,2,0,B|380:308|328:204|444:156,2,240,12|0|8
248,232,229595,6,0,B|248:172,1,60
136,124,230229,2,0,B|136:64,2,60
100,148,230862,5,12
36,252,231285,2,0,B|128:260|192:336,1,180
348,252,232553,1,8
428,344,232975,1,0
464,320,233186,2,0,B|456:260|488:196,1,120
444,208,233820,2,0,B|452:148|420:84,1,120,0|0
308,68,234665,2,0,B|248:92|184:88,2,120
256,192,235933,12,4,237623
