osu file format v9

[General]
AudioFilename: Every Heart.mp3
AudioLeadIn: 0
PreviewTime: 44947
Countdown: 0
SampleSet: Soft
StackLeniency: 1
Mode: 0
LetterboxInBreaks: 1

[Editor]
Bookmarks: 30796,37345,44740,83613,111923,125866,153331,196852,210373
DistanceSpacing: 1.1
BeatDivisor: 4
GridSize: 4

[Metadata]
Title:Every Heart
Artist:BoA
Creator:Evil_Twilight
Version:Heart
Source:Inuyasha
Tags:Tomoka Rin

[Difficulty]
HPDrainRate:6
CircleSize:4
OverallDifficulty:5
ApproachRate:6
SliderMultiplier:1.4
SliderTickRate:1

[Events]
//Background and Video events
0,0,"bgrmk.jpg"
//Break Periods
2,72189,84460
2,183738,196010
//Storyboard Layer 0 (Background)
//Storyboard Layer 1 (Fail)
//Storyboard Layer 2 (Pass)
//Storyboard Layer 3 (Foreground)
//Storyboard Sound Samples
//Background Colour Transformations
3,100,128,128,192

[TimingPoints]
4384,422.535211267606,4,2,0,40,1,0
44947,-100,4,1,0,30,0,1
45053,-100,4,1,0,30,0,0
56778,-100,4,2,0,40,0,0
58468,-100,4,1,0,30,0,0
70299,-100,4,2,0,40,0,0
126074,-100,4,1,0,30,0,1
126179,-100,4,1,0,30,0,0
137905,-100,4,2,0,40,0,0
139595,-100,4,1,0,30,0,0
151426,-100,4,2,0,40,0,0
163257,-200,4,2,0,40,0,0
164524,-100,4,2,0,40,0,0
197060,-100,4,1,0,30,0,1
197165,-100,4,1,0,30,0,0
202975,-100,4,2,0,40,0,0
203820,-100,4,1,0,30,0,0
208891,-100,4,2,0,40,0,0
210581,-100,4,1,0,30,0,1
216496,-100,4,2,0,40,0,1
217341,-100,4,1,0,30,0,1
222412,-100,4,2,0,40,0,1
224102,-100,4,1,0,30,0,0
233820,-100,4,1,0,20,0,0
234031,-100,4,1,0,10,0,0
234243,-100,4,2,0,40,0,0

[Colours]
Combo1 : 128,128,192
Combo2 : 0,140,140
Combo3 : 0,128,192

[HitObjects]
92,116,4384,6,0,B|100:64|164:40|212:64,2,140,2|0|2
168,128,5440,1,0
168,128,5862,1,0
244,124,6074,2,0,B|260:184|184:192|204:264,1,140,2|0
356,236,6919,6,0,B|396:240|416:288,1,70,2|0
340,308,7341,2,0,B|336:348|288:368,1,70
268,292,7764,2,0,B|220:280|180:336|132:312,1,140,2|0
84,372,8398,2,0,B|40:348|40:280|88:248,1,140
236,84,9454,2,0,B|176:91|164:24|95:39,2,140,2|0|4
236,84,10510,1,0
384,44,11144,6,0,B|372:104|448:96|440:164,1,140,2|0
364,160,11778,1,0
292,136,11989,2,0,B|268:176|292:236|352:240,1,140,2|0
360,316,12623,2,0,B|280:300|216:340,1,140
224,335,13257,1,0
72,328,13679,5,2
112,260,13891,1,0
44,220,14102,2,0,B|56:184|104:180,1,70
56,116,14524,2,0,B|96:76|156:132|200:84,2,140,2|0|2
96,181,15581,1,0
156,228,15792,2,0,B|152:272|212:316|256:300,1,140,0|2
288,148,16637,1,0
344,92,16848,1,0
364,168,17060,1,4
80,48,17905,6,0,B|88:100|12:124|28:180,1,140,2|0
176,204,18750,2,0,B|168:256|244:280|228:336,1,140,2|0
304,344,19384,1,0
304,344,19595,2,0,B|328:308|388:288|440:304,1,140,2|0
496,160,20440,6,0,B|480:120|440:100,1,70,2|0
416,176,20862,1,0
380,108,21074,2,0,B|352:121|336:161,1,70,0|2
216,64,21707,2,0,B|198:89|204:131,1,70
128,124,22130,2,0,B|125:154|152:188,1,70,2|0
84,228,22553,2,0,B|152:264|152:344,1,140,0|2
292,280,23398,2,0,B|356:248|444:284,2,140,0|4|0
200,156,24665,6,0,B|264:124|352:160,1,140,2|0
412,136,25299,2,0,B|400:96|356:84,1,70,0|2
316,28,25722,2,0,B|252:60|164:24,1,140
128,84,26355,1,2
128,84,26778,1,0
28,200,27200,6,0,B|16:240|48:268,1,70,2|0
120,248,27623,2,0,B|132:288|100:316,1,70
168,352,28045,2,0,B|232:320|324:356,1,140,2|0
380,364,28679,2,0,B|408:312|328:280|368:224,1,140
436,252,29313,2,0,B|440:212|492:184,1,70,2|0
444,124,29736,1,2
292,124,30158,1,0
344,68,30369,1,0
268,48,30581,1,6
128,112,31003,5,0
164,180,31214,1,0
88,188,31426,2,0,B|84:236|140:272|192:256,1,140,8|2
232,196,32060,2,0,B|275:216|278:283|238:320,1,140
472,328,33116,2,0,B|424:332|388:276|404:224,1,140,8|0
420,152,33750,2,0,B|468:148|504:204|488:256,1,140
416,32,34806,6,0,B|364:72|280:64,1,140,8|0
220,108,35440,1,0
220,108,35651,2,0,B|240:144|292:140,1,70,2|0
344,180,36074,2,0,B|324:216|272:212,1,70
208,204,36496,2,0,B|188:264|260:280|236:344,2,140,8|0|4
120,332,37764,6,0,B|84:308|92:264,1,70
28,228,38186,2,0,B|64:160|36:88,2,140,8|0|2
92,272,39243,1,0
168,260,39454,2,0,B|164:216|116:200,1,70
164,136,39876,2,0,B|216:152|244:188|248:244,1,140,8|0
316,272,40510,1,0
308,348,40722,2,0,B|352:356|404:320|392:256,1,140,2|0
256,192,41567,12,4,44524
292,264,44947,6,0,B|372:292|444:236,1,140,12|0
336,124,45792,2,0,B|256:96|184:152,1,140,0|0
72,56,46637,2,0,B|36:76|36:124,1,70,8|0
112,120,47060,2,0,B|128:196|40:240,1,140
108,288,47693,1,0
108,288,47905,1,0
256,324,48327,6,0,B|332:316|392:364,1,140,8|0
408,288,48961,1,0
484,304,49172,2,0,B|512:240|416:224|448:172,1,140
348,60,50017,2,0,B|408:16|496:44,2,140,8|0|0
196,24,51285,1,0
52,80,51707,6,0,B|20:112|48:164,1,70,12|0
116,124,52130,2,0,B|144:180|216:116|256:184,1,140,0|8
192,224,52764,1,0
192,224,53186,1,0
264,248,53398,2,0,B|260:292|192:320|152:292,1,140,8|0
76,288,54031,2,0,B|72:240|120:224,2,70,0|8|0
116,356,54665,2,0,B|188:336|256:376,1,140,0|12
404,348,55510,6,0,B|432:320|432:272,1,70
332,168,56144,2,0,B|304:196|304:244,1,70
380,224,56567,1,0
404,152,56778,2,4,B|400:112|372:88|324:92,2,105,4|4|4
252,140,57834,2,2,B|220:152,4,35
212,72,58468,6,0,B|132:64|80:112,1,140,12|0
140,164,59102,2,0,B|116:192|72:188,1,70
72,264,59524,2,0,B|120:276|180:256|204:200,1,140
268,236,60158,2,0,B|282:197|342:177|390:189,2,140,8|0|0
280,312,61214,1,0
280,312,61426,1,0
280,312,61848,6,0,B|265:350|205:370|157:358,1,140,12|0
124,288,62482,1,0
200,280,62693,1,8
124,288,62905,2,0,B|84:296|56:260,1,70
56,188,63327,2,0,B|96:180|124:216,1,70,0|8
256,136,63961,2,0,B|172:144|124:100,2,140,0|8|0
376,40,65229,5,12
448,68,65440,1,0
476,140,65651,2,0,B|484:212|424:264,1,140,0|8
380,200,66285,1,0
380,200,66919,1,8
304,200,67130,1,0
276,272,67341,2,0,B|204:264|152:324,1,140,0|8
92,272,67975,1,0
64,200,68186,2,0,B|100:184|144:212,1,70
160,132,68609,6,0,B|200:140|232:104,1,70,12|0
296,88,69031,2,0,B|288:128|324:160,1,70
344,224,69454,2,0,B|304:216|272:252,1,70
208,272,69876,2,0,B|216:232|180:200,1,70
144,144,70299,6,0,B|92:152|48:196,2,105,4|4|4
280,72,71355,1,2
352,100,71567,1,2
400,160,71778,1,2
416,236,71989,5,4
112,292,85510,5,2
112,292,85933,2,0,B|136:256|192:264,1,70
176,340,86355,2,0,B|224:360|264:288|332:320,1,140,2|0
360,256,86989,1,0
436,264,87200,2,0,B|432:312|384:324,2,70,2|0|0
480,116,88045,6,0,B|408:96|336:128,1,140,2|0
276,168,88679,1,0
236,100,88891,2,0,B|196:116|200:164,1,70,2|0
160,220,89313,2,0,B|120:204|124:156,1,70
60,124,89736,1,2
88,276,90158,1,0
160,304,90369,1,0
228,268,90581,2,0,B|264:332|344:340,2,140,2|0|4
228,268,91848,1,0
284,216,92060,1,0
352,248,92271,6,0,B|380:184|320:156|348:104,1,140,2|0
416,84,92905,1,0
356,36,93116,2,0,B|300:28|256:68|264:132,1,140,2|0
264,112,93750,2,0,B|244:148|196:156,1,70,0|2
192,76,94172,2,0,B|120:48|48:68,1,140
20,136,94806,5,2
96,136,95017,1,0
148,192,95229,1,0
124,264,95440,1,0
68,212,95651,2,0,B|32:228|32:308|84:336,1,140,2|0
156,340,96285,2,0,B|228:316|296:368,1,140
328,296,96919,1,0
476,256,97341,2,0,B|476:172|348:196|372:84,1,210
448,104,98186,2,0,B|460:52|412:4|348:16,1,140
212,36,99031,6,0,B|132:36|84:104,1,140,4|0
104,248,99876,2,0,B|184:248|232:180,1,140,2|0
224,112,100510,2,0,B|272:96|328:152|300:216,1,140,2|0
316,344,101355,1,0
388,316,101567,6,0,B|432:308|448:260,1,70,2|0
372,240,101989,2,0,B|372:160,1,70
300,148,102412,1,2
152,100,102834,2,0,B|108:108|92:156,1,70
168,176,103256,2,0,B|168:256,1,70,2|0
240,268,103679,1,0
240,268,103891,1,0
308,304,104102,2,0,B|288:348|220:360|176:316,2,140,2|0|2
384,324,105158,2,2,B|384:280,1,35
480,228,105475,2,2,B|480:272,1,35
480,184,105792,6,0,B|404:168|372:88,1,140,6|0
340,28,106426,2,0,B|300:44|296:88,1,70,0|2
320,152,106848,1,0
297,80,107060,2,0,B|220:76|172:144,2,140,0|2|0
320,152,108116,1,0
396,168,108327,6,0,B|392:216|344:228,1,70,2|0
280,216,108750,1,0
312,288,108961,2,0,B|312:372,1,70,0|2
236,344,109384,1,0
164,316,109595,2,0,B|164:232,1,70
200,176,110017,2,0,B|164:160|132:176,1,70,2|0
100,104,110440,2,0,B|136:80|200:80|236:108,1,140,0|2
296,64,111074,2,2,B|324:104,1,35
392,72,111391,2,2,B|396:120,1,35
468,88,111707,1,4
468,244,112130,5,0
396,224,112341,1,0
416,300,112553,2,0,B|368:348|276:336,1,140,4|0
240,276,113186,1,0
164,280,113398,2,0,B|160:324|212:348,2,70,8|0|0
40,192,114243,5,8
88,132,114454,1,0
120,204,114665,2,0,B|176:164|268:164,1,140,0|8
288,96,115299,2,0,B|324:108|336:152,2,70
248,28,115933,5,8
140,140,116355,1,0
140,140,116567,1,0
276,216,116989,1,0
276,216,117200,1,0
184,340,117623,1,8
184,340,118045,2,0,B|256:316|324:352,1,140,0|0
384,308,118679,1,2
460,316,118891,6,0,B|464:276|424:244,1,70
360,232,119313,2,0,B|364:188|428:156|480:184,2,140,8|0|8
284,248,120369,1,0
228,192,120581,1,0
304,172,120792,1,0
248,116,121003,6,0,B|208:120|176:92,1,70,8|0
232,40,121426,2,0,B|192:8|124:24|112:72,2,140,0|8|0
256,192,122693,12,4,125651
304,104,126074,6,0,B|344:100|384:140,1,70,12|0
444,120,126496,2,0,B|448:160|408:200,1,70
348,200,126919,2,0,B|312:268|380:340,1,140
448,328,127553,1,0
412,260,127764,2,0,B|336:232|280:304,1,140,8|0
220,260,128398,1,0
220,260,128609,1,0
208,184,128820,2,0,B|164:180|144:232,2,70
200,108,129454,6,0,B|244:96|300:112|336:156,1,140,8|0
336,224,130088,2,0,B|292:236|236:220|200:176,1,140
112,304,130933,1,0
112,304,131144,2,0,B|108:264|76:244,1,70,8|0
120,180,131567,2,0,B|124:140|156:120,1,70
120,52,131989,1,0
268,100,132412,1,0
416,60,132834,6,0,B|456:80|464:132,1,70,12|0
384,132,133257,2,0,B|408:169|389:218,1,70
464,236,133679,2,0,B|440:280|376:288|336:248,1,140
316,180,134313,1,0
240,168,134524,6,0,B|248:120|300:96|348:108,2,140,8|0|0
172,128,135581,2,0,B|172:172|124:192,1,70
96,120,136003,1,0
60,188,136214,2,0,B|52:232|108:276|168:260,1,140,8|0
232,244,136848,1,0
308,244,137060,2,0,B|316:288|260:332|200:316,1,140
232,244,137693,2,0,B|228:200|276:172,1,70,0|4
372,204,138222,5,4
336,96,138538,1,4
192,44,138961,2,2,B|156:36,4,35
236,108,139595,5,12
164,140,139806,1,0
96,104,140017,2,0,B|64:148|120:200|88:240,1,140
128,304,140651,2,0,B|168:280|172:232,1,70
244,272,141074,1,0
272,200,141285,2,0,B|316:208|336:272|304:320,1,140,8|0
308,316,141919,2,0,B|316:272|380:252|428:284,1,140
376,344,142553,1,0
308,316,142764,1,0
256,256,142975,6,0,B|212:320|128:316,1,140,8|0
120,240,143609,2,0,B|80:248|60:288,2,70
68,184,144243,2,0,B|116:144|160:188|216:140,1,140,0|8
352,120,145088,2,0,B|380:96|376:48,1,70
468,180,145722,2,0,B|440:204|444:252,1,70
292,268,146355,6,0,B|320:292|316:340,1,70,12|0
240,324,146778,2,0,B|216:368|148:320|96:364,1,140
40,320,147412,2,0,B|48:284|36:240,1,70
92,196,147834,1,0
168,180,148045,2,0,B|160:132|104:104|48:132,2,140,8|0|0
344,180,149313,2,0,B|352:132|408:104|464:132,1,140,0|12
452,280,150158,5,0
388,324,150369,1,0
244,276,150792,1,0
180,320,151003,1,0
176,244,151214,1,0
236,192,151426,5,4
340,144,151743,1,4
244,76,152060,1,4
108,144,152482,2,2,B|68:132,4,35
104,220,153116,1,4
196,344,153538,6,0,B|232:352|276:340,1,70,2|0
232,272,153961,2,0,B|308:248|376:288,1,140,2|2
432,328,154595,2,0,B|460:300,1,35
484,280,154806,2,0,B|440:220|448:140,1,140,2|2
320,60,155651,2,0,B|364:120|356:200,1,140,2|2
280,188,156285,1,0
280,188,156496,2,0,B|288:256,1,70,0|0
260,328,156919,2,0,B|216:320|212:276,1,70,0|0
160,228,157341,2,0,B|108:280|24:276,2,140,8|0|0
132,156,158398,6,0,B|160:120,1,35
228,136,158714,2,0,B|234:90,1,35
296,60,159031,2,0,B|336:64|384:36,2,70,8|0|0
308,136,159665,2,0,B|328:164,2,35
448,72,160299,5,2
484,140,160510,1,0
444,208,160722,1,10
444,284,160933,1,0
400,348,161144,1,2
328,320,161355,1,0
252,340,161567,2,2,B|176:332|100:376,1,140
32,240,162412,2,2,B|108:232|184:276,1,140,10|2
152,128,163257,6,0,B|204:120|216:56|284:56,1,140
276,132,164313,1,0
340,88,164524,2,0,B|376:48,2,35
384,152,164947,6,0,B|436:168|488:148,2,105
384,152,165792,2,0,B|368:204|388:256,2,105
308,172,166637,6,0,B|256:220|172:220,1,140,6|2
164,144,167271,2,0,B|120:148|104:192,1,70,0|2
36,156,167693,2,0,B|17:196|47:231,1,70,0|2
108,260,168116,1,0
172,300,168327,2,0,B|156:344|72:352|40:300,2,140,2|2|2
324,332,169595,5,2
388,292,169806,1,0
460,320,170017,2,2,B|480:264|416:228|436:176,1,140
496,140,170651,2,0,B|464:100|396:100|360:144,1,140
320,72,171285,2,0,B|288:112|220:112|184:68,1,140,2|2
124,48,171919,6,2,B|112:84,1,35
44,116,172236,2,2,B|56:152,1,35
132,156,172553,1,0
196,200,172764,2,2,B|184:236,1,35
168,256,172975,6,0,B|184:288|224:300,1,70,2|0
276,364,173398,2,8,B|328:320|408:328,1,140,4|2
472,276,174031,1,0
480,192,174243,2,0,B|440:188|408:224,1,70,6|0
332,220,174665,2,0,B|328:180|364:148,1,70,2|0
292,100,175088,2,2,B|252:120|232:176|240:232,1,140
284,292,175722,2,0,B|240:316|184:300|164:256,2,140
256,192,176778,12,0,179313
256,192,179736,5,2
256,192,180158,12,4,183538
72,64,197060,6,0,B|140:32|212:48,1,140,12|0
284,36,197693,1,0
256,108,197905,1,8
280,180,198116,2,0,B|320:164|336:116,2,70
204,172,198750,2,0,B|192:220|248:272|308:256,1,140,8|0
344,316,199384,2,0,B|312:344|268:332,1,70,0|8
204,312,199806,2,0,B|128:304|68:360,1,140
28,292,200440,5,12
104,160,200862,2,0,B|124:192|176:196,1,70
276,88,201496,1,0
340,44,201707,1,0
412,72,201919,1,0
352,120,202130,2,0,B|372:228,2,105,8|0|0
276,88,202975,1,2
240,156,203186,1,2
164,168,203398,1,4
96,132,203609,1,0
28,172,203820,6,0,B|20:244|64:308,1,140,12|0
120,256,204454,1,0
136,332,204665,1,8
136,332,204876,2,0,B|200:288|292:304,1,140
292,376,205510,2,0,B|256:300|280:236,1,140,8|0
344,200,206144,2,0,B|360:236|344:280,1,70,0|8
280,240,206567,2,0,B|252:196|272:136|328:124,1,140
396,140,207200,5,12
272,48,207623,1,0
204,12,207834,1,0
64,76,208257,1,0
132,40,208468,1,0
128,116,208679,1,0
204,96,208891,2,4,B|244:132|308:124,2,105,4|4|4
60,152,209947,2,2,B|40:196,4,35
128,192,210581,6,0,B|192:196|248:272,1,140,12|0
176,304,211214,2,0,B|192:336|248:344,1,70,0|8
304,312,211637,1,0
364,264,211848,2,0,B|388:292|376:340,1,70
304,312,212271,2,0,B|260:264|324:216|288:164,1,140,8|0
220,180,212905,2,0,B|216:140|264:104,2,70,0|8|0
220,180,213538,1,0
156,320,213961,6,0,B|72:328|32:256,1,140,12|0
24,188,214595,2,0,B|108:180|148:252,1,140
220,264,215229,1,0
200,188,215440,1,0
260,140,215651,2,0,B|220:92|148:124,2,105,8|0|0
296,72,216496,2,2,B|352:120,1,70
404,64,216919,2,2,B|432:92|428:132,1,70
500,156,217341,6,0,B|456:216|484:304,1,140,12|0
404,292,217975,1,0
404,292,218186,1,8
372,364,218398,2,0,B|324:344|308:288|344:236,1,140
284,192,219031,1,8
172,296,219454,1,0
96,312,219665,1,0
120,240,219876,1,8
24,120,220299,1,0
168,64,220722,6,0,B|232:96|316:80,1,140,12|0
324,8,221355,2,0,B|372:8|400:80|368:128,1,140
308,156,221989,2,0,B|300:196|332:232,1,70
392,256,222412,5,4
328,352,222729,1,4
252,264,223045,1,4
116,336,223468,2,2,B|76:340,4,35
116,260,224102,5,12
60,204,224313,1,0
76,128,224524,1,0
148,104,224736,1,0
144,180,224947,2,0,B|196:180|236:132|220:76,1,140,8|0
296,60,225581,1,0
372,56,225792,2,0,B|388:108|312:128|328:184,1,140,8|0
404,172,226426,2,0,B|420:224|344:244|360:300,2,140
480,172,227482,5,12
440,104,227693,1,0
440,28,227905,2,0,B|368:48|296:12,2,140,0|8|0
440,104,228961,1,0
364,120,229172,2,0,B|292:140,1,70,8|0
256,72,229595,2,0,B|203:125,1,70
148,72,230017,1,0
132,148,230229,1,0
192,200,230440,1,0
180,276,230651,1,0
256,268,230862,6,0,B|260:312|216:348,1,70,12|0
172,380,231285,2,0,B|128:384|92:340,1,70
32,356,231707,1,0
32,356,231919,2,0,B|104:312|112:232,1,140
32,236,232553,2,0,B|38:169|110:125,2,140,8|0|8
176,184,233820,1,0
240,144,234031,1,0
256,192,234243,12,0,236778
256,148,236989,6,2,B|256:112,4,35
256,224,237623,1,4
