osu file format v12

[General]
AudioFilename: BoA-Everlasting.mp3
AudioLeadIn: 2000
PreviewTime: 64720
Countdown: 0
SampleSet: Normal
StackLeniency: 0.3
Mode: 0
LetterboxInBreaks: 0

[Editor]
DistanceSpacing: 1.2
BeatDivisor: 4
GridSize: 8

[Metadata]
Title:Everlasting
TitleUnicode:Everlasting
Artist:BoA
ArtistUnicode:BoA
Creator:kanpakyin
Version:Normal
Source:
Tags:Andrea osuplayer111
BeatmapID:230048
BeatmapSetID:83264

[Difficulty]
HPDrainRate:3
CircleSize:4
OverallDifficulty:3
ApproachRate:4
SliderMultiplier:1.4
SliderTickRate:1

[Events]
//Background and Video events
0,0,"BG.jpg",0,0
//Break Periods
//Storyboard Layer 0 (Background)
//Storyboard Layer 1 (Fail)
//Storyboard Layer 2 (Pass)
//Storyboard Layer 3 (Foreground)
//Storyboard Sound Samples
//Background Colour Transformations
3,100,163,162,255

[TimingPoints]
673,810.810810810811,4,2,1,20,1,0
4727,-100,4,2,1,5,0,0
4919,-100,4,2,1,20,0,0
11203,-100,4,2,1,5,0,0
11406,-100,4,2,1,20,0,0
12825,-100,4,2,1,5,0,0
13027,-100,4,2,1,20,0,0
39591,-100,4,1,1,20,0,0
39693,-100,4,2,1,25,0,0
41213,-100,4,1,1,20,0,0
41314,-100,4,2,1,25,0,0
42835,-100,4,1,1,20,0,0
42936,-100,4,2,1,25,0,0
44456,-100,4,1,1,20,0,0
44558,-100,4,2,1,25,0,0
46078,-100,4,1,1,20,0,0
46179,-100,4,2,1,25,0,0
47700,-100,4,1,1,20,0,0
47801,-100,4,2,1,25,0,0
49321,-100,4,1,1,20,0,0
49423,-100,4,2,1,25,0,0
50943,-100,4,1,1,20,0,0
51044,-100,4,2,1,25,0,0
52564,-100,4,1,1,20,0,0
52666,-100,4,2,1,25,0,0
54186,-100,4,1,1,20,0,0
54287,-100,4,2,1,25,0,0
55808,-100,4,1,1,20,0,0
55909,-100,4,2,1,25,0,0
57429,-100,4,1,1,20,0,0
57632,-100,4,2,1,25,0,0
59051,-100,4,1,1,20,0,0
59152,-100,4,2,1,25,0,0
60673,-100,4,1,1,20,0,0
60774,-100,4,2,1,25,0,0
62294,-100,4,1,1,20,0,0
62395,-100,4,2,1,25,0,0
63916,-100,4,2,1,40,0,0
64321,-100,4,1,1,40,0,0
64524,-100,4,2,1,40,0,0
65537,-100,4,2,2,50,0,1
65639,-100,4,2,1,50,0,1
66348,-100,4,2,0,50,0,1
66450,-100,4,1,1,40,0,1
67260,-100,4,2,1,50,0,1
68274,-100,4,1,1,30,0,1
68679,-100,4,1,1,40,0,1
68882,-100,4,2,1,50,0,1
69997,-100,4,1,1,30,0,1
70402,-100,4,1,1,40,0,1
70909,-100,4,2,1,50,0,1
71618,-100,4,1,1,30,0,1
71923,-100,4,1,1,40,0,1
72125,-100,4,2,1,50,0,1
74862,-100,4,1,1,30,0,1
75064,-100,4,1,1,40,0,1
75368,-100,4,2,1,50,0,1
77902,-100,4,1,1,50,0,1
78206,-100,4,2,0,50,0,1
78612,-100,4,2,1,50,0,1
79321,-100,4,2,0,50,0,1
79423,-100,4,1,1,40,0,1
80740,-100,4,2,1,50,0,1
81247,-100,4,1,1,30,0,1
81652,-100,4,1,1,40,0,1
81855,-100,4,2,1,50,0,1
82970,-100,4,1,1,40,0,1
83679,-100,4,1,1,30,0,1
83882,-100,4,2,1,50,0,1
84997,-100,4,2,2,35,0,1
85098,-100,4,2,1,50,0,1
86618,-100,4,1,1,40,0,1
86720,-100,4,2,1,50,0,1
87835,-100,4,1,1,30,0,1
88037,-100,4,1,1,40,0,1
88341,-100,4,2,1,50,0,1
90267,-100,4,1,1,40,0,1
90368,-100,4,2,1,50,0,1
90875,-100,4,1,1,40,0,1
91483,-100,4,2,2,50,0,1
92294,-100,4,2,0,50,0,1
92700,-100,4,1,0,40,0,1
93105,-100,4,2,1,50,0,1
93916,-100,4,2,0,50,0,1
94321,-100,4,1,0,40,0,1
94727,-100,4,2,1,50,0,1
95537,-100,4,2,0,50,0,1
96348,-100,4,2,1,50,0,1
97970,-100,4,1,2,40,0,1
98071,-100,4,1,1,30,0,1
98477,-100,4,2,1,50,0,1
98781,-100,4,2,0,50,0,1
98882,-100,4,2,1,50,0,1
99997,-100,4,1,1,40,0,1
100098,-100,4,2,0,55,0,1
100504,-100,4,1,1,40,0,1
101314,-100,4,2,1,50,0,1
102024,-100,4,2,0,50,0,1
102125,-100,4,2,1,50,0,1
103240,-100,4,1,1,40,0,1
103443,-100,4,2,0,50,0,1
103747,-100,4,2,1,50,0,1
104456,-100,4,2,2,50,0,1
105267,-100,4,2,0,50,0,1
105673,-100,4,1,1,30,0,1
105774,-100,4,2,1,50,0,1
106483,-100,4,1,1,30,0,1
106585,-100,4,2,0,50,0,1
106990,-100,4,2,1,50,0,1
107700,-100,4,1,1,40,0,1
108510,-100,4,2,0,50,0,1
108612,-100,4,2,1,50,0,1
109321,-100,4,1,1,40,0,1
109929,-100,4,2,1,50,0,1
110132,-100,4,2,0,50,0,1
110537,-100,4,2,1,50,0,1
110943,-100,4,1,1,40,0,0
111450,-100,4,2,1,50,0,0
112564,-100,4,2,2,35,0,0
113173,-100,4,2,1,50,0,0
113781,-100,4,2,0,50,0,0
113983,-100,4,2,1,50,0,0
117429,-100,4,1,1,40,0,0
117531,-100,4,2,1,50,0,0
118645,-100,4,1,1,40,0,0
118747,-100,4,2,2,35,0,0
119152,-100,4,2,1,50,0,0
123916,-100,4,2,1,10,0,0

[Colours]
Combo1 : 244,159,168
Combo2 : 191,249,134
Combo3 : 176,179,251

[HitObjects]
96,278,673,1,2,0:0:0:0:
96,278,1078,2,0,L|90:223,1,35,0|2,0:0|0:0,0:0:0:0:
421,311,2902,6,0,L|443:346,4,35,0|2|0|0|2,0:0|0:0|0:0|0:0|0:0,0:0:0:0:
411,296,3916,2,0,L|442:143,1,140,0|0,0:0|0:0,0:0:0:0:
470,80,5132,2,0,L|499:102,2,35,2|0|2,0:0|0:0|0:0,0:0:0:0:
216,99,6754,6,0,L|168:74,2,35,0|2|0,0:0|0:0|0:0,0:0:0:0:
109,300,9389,6,0,L|72:318,4,35,0|2|0|0|2,0:0|0:0|0:0|0:0|0:0,0:0:0:0:
147,316,10402,2,0,P|212:335|292:314,1,140,2|0,0:0|0:0,0:0:0:0:
353,277,11618,1,2,0:0:0:0:
353,277,12024,2,0,L|371:135,1,140
305,81,13240,5,0,0:0:0:0:
305,81,13645,2,0,L|229:61,1,70,2|0,0:0|0:0,0:0:0:0:
163,103,14456,2,0,L|137:22,2,70,2|0|2,0:0|0:0|0:0,0:0:0:0:
234,147,15673,1,0,0:0:0:0:
234,147,16078,2,0,B|266:188|251:254|196:272,1,140,2|2,0:0|0:0,0:0:0:0:
359,339,17700,6,0,B|392:320|392:320|443:353|495:325,2,140,2|2|2,0:0|0:0|0:0,0:0:0:0:
279,311,19727,2,0,L|270:346,2,35,0|0|2,0:0|0:0|0:0,0:0:0:0:
195,318,20537,2,0,P|160:329|123:326,1,70,0|2,0:0|0:0,0:0:0:0:
146,245,21348,2,0,P|110:233|82:199,1,70,0|2,0:0|0:0,0:0:0:0:
150,153,22159,1,0,0:0:0:0:
150,153,22564,2,0,B|107:120|108:53|149:16,2,140,2|2|2,0:0|0:0|0:0,0:0:0:0:
228,122,24591,1,0,0:0:0:0:
307,94,24997,5,2,0:0:0:0:
292,176,25402,1,0,0:0:0:0:
292,176,25808,1,2,0:0:0:0:
270,257,26213,1,0,0:0:0:0:
352,240,26618,6,0,B|417:240|417:240|430:234|430:234|501:234,2,140,2|2|2,0:0|0:0|0:0,0:0:0:0:
205,322,29051,2,0,P|138:328|65:277,1,140,2|2,0:0|0:0,0:0:0:0:
189,167,30673,2,0,P|256:161|329:212,1,140,2|2,0:0|0:0,0:0:0:0:
398,343,32294,1,2,0:0:0:0:
463,289,32700,5,0,0:0:0:0:
405,227,33105,2,0,B|391:178|438:136|412:70,1,140,2|2,0:0|0:0,0:0:0:0:
347,43,34321,1,0,0:0:0:0:
286,98,34727,2,0,P|217:112|149:75,1,140,2|2,0:0|0:0,0:0:0:0:
96,23,35943,1,0,0:0:0:0:
157,83,36348,6,0,L|172:232,1,140,2|2,0:0|0:0,0:0:0:0:
118,287,37564,1,0,0:0:0:0:
118,287,37970,1,2,0:0:0:0:
361,314,39186,6,0,L|384:352,2,35,2|0|0,0:0|0:0|0:0,0:0:0:0:
312,245,39997,1,0,0:0:0:0:
348,169,40402,2,0,B|368:131|342:69|342:69|393:95,2,140,8|0|8,0:0|0:0|0:0,0:0:0:0:
264,174,42429,2,0,L|185:174,1,70,2|0,0:0|0:0,0:0:0:0:
72,289,43645,5,8,0:0:0:0:
140,338,44051,2,0,L|184:338,2,35,0|0|0,0:0|0:0|0:0,0:0:0:0:
72,289,44862,1,2,0:0:0:0:
46,209,45267,2,0,B|55:146|55:146|51:138|51:138|61:57,1,140,8|0,0:0|0:0,0:0:0:0:
134,108,46483,6,0,L|144:20,2,70,2|8|2,0:0|0:0|0:0,0:0:0:0:
196,164,47700,2,0,P|271:169|324:124,1,140,0|8,0:0|0:0,0:0:0:0:
371,64,48916,1,2,0:0:0:0:
437,114,49321,2,0,B|425:164|450:210|450:210|440:233|395:223,1,140,0|8,0:0|0:0,0:0:0:0:
347,275,50537,2,0,L|365:319,2,35,2|0|0,0:0|0:0|0:0,0:0:0:0:
280,326,51348,2,0,L|269:363,2,35,2|0|8,0:0|0:0|0:0,0:0:0:0:
197,343,52159,6,0,L|168:363,2,35,2|0|0,0:0|0:0|0:0,0:0:0:0:
124,299,52970,1,2,0:0:0:0:
47,333,53375,2,0,B|33:285|33:285|49:222|38:180,1,140,8|0,0:0|0:0,0:0:0:0:
163,80,54997,5,8,0:0:0:0:
205,152,55402,1,2,0:0:0:0:
163,80,55808,2,0,P|105:49|26:62,2,140,0|8|0,0:0|0:0|0:0,0:0:0:0:
289,190,58240,1,8,0:0:0:0:
366,156,58645,5,2,0:0:0:0:
403,231,59051,1,0,0:0:0:0:
327,266,59456,1,2,0:0:0:0:
392,318,59862,2,0,P|363:342|317:340,2,70,8|2|0,0:0|0:0|0:0,0:0:0:0:
491,182,61483,5,8,0:0:0:0:
491,97,61889,1,2,0:0:0:0:
417,137,62294,2,0,B|350:147|341:106|251:123,1,140,0|8,0:0|0:0,0:0:0:0:
128,194,63916,5,8,0:0:0:0:
77,261,64321,2,0,L|44:280,2,35,0|0|8,0:0|0:0|0:0,0:0:0:0:
141,315,65132,5,8,0:3:0:0:
141,315,65537,2,0,B|181:304|181:304|227:327|291:308,1,140,4|4,0:0|0:0,0:0:0:0:
351,272,66754,1,0,0:0:0:0:
424,312,67159,1,0,0:0:0:0:
424,312,67970,5,8,0:0:0:0:
351,272,68375,1,0,0:0:0:0:
386,195,68781,2,0,P|400:162|398:119,1,70,0|2,0:0|0:0,0:0:0:0:
316,137,69591,2,0,P|301:106|272:84,1,70,8|0,0:0|0:0,0:0:0:0:
234,159,70402,2,0,P|200:147|145:154,1,70
187,228,71213,6,0,L|99:224,2,70,8|0|4,0:0|0:0|0:0,0:0:0:0:
230,299,72429,1,0,0:0:0:0:
230,299,72835,2,0,B|261:345|334:338|363:283,1,140,8|2,0:0|0:0,0:0:0:0:
438,183,74456,5,2,0:0:0:0:
382,119,74862,1,0,0:0:0:0:
438,183,75267,1,4,0:0:0:0:
383,247,75673,1,2,0:0:0:0:
328,183,76078,2,0,P|269:178|240:182,2,70,8|2|2,0:0|0:0|0:0,0:0:0:0:
383,247,77294,2,0,L|402:292,2,35,0|8|8,0:0|0:0|0:0,0:0:0:0:
320,303,78105,5,4,0:3:0:0:
320,303,78510,2,0,B|247:293|264:331|167:317,1,140,6|4,0:0|0:0,0:0:0:0:
108,279,79727,1,0,0:0:0:0:
36,322,80132,2,0,L|5:244,2,70,0|0|8,0:0|0:0|0:0,0:0:0:0:
108,365,81348,1,0,0:0:0:0:
183,327,81754,6,0,P|201:255|164:196,1,140,2|8,0:2|0:0,0:0:0:0:
230,141,82970,2,0,P|198:121|152:121,1,70
94,161,83781,1,0,0:0:0:0:
23,114,84186,6,0,B|0:158|0:158|29:204|0:254,2,140,8|4|8,0:0|0:0|0:0,0:0:0:0:
87,60,86213,1,0,0:0:0:0:
158,103,86618,2,0,P|226:122|288:92,1,140,2|10,0:2|0:0,0:0:0:0:
332,164,87835,1,0,0:0:0:0:
288,233,88240,5,4,0:0:0:0:
371,236,88645,1,2,0:0:0:0:
417,165,89051,1,8,0:0:0:0:
377,90,89456,1,2,0:0:0:0:
292,90,89862,6,0,L|222:88,1,70,6|0,0:0|0:0,0:0:0:0:
203,77,90470,2,0,L|191:44,3,35,8|8|8|4,0:0|0:0|0:3|0:3,0:0:0:0:
109,62,91483,6,0,P|128:115|97:189,1,140,6|4,0:0|0:0,0:0:0:0:
20,224,92700,1,0,0:0:0:0:
96,264,93105,2,0,P|90:332|132:388,1,140,6|4,0:0|0:0,0:0:0:0:
203,344,94321,1,0,0:0:0:0:
283,368,94727,6,0,L|442:356,1,140,6|4,0:0|0:0,0:0:0:0:
480,296,95943,1,2,0:0:0:0:
433,226,96348,2,0,L|281:238,1,140,6|8,0:0|0:0,0:0:0:0:
221,200,97564,1,8,0:0:0:0:
221,200,97767,2,0,L|187:215,1,35,8|4,0:0|0:2,0:0:0:0:
229,287,98375,5,0,0:0:0:0:
229,287,98781,2,0,P|176:327|97:299,1,140,4|6,0:0|0:0,0:0:0:0:
61,241,99997,1,0,0:0:0:0:
41,159,100402,2,0,B|53:110|27:91|27:91|49:61|43:27,1,140,4|0,0:0|0:0,0:0:0:0:
119,65,101618,5,2,0:0:0:0:
193,102,102024,1,6,0:0:0:0:
270,134,102429,1,2,0:0:0:0:
337,84,102835,1,6,0:0:0:0:
347,167,103240,2,0,L|396:167,5,35,0|0|4|0|8|8,0:0|0:0|0:0|0:0|0:0|0:0,0:0:0:0:
416,151,104456,6,0,B|470:224|400:291,1,140,4|4,0:0|0:0,0:0:0:0:
343,327,105673,2,0,L|271:326,1,70,0|6,0:0|0:0,0:0:0:0:
197,289,106483,1,0,0:0:0:0:
140,351,106889,2,0,P|112:290|141:220,1,140,4|6,0:0|0:2,0:0:0:0:
197,289,108105,1,0,0:0:0:0:
197,289,108510,2,0,P|225:230|185:144,1,140,4|6,0:0|0:2,0:0:0:0:
137,109,109727,6,0,L|98:127,2,35,0|0|4,0:0|0:0|0:0,0:0:0:0:
199,52,110537,2,0,L|168:28,2,35,8|8|4,0:0|0:0|0:0,0:0:0:0:
282,63,111348,2,0,L|354:63,1,70,0|8,0:0|0:0,0:0:0:0:
416,114,112159,1,2,0:0:0:0:
371,185,112564,2,0,P|422:202|483:168,2,105,4|4|4,0:0|0:0|0:0,0:0:0:0:
256,192,113983,12,6,116618,0:0:0:0:
144,182,117429,6,0,L|136:90,2,70,0|2|8,0:0|0:0|0:0,0:0:0:0:
194,249,118645,1,0,0:0:0:0:
132,306,119051,2,0,L|17:295,2,105,4|2|4,0:0|0:0|0:0,0:0:0:0:
256,192,120470,12,6,123916,0:0:0:0:
