osu file format v12

[General]
AudioFilename: BoA-Everlasting.mp3
AudioLeadIn: 2000
PreviewTime: 64720
Countdown: 0
SampleSet: Soft
StackLeniency: 0.3
Mode: 0
LetterboxInBreaks: 0

[Editor]
DistanceSpacing: 1.1
BeatDivisor: 4
GridSize: 8

[Metadata]
Title:Everlasting
TitleUnicode:Everlasting
Artist:BoA
ArtistUnicode:BoA
Creator:kanpakyin
Version:Insane
Source:
Tags:Andrea osuplayer111
BeatmapID:230046
BeatmapSetID:83264

[Difficulty]
HPDrainRate:6
CircleSize:4
OverallDifficulty:6
ApproachRate:7
SliderMultiplier:1.6
SliderTickRate:1

[Events]
//Background and Video events
0,0,"BG.jpg",0,0
//Break Periods
//Storyboard Layer 0 (Background)
//Storyboard Layer 1 (Fail)
//Storyboard Layer 2 (Pass)
//Storyboard Layer 3 (Foreground)
//Storyboard Sound Samples
//Background Colour Transformations
3,100,163,162,255

[TimingPoints]
673,810.810810810811,4,2,1,20,1,0
5537,-200,4,2,1,20,0,0
6145,-200,4,2,1,5,0,0
6551,-200,4,2,1,20,0,0
6863,-100,4,2,1,20,0,0
7564,-100,4,2,1,5,0,0
7767,-100,4,2,1,20,0,0
10402,-200,4,2,1,20,0,0
11010,-200,4,2,1,5,0,0
11416,-200,4,2,1,20,0,0
11618,-100,4,2,1,20,0,0
36348,-133.333333333333,4,2,1,20,0,0
38578,-133.333333333333,4,2,1,15,0,0
38781,-133.333333333333,4,1,1,20,0,0
38983,-100,4,2,1,25,0,0
39591,-100,4,1,1,20,0,0
39794,-100,4,2,1,25,0,0
42835,-100,4,1,1,20,0,0
43037,-100,4,2,1,25,0,0
44456,-100,4,1,1,20,0,0
44659,-100,4,2,1,25,0,0
46078,-100,4,1,1,20,0,0
46281,-100,4,2,1,25,0,0
49321,-100,4,1,1,20,0,0
49524,-100,4,2,1,25,0,0
50943,-100,4,1,1,20,0,0
51145,-100,4,2,1,25,0,0
52564,-100,4,1,1,20,0,0
52767,-100,4,2,1,25,0,0
54186,-100,4,1,1,20,0,0
54389,-100,4,1,1,15,0,0
54693,-100,4,2,1,25,0,0
57429,-100,4,1,1,20,0,0
57632,-100,4,2,1,25,0,0
59051,-100,4,1,1,20,0,0
59254,-100,4,2,1,25,0,0
60673,-100,4,1,1,20,0,0
60875,-100,4,2,1,25,0,0
62294,-100,4,1,1,20,0,0
62497,-100,4,2,1,25,0,0
63916,-66.6666666666667,4,2,1,40,0,0
64321,-66.6666666666667,4,1,1,40,0,0
64727,-66.6666666666667,4,2,1,50,0,0
64929,-66.6666666666667,4,1,1,40,0,0
65335,-66.6666666666667,4,2,1,50,0,0
65537,-66.6666666666667,4,2,2,50,0,1
66348,-66.6666666666667,4,2,0,50,0,1
66754,-66.6666666666667,4,1,0,40,0,1
66956,-66.6666666666667,4,2,0,50,0,1
67159,-66.6666666666667,4,1,1,40,0,1
67767,-66.6666666666667,4,2,1,50,0,1
68375,-66.6666666666667,4,1,1,30,0,1
68477,-66.6666666666667,4,2,1,50,0,1
68781,-66.6666666666667,4,1,1,40,0,1
68983,-66.6666666666667,4,2,1,50,0,1
69997,-66.6666666666667,4,1,1,30,0,1
70200,-66.6666666666667,4,2,1,50,0,1
70402,-66.6666666666667,4,1,1,50,0,1
71010,-66.6666666666667,4,2,1,50,0,1
71618,-66.6666666666667,4,1,1,30,0,1
71720,-66.6666666666667,4,2,1,50,0,1
72024,-66.6666666666667,4,2,2,40,0,1
72227,-66.6666666666667,4,2,1,50,0,1
73240,-66.6666666666667,4,1,1,40,0,1
73443,-66.6666666666667,4,2,1,50,0,1
74051,-66.6666666666667,4,1,1,40,0,1
74254,-66.6666666666667,4,2,1,50,0,1
74862,-66.6666666666667,4,1,1,40,0,1
75064,-66.6666666666667,4,2,1,50,0,1
75267,-66.6666666666667,4,2,2,50,0,1
75673,-66.6666666666667,4,1,2,40,0,1
75875,-66.6666666666667,4,2,2,50,0,1
76078,-66.6666666666667,4,2,1,50,0,1
76483,-66.6666666666667,4,1,1,40,0,1
76686,-66.6666666666667,4,2,1,50,0,1
76889,-66.6666666666667,4,1,1,40,0,1
77091,-66.6666666666667,4,2,1,50,0,1
77294,-66.6666666666667,4,1,1,40,0,1
77395,-66.6666666666667,4,2,1,50,0,1
77902,-66.6666666666667,4,1,1,40,0,1
78510,-66.6666666666667,4,1,2,40,0,1
78713,-66.6666666666667,4,2,1,50,0,1
78916,-66.6666666666667,4,1,1,40,0,1
79118,-66.6666666666667,4,2,0,50,0,1
79524,-66.6666666666667,4,1,1,40,0,1
79929,-66.6666666666667,4,2,1,50,0,1
80132,-66.6666666666667,4,1,1,40,0,1
80335,-66.6666666666667,4,2,1,50,0,1
80537,-66.6666666666667,4,1,1,40,0,1
80740,-66.6666666666667,4,2,1,50,0,1
81348,-66.6666666666667,4,1,1,40,0,1
81551,-66.6666666666667,4,2,1,50,0,1
81754,-66.6666666666667,4,1,0,40,0,1
81855,-66.6666666666667,4,1,1,40,0,1
82362,-66.6666666666667,4,2,1,50,0,1
82970,-66.6666666666667,4,1,1,30,0,1
83071,-66.6666666666667,4,2,1,50,0,1
83375,-66.6666666666667,4,1,1,40,0,1
83578,-66.6666666666667,4,2,1,50,0,1
83781,-66.6666666666667,4,1,1,40,0,1
83983,-66.6666666666667,4,2,1,50,0,1
84591,-66.6666666666667,4,1,1,40,0,1
84693,-66.6666666666667,4,2,1,50,0,1
84997,-66.6666666666667,4,1,0,40,0,1
85048,-66.6666666666667,4,2,1,50,0,1
85402,-66.6666666666667,4,1,1,40,0,1
85504,-66.6666666666667,4,2,1,50,0,1
86213,-66.6666666666667,4,1,1,35,0,1
86314,-66.6666666666667,4,2,1,50,0,1
86618,-66.6666666666667,4,1,1,40,0,1
87125,-66.6666666666667,4,2,1,50,0,1
87835,-66.6666666666667,4,1,1,40,0,1
88240,-66.6666666666667,4,2,0,60,0,1
88291,-66.6666666666667,4,1,1,40,0,1
88848,-66.6666666666667,4,2,1,50,0,1
89456,-66.6666666666667,4,1,1,40,0,1
89659,-66.6666666666667,4,2,0,50,0,1
89963,-66.6666666666667,4,2,1,50,0,1
90875,-66.6666666666667,4,1,1,50,0,1
91483,-100,4,2,2,60,0,1
92294,-50,4,1,0,50,0,1
92395,-50,4,2,1,60,0,1
92700,-100,4,1,1,50,0,1
92902,-100,4,2,1,50,0,1
93105,-100,4,1,1,40,0,1
93206,-100,4,2,1,50,0,1
93916,-50,4,2,0,60,0,1
94321,-100,4,1,1,40,0,1
94524,-100,4,2,1,50,0,1
94727,-100,4,1,1,30,0,1
94828,-100,4,2,1,50,0,1
95537,-50,4,1,0,50,0,1
95639,-50,4,2,1,50,0,1
95943,-66.6666666666667,4,2,1,50,0,1
96348,-66.6666666666667,4,1,1,40,0,1
96450,-66.6666666666667,4,2,1,50,0,1
96754,-66.6666666666667,4,1,1,40,0,1
96855,-66.6666666666667,4,2,1,50,0,1
97159,-66.6666666666667,4,1,0,50,0,1
97260,-66.6666666666667,4,2,1,50,0,1
97564,-66.6666666666667,4,1,1,40,0,1
97970,-100,4,2,2,50,0,1
98781,-50,4,1,0,40,0,1
98882,-50,4,2,1,50,0,1
99186,-50,4,1,1,40,0,1
99287,-50,4,2,1,50,0,1
99591,-100,4,1,1,40,0,1
99693,-100,4,2,1,50,0,1
100402,-50,4,1,0,40,0,1
100504,-50,4,2,1,50,0,1
100808,-50,4,1,1,40,0,1
100909,-50,4,2,1,50,0,1
101213,-100,4,1,1,40,0,1
101314,-100,4,2,1,50,0,1
102024,-50,4,1,0,40,0,1
102125,-50,4,2,1,50,0,1
102429,-50,4,1,1,40,0,1
102531,-50,4,2,1,50,0,1
102835,-50,4,1,1,40,0,1
102936,-50,4,2,1,50,0,1
103240,-66.6666666666667,4,1,1,40,0,1
103645,-66.6666666666667,4,1,0,40,0,1
103747,-66.6666666666667,4,1,1,40,0,1
104456,-100,4,2,2,50,0,1
105267,-50,4,1,0,50,0,1
105368,-50,4,2,1,50,0,1
105673,-50,4,1,1,40,0,1
105875,-100,4,2,1,50,0,1
106078,-100,4,1,0,40,0,1
106179,-100,4,2,1,50,0,1
106889,-50,4,2,0,50,0,1
107294,-100,4,1,1,40,0,1
107395,-100,4,2,1,50,0,1
107700,-100,4,1,0,40,0,1
107801,-100,4,2,1,50,0,1
108510,-50,4,1,0,50,0,1
108612,-50,4,2,1,50,0,1
108916,-66.6666666666667,4,2,1,50,0,1
109321,-66.6666666666667,4,1,1,40,0,1
109423,-66.6666666666667,4,2,1,50,0,1
109727,-66.6666666666667,4,1,1,40,0,1
109828,-66.6666666666667,4,2,1,50,0,1
110537,-66.6666666666667,4,1,1,40,0,1
110943,-66.6666666666667,4,1,1,40,0,0
111044,-66.6666666666667,4,2,1,50,0,0
112159,-66.6666666666667,4,1,1,40,0,0
112260,-66.6666666666667,4,2,1,50,0,0
112564,-66.6666666666667,4,2,2,35,0,0
113173,-66.6666666666667,4,2,1,50,0,0
113274,-66.6666666666667,4,2,2,50,0,0
113781,-66.6666666666667,4,2,0,50,0,0
113882,-66.6666666666667,4,2,1,50,0,0
116618,-66.6666666666667,4,2,1,60,0,0
117429,-66.6666666666667,4,1,1,40,0,0
117531,-66.6666666666667,4,2,2,50,0,0
117835,-66.6666666666667,4,1,1,40,0,0
117936,-66.6666666666667,4,2,1,50,0,0
118645,-66.6666666666667,4,1,1,40,0,0
118747,-66.6666666666667,4,2,1,50,0,0
119051,-66.6666666666667,4,2,2,35,0,0
119152,-66.6666666666667,4,2,1,50,0,0
120267,-66.6666666666667,4,1,1,40,0,0
120368,-66.6666666666667,4,2,1,50,0,0
123916,-66.6666666666667,4,2,1,5,0,0

[Colours]
Combo1 : 244,159,168
Combo2 : 191,249,134
Combo3 : 176,179,251

[HitObjects]
189,213,673,1,2,0:0:0:0:
189,213,1078,1,0,0:0:0:0:
189,213,1281,1,2,0:0:0:0:
419,145,2902,6,0,B|424:100,1,40,0|2,0:0|0:0,0:0:0:0:
380,118,3308,2,0,L|370:73,1,40
333,100,3713,2,0,L|312:67,1,40,2|0,0:0|0:0,0:0:0:0:
407,344,5132,5,2,0:0:0:0:
407,344,5335,1,0,0:0:0:0:
407,344,5537,2,0,B|352:309|285:331,1,120,2|0,0:0|0:0,0:0:0:0:
250,345,6956,1,2,0:0:0:0:
209,363,7159,2,0,B|177:281,1,80
86,118,9389,6,0,B|103:163,4,40,0|2|0|0|2,0:0|0:0|0:0|0:0|0:0,0:0:0:0:
127,103,10402,2,0,B|186:79|256:106,1,120,0|0,0:0|0:0,0:0:0:0:
244,101,11821,1,2,0:0:0:0:
244,101,12024,1,0,0:0:0:0:
424,328,13240,5,0,0:0:0:0:
385,350,13443,1,0,0:0:0:0:
342,362,13645,2,0,B|299:373|243:359,2,80,2|0|2,0:0|0:0|0:0,0:0:0:0:
139,237,14862,5,0,0:0:0:0:
174,262,15064,1,0,0:0:0:0:
216,275,15267,2,0,B|257:294|305:284,2,80,2|0|2,0:0|0:0|0:0,0:0:0:0:
256,196,16483,1,0,0:0:0:0:
307,124,16889,6,0,B|338:70|320:-1,1,120,2|0,0:0|0:0,0:0:0:0:
298,44,17700,2,0,P|265:19|213:11,1,80,2|0,0:0|0:0,0:0:0:0:
197,127,18510,2,0,B|145:131|117:107|117:107|84:134|36:125,2,160,2|2|2,0:0|0:0|0:0,0:0:0:0:
157,205,20537,1,0,0:0:0:0:
203,279,20943,2,0,L|225:369,2,80,2|0|2,0:0|0:0|0:0,0:0:0:0:
384,338,22564,6,0,P|424:335|487:343,1,80,2|0,0:0|0:0,0:0:0:0:
466,196,23375,2,0,P|481:137|459:63,1,120,2|0,0:0|0:0,0:0:0:0:
468,80,24186,2,0,L|387:60,1,80,2|0,0:0|0:0,0:0:0:0:
485,273,24997,1,2,0:0:0:0:
390,152,25402,1,0,0:0:0:0:
390,152,25605,1,0,0:0:0:0:
390,152,25808,2,0,L|286:151,1,80,2|0,0:0|0:0,0:0:0:0:
176,253,26618,6,0,P|177:302|230:358,1,120,6|0,0:0|0:0,0:0:0:0:
257,328,27429,1,2,0:0:0:0:
186,174,27835,1,0,0:0:0:0:
85,310,28240,2,0,P|45:322|0:311,1,80,2|0,0:0|0:0,0:0:0:0:
47,192,29051,2,0,P|74:141|55:59,1,120,2|0,0:0|0:0,0:0:0:0:
35,110,29862,2,0,L|134:93,1,80,2|0,0:0|0:0,0:0:0:0:
201,85,30673,5,2,0:0:0:0:
288,73,31078,1,0,0:0:0:0:
288,73,31281,2,0,B|310:122|310:122|310:133|310:133|339:198,1,120
402,130,32294,2,0,L|440:209,1,80,2|0,0:0|0:0,0:0:0:0:
416,372,33105,2,0,L|362:249,1,120,6|0,0:0|0:0,0:0:0:0:
367,262,33916,2,0,P|324:250|277:264,1,80,2|0,0:0|0:0,0:0:0:0:
217,305,34727,1,2,0:0:0:0:
217,305,35537,5,2,0:0:0:0:
136,218,35943,1,0,0:0:0:0:
289,369,36348,2,0,P|309:309|284:242,1,120,2|0,0:0|0:0,0:0:0:0:
139,335,37564,1,0,0:0:0:0:
221,220,37970,2,0,P|209:178|222:132,1,90.0000034332277,0|4,0:0|0:3,0:0:0:0:
238,106,38781,1,0,0:0:0:0:
139,335,39186,6,0,L|124:277,2,40,2|0|0,0:0|0:0|0:0,0:0:0:0:
21,223,39997,1,2,0:0:0:0:
176,178,40402,1,8,0:0:0:0:
139,335,40808,5,2,0:0:0:0:
139,335,41010,1,0,0:0:0:0:
84,154,41416,1,0,0:0:0:0:
84,154,41618,1,2,0:0:0:0:
262,190,42024,2,0,P|301:196|359:180,1,80,8|2,0:0|0:0,0:0:0:0:
413,138,42835,5,0,0:0:0:0:
376,214,43240,1,2,0:0:0:0:
490,175,43645,2,0,P|501:129|484:74,1,80,8|2,0:0|0:0,0:0:0:0:
452,253,44456,2,0,P|441:321|462:369,1,120
495,340,45267,1,10,0:0:0:0:
356,297,45673,5,2,0:0:0:0:
336,310,45875,1,0,0:0:0:0:
315,323,46078,2,0,L|299:362,2,40,0|0|2,0:0|0:0|0:0,0:0:0:0:
156,150,46889,5,8,0:0:0:0:
101,80,47294,1,2,0:0:0:0:
101,80,47497,2,0,P|155:61|215:86,1,120,0|0,0:0|0:0,0:0:0:0:
141,234,48510,1,8,0:0:0:0:
33,130,48916,6,0,P|18:95|26:41,1,80,2|0,0:0|0:0,0:0:0:0:
226,207,49727,2,0,P|230:253|211:294,1,80,0|8,0:0|0:0,0:0:0:0:
155,151,50537,1,2,0:0:0:0:
155,151,50740,1,0,0:0:0:0:
155,151,50943,2,0,P|187:124|235:119,1,80,4|0,0:2|0:0,0:0:0:0:
141,234,51754,1,8,0:0:0:0:
74,89,52159,5,2,0:0:0:0:
67,74,52362,1,0,0:0:0:0:
60,59,52564,2,0,P|45:125|70:181,1,120
77,179,53375,2,0,P|46:153|-1:151,2,80,8|2|0,0:0|0:0|0:0,0:0:0:0:
7,233,54591,1,0,0:0:0:0:
71,292,54997,2,0,B|79:332|131:338|131:338|172:318|220:344,1,160,8|6,0:0|0:0,0:0:0:0:
467,295,56618,5,8,0:0:0:0:
404,233,57024,1,2,0:0:0:0:
489,211,57429,2,0,P|435:151|356:162,1,160,0|8,0:0|0:0,0:0:0:0:
279,298,58645,5,0,0:0:0:0:
403,233,59051,2,0,P|439:163|393:81,1,160,0|8,0:0|0:0,0:0:0:0:
327,61,60267,1,2,0:0:0:0:
246,96,60673,2,0,B|175:112|117:81|117:81|127:115,1,160,0|8,0:0|0:0,0:0:0:0:
458,262,61889,2,0,L|419:257,1,40,2|0,0:0|0:0,0:0:0:0:
344,293,62294,2,0,P|303:224|323:142,1,160,0|8,0:0|0:0,0:0:0:0:
70,327,63916,1,8,0:0:0:0:
170,192,64321,5,0,0:0:0:0:
200,113,64524,1,0,0:0:0:0:
170,192,64727,1,8,0:0:0:0:
199,270,64929,1,0,0:0:0:0:
273,309,65132,2,0,L|336:320,1,60.0000022888184,0|0,0:0|0:0,0:0:0:0:
481,247,65537,6,0,L|420:237,1,60.0000022888184,4|0,0:0|0:0,0:0:0:0:
348,192,65943,2,0,P|326:135|356:63,1,120.000004577637,2|4,0:0|0:0,0:0:0:0:
414,38,66551,1,0,0:0:0:0:
255,72,66754,2,0,L|197:60,1,60.0000022888184,2|0,0:2|0:0,0:0:0:0:
456,118,67159,2,0,P|495:79|497:15,1,120.000004577637
225,152,67970,5,8,0:0:0:0:
211,235,68173,1,0,0:0:0:0:
225,152,68375,1,0,0:2:0:0:
289,206,68578,1,0,0:0:0:0:
145,182,68781,2,0,P|128:244|162:302,1,120.000004577637,0|2,0:0|0:0,0:0:0:0:
229,322,69389,5,0,0:0:0:0:
225,152,69591,2,0,P|215:128|177:108,1,60.0000022888184,8|0,0:0|0:0,0:0:0:0:
289,206,69997,2,0,P|305:180|303:130,1,60.0000022888184,0|0,0:2|0:0,0:0:0:0:
211,235,70402,1,0,0:0:0:0:
211,235,70808,1,0,0:0:0:0:
211,235,71213,5,8,0:0:0:0:
339,273,71416,1,0,0:0:0:0:
198,204,71618,1,2,0:2:0:0:
353,300,71821,1,0,0:0:0:0:
192,360,72024,6,0,P|136:375|68:341,1,120.000004577637,4|2,0:0|0:0,0:0:0:0:
21,292,72632,1,0,0:0:0:0:
73,226,72835,2,0,L|84:87,2,120.000004577637,8|0|2,0:0|0:0|0:0,0:0:0:0:
156,82,73848,1,0,0:0:0:0:
156,82,74051,2,0,P|124:43|46:40,1,120.000004577637,0|2,0:0|0:0,0:0:0:0:
2,97,74659,5,0,0:0:0:0:
158,161,74862,2,0,L|222:161,1,60.0000022888184,0|0,0:0|0:0,0:0:0:0:
20,249,75267,5,6,0:0:0:0:
82,304,75470,2,0,L|63:375,1,60.0000022888184,0|2,0:0|0:2,0:0:0:0:
20,249,75875,1,0,0:0:0:0:
148,357,76078,2,0,L|224:333,1,60.0000022888184,8|0,0:0|0:0,0:0:0:0:
0,329,76483,5,2,0:2:0:0:
159,274,76686,2,0,L|131:216,1,60.0000022888184,0|2,0:0|0:2,0:0:0:0:
169,144,77091,1,2,0:0:0:0:
172,135,77193,1,2,0:0:0:0:
175,126,77294,1,0,0:0:0:0:
178,117,77395,1,0,0:0:0:0:
181,108,77497,1,8,0:0:0:0:
326,56,77700,5,8,0:0:0:0:
375,190,77902,1,8,0:3:0:0:
231,252,78105,2,0,P|228:318|266:370,1,120.000004577637,4|6,0:3|0:2,0:0:0:0:
333,330,78713,5,0,0:0:0:0:
413,355,78916,2,0,L|494:348,1,60.0000022888184
375,190,79321,6,0,P|395:137|369:73,1,120.000004577637,4|2,0:0|0:2,0:0:0:0:
297,112,79929,1,0,0:0:0:0:
219,78,80132,2,0,L|142:88,2,60.0000022888184,0|0|0,0:0|0:0|0:0,0:0:0:0:
90,187,80943,5,10,0:0:0:0:
168,217,81145,1,0,0:0:0:0:
137,295,81348,1,2,0:2:0:0:
59,263,81551,1,0,0:0:0:0:
90,187,81754,2,0,P|104:122|88:62,1,120.000004577637,4|0,0:2|0:0,0:0:0:0:
59,263,82362,1,0,0:0:0:0:
168,217,82564,2,0,B|227:234|233:204|298:225,2,120.000004577637,10|0|0,0:0|0:0|0:0,0:0:0:0:
137,295,83578,5,0,0:0:0:0:
59,263,83781,1,0,0:0:0:0:
23,186,83983,1,0,0:0:0:0:
58,109,84186,2,0,L|137:117,1,60.0000022888184,8|0,0:0|0:0,0:0:0:0:
268,82,84591,2,0,L|202:76,1,60.0000022888184,0|0,0:0|0:0,0:0:0:0:
356,53,84997,6,0,P|373:112|328:176,1,120.000004577637,4|0,0:2|0:0,0:0:0:0:
264,193,85605,1,0,0:0:0:0:
334,247,85808,2,0,P|321:314|352:363,1,120.000004577637,8|2,0:0|0:2,0:0:0:0:
348,162,86416,1,0,0:0:0:0:
404,300,86618,2,0,P|450:331|520:324,2,120.000004577637,6|0|14,0:2|0:0|0:0,0:0:0:0:
363,80,87835,5,0,0:0:0:0:
73,283,88240,2,0,P|79:217|75:139,1,120.000004577637,6|0,0:0|0:0,0:0:0:0:
458,47,89051,2,0,P|452:108|453:184,1,120.000004577637,14|0,0:0|0:0,0:0:0:0:
253,347,89862,1,6,0:0:0:0:
254,338,90267,5,0,0:0:0:0:
180,225,90470,1,10,0:0:0:0:
327,227,90673,1,10,0:0:0:0:
161,308,90875,5,8,0:3:0:0:
111,172,91078,1,8,0:3:0:0:
255,189,91281,1,4,0:3:0:0:
49,226,91483,6,0,P|30:168|61:107,1,120,4|2,0:0|0:0,0:0:0:0:
73,36,92294,6,0,P|38:37|0:59,1,80,4|0,0:2|0:0,0:0:0:0:
155,193,92700,1,0,0:0:0:0:
333,166,92902,5,0,0:0:0:0:
333,166,93105,2,0,P|353:113|330:43,1,120,6|2,0:2|0:0,0:0:0:0:
386,231,93916,6,0,P|350:252|304:244,1,80,4|0,0:0|0:0,0:0:0:0:
421,160,94321,1,0,0:0:0:0:
250,198,94524,5,0,0:0:0:0:
239,275,94727,2,0,P|221:333|252:392,1,120,6|2,0:2|0:0,0:0:0:0:
175,226,95537,6,0,P|139:204|92:208,1,80,4|0,0:2|0:0,0:0:0:0:
250,198,95943,6,0,P|271:141|241:72,1,120.000004577637,2|2,0:0|0:2,0:0:0:0:
181,43,96551,1,0,0:0:0:0:
253,86,96754,1,2,0:2:0:0:
100,66,96956,2,0,P|70:66|29:61,1,60.0000022888184,0|6,0:0|0:2,0:0:0:0:
175,227,97362,5,0,0:0:0:0:
261,7,97564,2,0,P|299:7|345:9,1,60.0000022888184
479,141,97970,6,0,P|495:208|470:258,1,120,4|2,0:0|0:0,0:0:0:0:
418,80,98781,2,0,P|451:59|507:64,1,80,4|0,0:2|0:0,0:0:0:0:
397,163,99186,1,0,0:0:0:0:
351,28,99389,1,0,0:0:0:0:
500,220,99591,6,0,P|516:287|491:337,1,120,6|2,0:2|0:0,0:0:0:0:
439,159,100402,2,0,P|472:138|528:143,1,80,4|0,0:2|0:0,0:0:0:0:
418,242,100808,1,0,0:0:0:0:
374,101,101010,1,0,0:0:0:0:
276,198,101213,6,0,P|215:199|170:160,1,120,6|2,0:2|0:0,0:0:0:0:
361,181,102024,2,0,L|339:257,1,80,4|0,0:2|0:0,0:0:0:0:
297,118,102429,1,2,0:2:0:0:
439,159,102632,1,0,0:0:0:0:
276,198,102835,1,2,0:2:0:0:
418,242,103037,1,0,0:0:0:0:
297,118,103240,6,0,L|318:47,1,60.0000022888184
338,257,103645,2,0,L|319:328,1,60.0000022888184,4|0,0:2|0:0,0:0:0:0:
276,198,104051,1,0,0:0:0:0:
213,143,104254,5,0,0:0:0:0:
213,143,104355,1,0,0:0:0:0:
213,143,104456,2,0,P|154:158|91:130,1,120,6|2,0:0|0:0,0:0:0:0:
12,98,105267,2,0,L|23:197,1,80,4|0,0:2|0:0,0:0:0:0:
86,52,105673,1,0,0:0:0:0:
103,225,105875,1,0,0:0:0:0:
247,131,106078,6,0,P|306:120|377:150,1,120,6|2,0:2|0:0,0:0:0:0:
420,203,106889,2,0,L|402:287,1,80,4|0,0:0|0:0,0:0:0:0:
446,124,107294,1,0,0:0:0:0:
331,215,107497,1,0,0:0:0:0:
500,194,107700,6,0,P|531:149|520:78,1,120,6|2,0:2|0:0,0:0:0:0:
446,124,108510,6,0,L|360:101,1,80,4|0,0:2|0:0,0:0:0:0:
416,203,108916,2,0,L|433:267,1,60.0000022888184,2|0,0:0|0:0,0:0:0:0:
318,344,109321,5,0,0:0:0:0:
238,315,109524,1,0,0:0:0:0:
159,286,109727,1,2,0:2:0:0:
171,368,109929,5,0,0:0:0:0:
305,259,110132,1,10,0:0:0:0:
146,204,110335,1,0,0:0:0:0:
171,368,110537,5,10,0:2:0:0:
225,230,110740,1,0,0:0:0:0:
73,256,110943,2,0,B|45:207|71:159|71:159|55:155|58:134,1,120.000004577637,4|2,0:0|0:0,0:0:0:0:
101,78,111551,5,0,0:0:0:0:
181,102,111754,1,8,0:0:0:0:
261,126,111956,2,0,L|282:67,1,60.0000022888184
191,189,112362,1,0,0:0:0:0:
344,147,112564,6,0,P|402:132|461:160,1,120.000004577637,4|0,0:0|0:0,0:0:0:0:
297,303,113173,2,0,P|237:315|184:283,1,120.000004577637,6|0,0:0|0:0,0:0:0:0:
261,126,113781,1,6,0:0:0:0:
256,192,113983,12,2,116618,0:0:0:0:
54,86,117024,5,6,0:0:0:0:
92,249,117429,2,0,L|29:249,2,60.0000022888184
167,211,118037,1,0,0:0:0:0:
223,273,118240,2,0,P|250:214|233:155,1,120.000004577637,8|0,0:0|0:0,0:0:0:0:
92,249,118848,1,0,0:0:0:0:
185,347,119051,6,0,P|249:355|290:321,1,120.000004577637,6|0,0:0|0:0,0:0:0:0:
90,167,119659,1,2,0:0:0:0:
276,155,119862,2,0,B|299:120|272:79|272:79|295:57|316:79,1,120.000004577637,8|6,0:0|0:2,0:0:0:0:
256,192,120470,12,6,123916,0:0:0:0:
