osu file format v5

[General]
AudioFilename: DuvetRemix.mp3
AudioLeadIn: 0
PreviewTime: 67919
Countdown: 1
SampleSet: Soft
StackLeniency: 0.7
Mode: 0
LetterboxInBreaks: 1
EditorDistanceSpacing: 1

[Metadata]
Title:Duvet Remix
Artist:BoA
Creator:Saturos-fangirl
Version:Losing
Source:Serial Experiments Lain
Tags:anime

[Difficulty]
HPDrainRate:8
CircleSize:7
OverallDifficulty:7
SliderMultiplier:2.4
SliderTickRate:1

[Events]
//Background and Video events
0,0,"lain.jpg"
//Break Periods
2,32719,41936
//Storyboard Layer 0 (Background)
//Storyboard Layer 1 (Failing)
//Storyboard Layer 2 (Passing)
//Storyboard Layer 3 (Foreground)
//Storyboard Sound Samples
//Background Colour Transformations
3,100,163,162,255

[TimingPoints]
5089,644.800756566221,4,1,0,41,1,0
10273,-100,4,2,1,89,0,0
18172,-100,4,1,0,60,0,0
19461,-100,4,2,1,89,0,0
28489,-100,4,1,0,60,0,0
29780,-100,4,2,1,65,0,0
55898,-100,4,2,0,73,0,0
56542,-100,4,2,1,89,0,0
61057,-100,4,2,0,90,0,0
61540,-100,4,2,1,89,0,0
64926,-100,4,2,1,71,0,0
66216,-100,4,2,0,90,0,0
66699,-100,4,2,1,89,0,0
81693,-100,4,2,0,91,0,0
82176,-100,4,2,1,89,0,0
91556,-100,4,2,1,91,0,0
92012,-100,4,2,0,91,0,0
92656,-100,4,2,1,89,0,0
97171,-100,4,2,0,91,0,0
98146,-100,4,2,1,89,0,0
100002,-100,4,2,1,90,0,0
131659,-100,4,1,0,66,0,0
133607,-100,4,2,1,91,0,0
141976,-100,4,1,0,70,0,0
142232,-100,4,2,1,89,0,0
142393,-100,4,1,0,70,0,0
142554,-100,4,2,1,91,0,0
142716,-100,4,1,0,70,0,0
142877,-100,4,2,1,90,0,0
143038,-100,4,1,0,71,0,0
143199,-100,4,2,1,91,0,0
148102,-100,4,2,0,30,0,0

[Colours]
Combo1 : 255,151,151
Combo2 : 128,128,255
Combo3 : 100,100,179
Combo4 : 0,64,128

[HitObjects]
136,80,5088,2,0,B|264:80,1,120,8|0
296,120,5572,1,0
344,160,5733,2,0,B|344:232,1,60,8|0
232,360,6378,6,0,B|104:360,1,120,8|0
72,320,6862,1,0
24,280,7023,2,0,B|24:208,1,60,8|0
200,192,7668,6,8,B|344:192,1,120,8|0
320,128,8151,1,0
320,192,8313,1,8
368,160,8474,1,0
440,320,8957,6,0,B|440:160,3,120,8|0|8|0
440,80,10247,6,0,B|352:176,1,120
336,288,10892,2,0,B|288:304|232:264|256:176,1,120
216,112,11537,1,0
264,80,11698,1,0
312,120,11859,1,8
251,228,12181,2,0,B|264:93,1,120,0|2
328,208,12826,5,0
384,176,12987,1,0
408,120,13149,1,8
392,64,13310,1,0
336,32,13471,1,0
296,72,13632,1,0
336,112,13793,1,0
256,200,14116,6,0,B|344:104,1,120
432,184,14761,2,0,B|336:296,1,120,0|8
256,344,15405,6,0,B|192:344,1,60
196,344,15728,2,0,B|120:336|88:288|80:224|96:160|136:128|184:104|232:120,1,360
304,208,17017,1,0
360,184,17179,1,0
344,128,17340,1,0
224,112,17662,2,0,B|336:176,1,120,8|0
256,264,18307,5,2
336,176,18629,1,2
416,88,18952,1,2
336,176,19274,2,0,B|224:88,2,120,2|0|8
336,296,20241,5,0
272,296,20403,1,0
304,240,20564,1,0
304,120,20886,1,8
184,120,21209,2,0,B|144:168,1,60
192,200,21531,1,0
312,200,21853,2,0,B|360:152,1,60
304,120,22176,1,8
248,224,22498,2,0,B|248:88,1,120,0|2
480,48,23465,5,8
480,168,23788,2,0,B|480:256|400:232,1,120
304,168,24433,2,0,B|308:82|388:106,1,120,0|8
480,168,25077,1,0
448,224,25239,1,0
392,240,25400,1,2
336,224,25561,1,0
304,168,25722,1,0
400,96,26045,6,0,B|352:32|280:56,1,120,8|0
192,112,26689,1,0
240,72,26851,1,0
296,52,27012,1,0
416,56,27334,1,8
356,160,27657,2,8,B|356:32,1,120,0|2
256,256,28624,5,2
320,152,28946,1,2
200,152,29269,1,2
256,48,29591,2,0,B|256:184,1,120,2|8
256,192,30236,12,4,32493
424,296,42809,6,0,B|384:344|354:244,1,60
376,296,43132,2,0,B|336:344|306:244,1,60,0|0
327,295,43454,2,0,B|258:184,1,120,8|0
263,193,43938,1,0
264,193,44099,2,0,B|224:145|194:245,1,60,0|0
216,193,44421,2,0,B|176:145|146:245,1,60,0|0
167,194,44744,2,0,B|98:305,1,120,8|0
224,296,45389,5,8
344,296,45711,1,0
344,232,45872,1,2
280,128,46195,1,2
280,184,46356,1,0
224,296,46678,1,8
104,296,47001,1,0
104,232,47162,1,2
168,128,47484,1,2
168,184,47645,1,0
168,64,47968,6,0,B|200:24|240:96,1,60
218,64,48290,2,0,B|320:160,1,120,0|8
216,240,48935,2,0,B|164:290,2,60
306,146,49580,2,0,B|368:87,2,60,0|0|8
216,240,50225,2,0,B|392:240,1,120,0|4
256,120,51192,5,8
344,32,51514,5,0
424,120,51837,1,0
472,232,52159,1,0
456,288,52320,1,0
400,320,52481,1,8
280,320,52804,1,0
344,216,53126,6,0,B|344:88,1,120,8|0
344,96,53610,1,0
224,96,53932,2,0,B|224:216,2,90,0|0|8
344,96,55061,1,0
284,200,55383,1,0
284,136,55544,1,0
284,72,55705,1,8
184,136,56028,5,4
284,136,56350,1,4
392,80,56673,5,0
496,136,56995,1,8
464,184,57156,1,0
408,200,57317,1,0
392,80,57640,1,0
328,88,57801,1,0
296,144,57962,1,0
408,200,58285,6,0,B|384:280|304:288|248:272,1,180,8|0
240,224,58929,1,0
192,256,59091,2,0,B|128:240|88:200|96:112,1,180,0|8
216,128,59897,2,0,B|352:128,1,120
216,128,60541,1,0
216,184,60703,1,0
160,152,60864,1,0
40,184,61186,5,0
40,120,61347,1,8
120,280,61831,5,0
224,344,62153,1,8
344,368,62476,1,0
400,352,62637,1,0
432,304,62798,1,0
432,184,63121,1,0
320,232,63443,6,0,B|192:232,1,120,8|0
200,232,63927,1,0
200,168,64088,1,0
200,104,64249,1,0
200,40,64410,2,0,B|304:40,2,60,0|0|8
80,40,65055,6,4,B|80:176,1,120,4|4
152,64,65700,2,4,B|152:208,1,120,4|4
264,240,66345,1,0
264,176,66506,1,8
264,56,66828,5,0
320,56,66989,1,0
416,128,67312,2,0,B|344:128,1,60,8|0
400,168,67634,2,0,B|464:168,1,60
416,208,67957,2,0,B|344:208,1,60
400,248,68279,2,0,B|464:248,1,60
416,288,68601,6,0,B|232:288,1,180,8|0
200,240,69246,1,0
160,192,69407,1,0
120,136,69569,2,0,B|280:136,1,120,0|8
352,136,70213,1,0
464,136,70536,1,0
352,136,70858,1,2
352,72,71019,1,0
224,72,71342,5,0
224,136,71503,1,2
224,136,71825,1,8
320,208,72148,5,0
256,304,72470,1,0
184,208,72793,1,0
144,160,72954,1,0
184,208,73115,1,8
240,208,73276,1,0
184,208,73437,2,0,B|112:336,2,120
240,104,74405,5,8
304,208,74727,5,0
264,256,74888,1,0
224,304,75049,2,0,B|224:160,1,120
184,72,75694,2,0,B|184:232,1,120,8|0
184,248,76178,1,0
184,304,76339,1,0
80,248,76661,5,0
80,184,76823,1,2
176,112,77145,1,2
232,112,77306,2,0,B|368:112,1,120,0|8
456,184,77951,1,0
456,240,78112,1,0
456,184,78273,1,0
456,184,78596,1,0
336,176,78918,2,0,B|280:136|216:160|176:248,1,180,2|0
256,192,79724,12,2,81497
256,288,81820,5,0
256,224,81981,1,8
256,40,82465,5,0
352,104,82787,1,8
424,200,83109,2,0,B|424:264|368:288,2,60
352,104,83754,1,0
256,40,84077,1,0
208,80,84238,1,0
184,136,84399,1,0
184,192,84560,1,0
240,168,84721,2,0,B|264:240|192:288,1,120,8|0
128,192,85366,5,8
256,192,85689,1,0
296,144,85850,1,0
232,136,86011,1,0
256,192,86172,1,0
296,232,86333,1,0
336,192,86495,1,0
296,144,86656,1,8
352,136,86817,1,0
408,144,86978,2,0,B|408:272,1,120,0|4
296,312,87623,5,0
256,200,87945,1,8
256,80,88268,2,0,B|160:144,2,60
256,80,88913,2,0,B|336:200,1,120,0|8
424,120,89557,1,0
504,208,89880,1,2
424,296,90202,1,0
368,264,90363,1,2
320,152,90686,1,0
376,176,90847,1,2
400,64,91169,5,8
376,176,91492,2,0,B|240:176,1,120
312,72,92137,1,8
248,72,92298,1,8
280,16,92459,1,8
280,136,92781,5,0
376,200,93104,2,0,B|240:200,1,120,8|0
144,240,93749,2,0,B|264:240,2,60
144,120,94393,2,0,L|88:144|144:176|88:208,1,180,8|0
96,320,95199,1,0
96,256,95361,2,0,B|128:232|160:264,2,60
216,256,96005,1,8
336,256,96328,1,0
392,256,96489,2,0,B|360:232|328:264,2,60
368,312,96973,1,0
368,192,97295,5,0
368,128,97456,1,8
304,24,97779,1,8
304,80,97940,1,0
184,80,98262,2,0,B|328:80,1,120,8|0
424,80,98907,1,0
424,136,99068,1,0
384,176,99229,1,0
304,80,99552,2,0,L|288:96|288:80|272:96|272:72|248:104|248:80|232:96|232:72|224:96|224:80|216:80,1,180,8|0
256,192,100358,12,2,102131
104,80,102453,5,0
160,80,102615,1,8
344,80,103098,5,0
392,112,103259,1,0
416,168,103421,1,8
392,224,103582,1,0
344,260,103743,1,0
296,224,103904,1,0
264,168,104065,1,0
296,112,104227,1,0
344,80,104388,1,0
344,80,104710,6,0,L|344:264,1,180,8|0
376,375,105516,1,0
376,376,105677,2,0,B|336:392|312:368,2,60
344,260,106322,1,0
344,136,106645,1,8
320,80,106806,2,0,B|348:50|384:88,3,60
256,128,107612,5,0
256,64,107773,1,8
88,128,108257,5,0
56,176,108418,1,0
115,176,108579,1,8
232,176,108901,1,0
260,228,109063,1,0
288,176,109224,1,0
352,72,109546,1,0
408,72,109707,1,0
379,124,109869,2,0,B|379:308,1,180,8|0
256,192,110675,12,2,112448
256,240,112770,5,0
256,176,112931,1,8
160,104,113254,1,0
216,104,113415,1,0
272,104,113576,2,0,B|400:104,1,120,2|0
296,176,114221,5,0
232,176,114382,2,0,L|184:176|152:208|192:208,1,120
240,208,114866,1,0
328,208,115027,1,0
416,208,115349,1,0
416,88,115672,5,8
320,152,115994,5,0
256,152,116155,1,0
192,152,116317,2,0,B|152:104|216:64,1,120
280,88,116800,1,0
312,32,116961,2,0,B|416:8|408:112,1,120,8|0
408,192,117606,1,0
288,192,117929,5,0
288,128,118090,1,8
112,80,118573,5,0
40,176,118896,2,0,B|16:240|16:232,1,60,8|0
17,231,119218,2,0,B|88:264,1,60
71,256,119541,2,0,B|96:200,1,60
95,201,119863,2,0,B|32:173,1,60
40,112,120185,1,8
160,112,120508,1,0
216,112,120669,1,0
256,192,120991,12,2,122765
256,288,123087,5,0
256,224,123248,1,8
256,40,123732,5,0
352,104,124054,1,8
424,200,124377,2,0,B|424:264|368:288,2,60
352,104,125021,1,0
256,40,125344,1,2
208,80,125505,1,0
184,136,125666,1,0
184,192,125827,1,0
240,168,125989,2,0,B|264:240|192:288,1,120,8|0
128,192,126633,5,8
256,192,126956,1,0
296,144,127117,1,0
232,136,127278,1,0
256,192,127439,1,0
296,232,127601,1,0
336,192,127762,1,0
296,144,127923,1,8
352,136,128084,1,0
408,144,128245,2,0,B|408:272,1,120,0|2
296,312,128890,5,0
256,200,129213,1,8
256,80,129535,2,0,B|175:200,1,120
256,152,130019,1,0
256,80,130180,2,0,B|336:200,1,120,0|8
320,104,130663,1,0
256,80,130825,2,0,B|256:248,1,120,0|4
472,304,131792,6,2,B|448:368|408:376|352:368,1,120
368,248,132437,1,2
376,128,132759,2,0,B|312:96|256:112|192:168|232:256|280:280|344:272|376:208|336:152|296:192,1,360,2|0
256,72,134049,5,0
256,192,134371,1,8
360,128,134693,2,0,B|432:128,2,60
240,128,135338,1,0
296,128,135499,1,0
240,128,135661,1,8
200,88,135822,1,0
240,128,135983,1,0
208,176,136144,1,0
240,128,136305,1,4
296,24,136628,5,0
384,104,136950,2,0,B|504:192,1,120,8|0
408,272,137595,1,0
312,200,137917,2,0,B|360:160,1,60
312,200,138240,2,0,B|256:160,1,60,8|0
312,200,138562,2,0,B|312:264,1,60
312,200,138885,2,0,B|312:72,1,120,4|0
208,16,139529,5,8
416,136,140174,1,0
336,224,140497,1,0
240,144,140819,1,0
192,112,140980,1,0
240,144,141141,1,0
240,264,141464,1,8
240,144,141786,1,0
336,192,142109,5,2
368,144,142270,1,0
368,80,142431,1,2
336,32,142592,1,0
272,32,142753,1,2
240,80,142915,1,0
240,144,143076,1,2
272,192,143237,1,0
304,248,143398,2,0,B|304:376,1,120,8|0
256,192,143882,12,2,146945
200,192,147589,6,8,B|376:192,1,120,8|8
