osu file format v9

[General]
AudioFilename: 08 Adrenaline (iHoneyJoo.com).mp3
AudioLeadIn: 0
PreviewTime: 37611
Countdown: 0
SampleSet: Soft
StackLeniency: 0.7
Mode: 0
LetterboxInBreaks: 1

[Editor]
Bookmarks: 23833
DistanceSpacing: 1.1
BeatDivisor: 3
GridSize: 8

[Metadata]
Title:Adrenaline
Artist:BoA
Creator:ouranhshc
Version:Insane
Source:
Tags:HURRICANE VENUS Roddie Beuchi-chan

[Difficulty]
HPDrainRate:7
CircleSize:4
OverallDifficulty:8
ApproachRate:8
SliderMultiplier:2.2
SliderTickRate:1

[Events]
//Background and Video events
0,0,"BOA_hurricane_venus_wallpaper_by_ENPDOT.jpg"
//Break Periods
//Storyboard Layer 0 (Background)
//Storyboard Layer 1 (Fail)
//Storyboard Layer 2 (Pass)
//Storyboard Layer 3 (Foreground)
//Storyboard Sound Samples
//Background Colour Transformations
3,100,254,255,225

[TimingPoints]
2056,444.444444444444,4,2,0,100,1,0
33611,-100,4,2,0,60,0,0
34648,-100,4,2,0,70,0,0
35537,-100,4,2,0,80,0,0
36426,-100,4,2,0,90,0,0
37611,-100,4,2,0,100,0,1
48278,-100,4,2,0,100,0,0
62204,-100,4,2,0,70,0,0
65167,-100,4,2,2,100,0,0
66204,-100,4,2,0,100,0,0
76278,-100,4,2,0,60,0,0
77315,-100,4,2,0,70,0,0
78204,-100,4,2,0,80,0,0
79093,-100,4,2,0,90,0,0
79833,-100,4,2,2,100,0,0
80426,-100,4,2,0,100,0,0
90648,-100,4,2,0,60,0,0
92426,-100,4,1,0,80,0,0
93315,-100,4,2,0,100,0,0
94500,-100,4,2,0,100,0,1
105167,-100,4,2,0,100,0,0
122055,-100,4,2,2,100,0,0
122870,-100,4,2,0,100,0,0
128278,-100,4,2,0,70,0,0
129759,-100,4,2,0,100,0,0
133463,-100,4,2,0,70,0,0
135537,-100,4,1,0,70,0,0
136870,-100,4,2,0,100,0,0
137167,-100,4,2,0,100,0,1
147833,-100,4,2,0,100,0,0
164722,-100,4,2,2,100,0,0
165611,-100,4,2,0,100,0,1
176278,-100,4,2,0,80,0,0

[Colours]
Combo1 : 159,255,255
Combo2 : 255,164,164
Combo3 : 145,255,145
Combo4 : 255,167,79

[HitObjects]
256,56,9463,1,2
176,56,9611,2,0,B|176:120|256:176|312:128|336:80,1,220,2|0
496,264,10500,1,2
336,272,10796,2,0,B|336:336|256:392|200:344|176:296,1,220,2|0
256,272,11389,1,2
256,112,11685,2,0,B|160:112|160:208|64:208,1,220,2|0
64,128,12278,1,2
64,128,12574,1,2
360,8,13167,6,0,B|304:16|280:88|328:144,1,146.666666666667,2|0
384,88,13611,2,0,B|417:133|384:201|310:206,1,146.666666666667,2|0
256,224,14055,1,2
128,320,14352,2,0,B|72:272|72:152|136:112,1,220,2|0
184,176,14944,1,2
256,320,15241,1,0
328,360,15389,2,0,B|352:288|296:224,1,146.666666666667,2|0
215,224,15833,2,0,B|160:288|184:360,1,146.666666666667,2|0
256,48,16722,5,4
424,224,17167,5,2
368,280,17315,1,0
296,312,17463,1,0
216,312,17611,1,2
144,280,17759,1,0
88,224,17907,2,0,B|24:224|-32:144|16:88|64:64,1,220,2|0
88,144,18500,2,0,B|240:144,1,146.666666666667,2|0
264,216,18944,2,0,B|320:200|328:128|296:88,1,146.666666666667,2|2
392,320,19685,5,2
312,344,19833,2,0,B|304:280|344:240|392:240,1,146.666666666667,2|0
392,320,20278,1,2
392,64,20574,5,2
312,40,20722,2,0,B|304:104|344:144|392:144,1,146.666666666667,2|0
392,64,21167,1,2
120,64,21463,5,2
200,40,21611,2,0,B|208:104|168:144|120:144,1,146.666666666667,2|0
120,64,22056,1,2
120,320,22352,5,2
200,344,22500,2,0,B|208:280|168:240|120:240,1,146.666666666667,2|0
120,320,22944,2,0,B|48:320|8:240|48:168|104:168,1,220,2|0
296,40,23833,6,0,B|296:112|224:176|136:136,1,220,2|2
256,248,24574,1,2
256,328,24722,1,2
256,168,25018,2,0,B|344:168|360:264|336:304|272:328,1,220,2|0
208,320,25611,2,0,B|56:320,1,146.666666666667,2|0
32,248,26055,2,0,B|184:248,1,146.666666666667,2|0
256,248,26500,1,2
416,248,26796,1,2
344,72,27833,6,0,B|192:72,1,146.666666666667,2|0
152,144,28278,2,0,B|304:144,1,146.666666666667,2|0
376,144,28722,2,0,B|440:160|456:200|448:256,1,146.666666666667,2|0
376,224,29167,2,0,B|224:224,1,146.666666666667,2|0
152,224,29611,2,0,B|88:240|72:280|80:336,1,146.666666666667,2|2
320,336,30352,1,2
320,336,30944,5,0
448,128,31389,5,2
376,160,31537,1,0
304,192,31685,1,0
232,224,31833,1,2
160,256,31981,1,0
88,288,32130,1,0
16,320,32278,2,0,B|16:168,1,146.666666666667,2|2
88,141,32722,2,0,B|88:288,1,146.666666666667,2|2
160,256,33167,2,0,B|160:104,1,146.666666666667,2|2
384,192,33907,5,2
456,152,34055,2,0,B|400:80|320:136,1,146.666666666667,2|0
304,208,34500,1,2
128,192,34796,5,2
56,232,34944,2,0,B|112:304|192:248,1,146.666666666667,2|0
208,176,35389,1,2
384,192,35685,5,2
456,232,35833,2,0,B|400:304|320:248,1,146.666666666667,2|0
304,176,36278,1,2
128,192,36574,5,0
56,152,36722,2,0,B|112:80|192:136,1,146.666666666667
208,208,37167,1,2
416,336,37611,6,0,B|320:344|312:256,1,146.666666666667,4|0
392,256,38055,2,0,B|392:104,1,146.666666666667,8|0
416,32,38500,2,0,B|320:24|312:112,1,146.666666666667
240,144,38944,2,0,B|88:144,1,146.666666666667,8|0
93,240,39389,2,0,B|240:240,1,146.666666666667
224,320,39833,2,0,B|312:328|328:232,1,146.666666666667,8|0
326,145,40278,2,0,B|312:56|224:64,1,146.666666666667
240,144,40722,1,8
112,240,41018,1,0
336,336,41463,5,0
256,336,41611,1,8
416,336,41907,1,0
336,336,42055,2,0,B|336:272|392:248|440:256,1,146.666666666667,0|0
432,176,42500,2,0,B|388:183|332:159|332:95,1,146.666666666667,8|0
416,96,42944,1,0
256,280,43389,1,8
256,120,43685,1,0
256,200,43833,6,0,B|200:192|160:248|168:296,1,146.666666666667
344,292,44278,2,0,B|352:248|312:192|256:200,1,146.666666666667,8|0
56,64,45018,5,0
40,144,45167,2,0,B|96:152|136:112|144:56,1,146.666666666667,8|0
224,64,45611,2,0,B|376:64,1,146.666666666667
408,136,46055,2,0,B|256:136,1,146.666666666667,8|0
184,136,46500,1,0
256,368,46944,1,8
256,208,47241,5,0
176,232,47389,2,0,B|208:304|304:304|328:248,1,146.666666666667
336,184,47833,2,0,B|304:112|208:112|184:168,1,146.666666666667,8|0
136,160,48278,5,2
56,296,48574,1,2
120,344,48722,2,4,B|344:344,2,220
296,184,49907,5,0
376,160,50055,1,2
456,296,50352,1,2
392,344,50500,2,4,B|168:344,2,220
256,144,51833,6,0,B|208:192|120:168|120:80,1,146.666666666667,2|0
200,88,52278,2,0,B|200:40|312:40|312:88,1,146.666666666667,10|0
256,144,52722,2,0,B|304:192|392:168|392:80,1,146.666666666667,2|0
464,136,53167,2,0,B|464:288,1,146.666666666667,10|0
464,360,53611,1,2
256,232,54055,5,4
256,384,54352,2,4,B|36:384,1,220
256,144,55389,6,0,B|304:192|392:168|392:80,1,146.666666666667,2|0
312,88,55834,2,0,B|312:40|200:40|200:88,1,146.666666666667,10|0
256,144,56278,2,0,B|208:192|120:168|120:80,1,146.666666666667,2|0
48,136,56723,2,0,B|48:288,1,146.666666666667,10|0
48,360,57167,1,2
256,232,57611,5,4
256,384,57908,2,4,B|476:384,1,220
472,64,58944,6,0,B|472:128|416:160|368:152,1,146.666666666667,2|0
392,72,59389,2,0,B|240:72,1,146.666666666667,10|0
288,152,59833,2,0,B|136:152,1,146.666666666667,2|0
168,72,60278,2,0,B|104:64|65:96|56:152,1,146.666666666667,10|0
56,224,60722,1,2
256,360,61167,5,4
416,360,61463,2,4,B|496:144,1,220
200,24,62500,5,2
56,96,62796,1,2
56,96,62944,1,10
56,288,63241,1,2
56,288,63389,1,2
200,360,63685,1,2
200,360,63833,1,10
200,192,64130,2,0,L|216:192|224:200|232:184|240:200|248:184|256:200|264:184|272:200|280:184|288:200|296:184|304:192|360:192,1,220,2|0
408,192,64722,2,0,B|408:344,1,146.666666666667,10|0
328,336,65167,6,0,B|328:256,2,73.3333333333333
248,336,65611,2,0,B|248:256,2,73.3333333333333
168,336,66055,1,0
64,120,66500,6,0,B|216:120,1,146.666666666667,2|0
301,120,66944,2,0,B|448:120,1,146.666666666667,2|0
416,192,67389,1,2
360,344,67685,2,0,B|304:384|208:384|152:344,1,220,2|0
192,272,68278,1,2
320,272,68574,1,2
256,224,68722,2,0,B|256:72,1,146.666666666667,2|0
464,192,69463,1,2
144,248,70055,6,0,B|136:328|216:368,1,146.666666666667,2|0
299,366,70500,2,0,B|376:328|368:248,1,146.666666666667,2|0
256,32,71241,2,0,B|256:256,1,220,2|0
256,336,71833,2,0,B|184:328|168:280|168:232,1,146.666666666667,2|0
256,248,72278,1,2
392,336,72574,2,0,B|392:112,1,220,2|0
472,120,73167,6,0,B|472:272,1,146.666666666667,2|0
472,344,73611,1,2
392,336,73759,1,0
312,344,73907,1,2
256,288,74055,2,0,B|256:136,1,146.666666666667,2|0
32,40,74796,6,0,B|32:128|136:160|192:80,1,220,2|0
114,48,75389,1,2
256,120,75685,1,0
320,72,75833,2,0,B|360:152|272:208,1,146.666666666667,2|0
80,328,76574,5,2
160,328,76722,2,0,B|312:328,1,146.666666666667,2|0
384,328,77167,1,2
80,240,77463,5,2
160,240,77611,2,0,B|312:240,1,146.666666666667,2|0
384,240,78056,1,2
80,144,78352,5,2
160,144,78500,2,0,B|312:144,1,146.666666666667,2|0
384,144,78945,1,2
80,56,79241,5,0
160,56,79389,2,0,B|312:56,1,146.666666666667
384,56,79833,2,0,B|464:56,3,73.3333333333333
496,296,80722,5,2
256,344,81167,1,2
176,200,81463,2,0,B|200:128|256:120|312:128|336:200,1,220,2|0
48,344,82500,6,0,B|48:192,1,146.666666666667,2|0
120,144,82944,2,0,B|120:296,1,146.666666666667,2|0
192,344,83389,2,0,B|192:192,1,146.666666666667,2|0
464,40,84278,6,0,B|464:192,1,146.666666666667,2|0
392,240,84722,2,0,B|392:88,1,146.666666666667,2|0
320,40,85167,2,0,B|320:192,1,146.666666666667,2|0
32,32,86055,5,2
32,192,86352,1,2
32,112,86500,1,2
32,272,86796,2,0,B|256:272,2,220,2|0|2
32,352,87833,1,2
256,40,88278,5,2
320,96,88426,1,0
296,176,88574,1,2
216,176,88722,1,2
192,96,88870,1,0
256,40,89018,1,2
320,96,89167,6,0,B|360:160|320:240,1,146.666666666667,2|0
192,240,89611,2,0,B|152:304|192:384,1,146.666666666667,2|0
256,312,90055,1,2
416,312,90352,1,2
472,80,90796,5,2
400,40,90944,2,0,B|360:128|256:96,1,146.666666666667,2|0
312,24,91389,1,2
40,80,91685,5,2
112,40,91833,2,0,B|152:128|256:96,1,146.666666666667,2|0
200,24,92278,1,2
136,272,92574,5,0
184,336,92722,2,0,B|336:336,1,146.666666666667,0|0
376,272,93167,1,0
256,168,93463,5,2
328,96,93611,2,0,B|176:96,1,146.666666666667,2|0
256,24,94055,2,0,B|256:176,1,146.666666666667,2|0
176,168,94500,6,0,B|176:224|224:256|280:248,1,146.666666666667
336,168,94944,2,0,B|336:112|288:80|232:88,1,146.666666666667,8|0
256,168,95389,2,0,B|256:224|208:256|152:248,1,146.666666666667
96,168,95833,2,0,B|96:112|144:80|200:88,1,146.666666666667,8|0
176,168,96278,2,0,B|176:224|224:256|280:248,1,146.666666666667
336,168,96722,2,0,B|336:112|288:80|232:88,1,146.666666666667,8|0
256,168,97167,2,0,B|256:224|304:256|360:248,1,146.666666666667
416,168,97611,2,0,B|416:112|368:80|312:88,1,146.666666666667,8|0
40,232,98352,5,0
88,296,98500,2,0,B|240:296,1,146.666666666667,8|0
264,224,98944,2,0,B|112:224,1,146.666666666667
152,152,99389,2,0,B|304:152,1,146.666666666667,8|0
256,80,99833,1,0
392,296,100278,1,8
320,192,100574,1,0
376,136,100722,2,0,B|304:8,1,146.666666666667
207,8,101167,2,0,B|136:136,1,146.666666666667,8|0
256,344,101907,5,0
168,344,102055,2,0,B|152:296|208:248|256:256,1,146.666666666667,8|0
343,344,102500,2,0,B|360:296|304:248|255:256,1,146.666666666667
216,192,102944,2,0,B|168:120|216:56,1,146.666666666667,8|0
295,55,103389,2,0,B|344:120|296:192,1,146.666666666667
256,264,103833,1,8
112,192,104130,1,0
184,152,104278,2,0,B|336:152,1,146.666666666667
400,192,104722,1,8
256,352,105018,5,2
176,352,105167,2,0,B|96:344|72:264,1,146.666666666667,2|0
256,192,105611,8,4,106500
256,352,106796,5,2
336,352,106945,2,0,B|416:344|440:264,1,146.666666666667,2|0
256,192,107389,8,4,108278
40,48,108722,6,0,B|144:152,1,146.666666666667,2|0
168,72,109167,2,0,B|272:176,1,146.666666666667,10|0
192,200,109611,2,0,B|312:320,1,146.666666666667,2|0
328,232,110055,2,0,B|432:336,1,146.666666666667,10|0
344,352,110500,1,2
184,352,110796,5,0
104,352,110944,2,0,B|8:240,1,146.666666666667,4|4
264,352,111685,1,4
472,48,112278,6,0,B|368:152,1,146.666666666667,2|0
344,72,112723,2,0,B|240:176,1,146.666666666667,10|0
320,200,113167,2,0,B|200:320,1,146.666666666667,2|0
184,232,113611,2,0,B|80:336,1,146.666666666667,10|0
168,352,114056,1,2
328,352,114352,5,0
408,352,114500,2,0,B|504:240,1,146.666666666667,4|4
248,352,115241,1,4
256,32,115833,6,0,B|408:32,1,146.666666666667,2|0
480,32,116278,2,0,B|480:80|440:120|376:104,1,146.666666666667,10|0
296,104,116722,2,0,B|144:104,1,146.666666666667,2|0
72,104,117167,2,0,B|72:152|112:192|176:176,1,146.666666666667,10|0
256,176,117611,1,2
256,336,117907,5,0
256,256,118055,2,0,B|408:256,1,146.666666666667,4|4
176,256,118796,1,4
256,32,119241,1,0
208,96,119389,6,0,B|128:96,2,73.3333333333333,2|0|2
200,176,119833,2,0,B|112:184,2,73.3333333333333,2|0|2
192,256,120278,2,0,B|112:280,2,73.3333333333333,2|0|2
184,336,120722,2,0,B|112:368,2,73.3333333333333,2|0|2
328,336,121167,6,0,B|400:368,2,73.3333333333333,2|0|2
320,256,121611,2,0,B|400:280,2,73.3333333333333,2|0|2
312,176,122055,2,0,B|400:184,2,73.3333333333333
304,96,122500,2,0,B|384:96,2,73.3333333333333
256,32,122944,5,2
176,32,123093,1,0
96,32,123241,1,2
136,104,123389,1,2
216,104,123537,1,0
176,176,123685,1,2
176,256,123833,2,0,B|176:336,3,73.3333333333333,2|0|2|2
256,32,124722,5,2
336,32,124871,1,0
416,32,125019,1,2
376,104,125167,1,2
296,104,125315,1,0
336,176,125463,1,2
336,256,125611,2,0,B|336:336,3,73.3333333333333,2|0|2|2
160,192,126500,5,2
184,112,126648,1,0
256,72,126796,1,2
352,192,126944,5,2
328,272,127092,1,0
256,312,127240,1,2
260,197,127389,5,2
260,197,127537,1,0
260,197,127685,1,2
260,197,127833,1,2
32,32,128574,5,0
88,88,128722,1,0
32,240,129018,1,0
88,176,129167,2,0,B|216:96,1,146.666666666667
256,32,129611,1,0
496,32,130055,5,2
424,64,130204,1,0
416,144,130352,1,2
488,112,130500,5,2
424,64,130648,1,0
352,96,130796,1,2
416,144,130944,5,2
424,64,131093,1,0
360,16,131241,1,2
352,96,131389,5,2
16,32,131833,5,2
88,64,131982,1,0
96,144,132130,1,2
24,112,132278,5,2
88,64,132426,1,0
160,96,132574,1,2
96,144,132722,5,2
88,64,132871,1,0
152,16,133019,1,2
160,96,133167,5,2
296,296,133611,6,0,B|360:240,1,73.3333333333333,2|0
296,192,133907,1,2
216,296,134055,2,0,B|152:240,1,73.3333333333333,2|0
216,192,134352,1,2
256,120,134500,1,2
312,56,134648,1,0
256,0,134796,1,2
200,56,134944,2,0,B|56:232,1,220,2|0
160,352,135685,6,0,B|192:280,1,73.3333333333333
352,352,136130,1,0
322,284,136278,2,0,B|256:144,1,146.666666666667
216,224,136722,1,0
368,32,137167,6,0,B|456:48|448:144,1,146.666666666667,2|0
368,112,137611,2,0,B|216:112,1,146.666666666667,2|0
184,40,138055,1,2
144,112,138204,1,0
184,184,138352,1,0
104,200,138500,2,0,B|120:256|181:277|224:256,1,146.666666666667,2|0
264,192,138944,2,0,B|416:192,1,146.666666666667,2|0
488,192,139389,2,0,B|480:280|368:264,1,146.666666666667,2|0
304,264,139833,2,0,B|152:264,1,146.666666666667,2|0
157,345,140278,2,0,B|309:345,1,146.666666666667,2|0
480,184,141018,5,2
416,128,141167,2,0,B|312:24,1,146.666666666667,2|0
199,24,141611,2,0,B|96:128,1,146.666666666667,2|0
32,184,142055,2,0,B|32:336,1,146.666666666667,2|0
112,328,142500,1,2
256,136,142944,1,2
256,280,143241,1,0
216,208,143389,2,0,B|160:152|200:72,1,146.666666666667,2|0
312,73,143833,2,0,B|352:152|296:208,1,146.666666666667,2|0
80,312,144574,5,2
40,240,144722,2,0,B|136:120,1,146.666666666667,2|0
48,120,145167,2,0,B|136:248,1,146.666666666667,2|0
184,312,145611,2,0,B|336:312,1,146.666666666667,2|0
408,312,146055,1,2
304,96,146500,1,2
304,256,146796,1,2
376,176,146944,2,0,B|224:176,1,146.666666666667,2|0
304,96,147389,1,2
152,48,147685,5,2
80,80,147833,2,0,B|48:152|80:224,1,146.666666666667,2|0
256,192,148278,8,4,149167
360,336,149463,5,2
432,304,149611,2,0,B|464:232|432:160,1,146.666666666667,2|0
256,192,150055,8,4,150944
72,320,151389,6,0,B|224:320,1,146.666666666667,2|0
208,240,151833,2,0,B|128:208|136:120,1,146.666666666667,2|0
184,64,152278,2,0,B|256:32|328:64,1,146.666666666667,2|0
376,125,152722,2,0,B|384:208|304:240,1,146.666666666667,2|0
293,320,153167,1,2
88,192,153611,5,4
32,344,153907,2,4,B|32:120,1,220
440,320,154944,6,0,B|288:320,1,146.666666666667,2|0
304,240,155388,2,0,B|384:208|376:120,1,146.666666666667,2|0
328,64,155833,2,0,B|256:32|184:64,1,146.666666666667,2|0
135,125,156277,2,0,B|128:208|208:240,1,146.666666666667,2|0
218,320,156722,1,2
424,192,157166,5,4
480,344,157462,2,4,B|480:120,1,220
168,48,158500,6,0,B|64:152,1,146.666666666667,2|0
112,216,158944,2,0,B|216:112,1,146.666666666667,2|0
272,168,159389,2,0,B|168:272,1,146.666666666667,2|0
216,336,159833,2,0,B|320:232,1,146.666666666667,2|0
376,288,160278,1,2
144,360,160722,5,4
24,248,161018,2,4,B|24:24,1,220
344,40,162055,6,0,B|264:40,1,73.3333333333333,2|0
192,40,162352,1,2
152,112,162500,2,0,B|232:112,1,73.3333333333333,2|0
304,112,162796,1,2
344,184,162944,2,0,B|264:184,1,73.3333333333333,2|0
192,184,163241,1,2
152,256,163389,2,0,B|232:256,1,73.3333333333333,2|0
304,256,163685,1,2
344,328,163833,6,0,B|416:352,2,73.3333333333333,2|0|2
384,256,164278,2,0,B|464:256,2,73.3333333333333,2|0|2
344,184,164722,2,0,B|416:160,2,73.3333333333333
296,120,165167,1,0
256,48,165315,1,0
216,120,165463,1,0
168,184,165611,6,0,B|208:248,1,73.3333333333333,2|0
136,288,165907,1,0
208,328,166055,2,0,B|360:328,1,146.666666666667,10|0
432,328,166500,1,2
480,264,166648,1,0
400,256,166796,1,0
448,192,166944,2,0,B|448:40,1,146.666666666667,10|0
368,24,167389,6,0,B|368:104,2,73.3333333333333,2|0|0
288,24,167833,2,0,B|208:24,2,73.3333333333333,10|0|0
288,104,168278,1,2
224,152,168426,1,0
160,200,168574,1,0
96,248,168722,2,0,B|48:192|96:128|128:128,1,146.666666666667,10|0
160,200,169167,6,0,B|216:336,1,146.666666666667,2|0
296,335,169611,2,0,B|352:200,1,146.666666666667,10|0
256,200,170055,1,2
208,136,170204,1,0
256,72,170352,1,0
304,136,170500,1,10
256,376,170944,1,2
96,352,171241,6,0,B|40:296,1,73.3333333333333,2|8
40,136,171685,2,0,B|96:192,1,73.3333333333333,2|0
216,88,172130,1,2
296,88,172278,1,8
488,232,172722,6,0,B|464:304,2,73.3333333333333,2|0|0
488,152,173167,2,0,B|464:80,2,73.3333333333333,10|0|0
416,192,173611,2,0,B|352:192|352:192|328:240|288:240,1,146.666666666667,2|0
288,144,174055,2,0,B|249:143|225:191|225:191|161:191,1,146.666666666667,10|0
96,144,174500,5,2
136,72,174648,1,0
208,32,174796,1,0
304,32,174944,2,0,B|304:112,2,73.3333333333333,10|0|0
376,72,175389,2,0,B|376:152,1,73.3333333333333,2|0
424,208,175685,1,0
376,272,175833,1,10
136,328,176278,6,0,B|56:328,1,73.3333333333333,0|0
62,247,176574,1,2
62,166,176722,2,0,B|142:166,1,73.3333333333333,0|0
135,246,177018,1,2
208,288,177167,1,0
272,336,177315,1,2
280,256,177463,1,0
344,304,177611,2,0,B|392:248|328:144|264:168|216:200,1,220,0|2
256,192,178500,12,0,179833
