osu file format v9

[General]
AudioFilename: Nightcore - Adrenaline.mp3
AudioLeadIn: 11
PreviewTime: 72508
Countdown: 1
SampleSet: Normal
StackLeniency: 0.7
Mode: 0
LetterboxInBreaks: 1

[Editor]
Bookmarks: 46773
DistanceSpacing: 0.3
BeatDivisor: 1
GridSize: 8

[Metadata]
Title:Adrenaline (Nightcore Mix)
Artist:BoA
Creator:Anaxor
Version:Pro
Source:Nightcore
Tags:Adrenaline

[Difficulty]
HPDrainRate:9
CircleSize:5
OverallDifficulty:4
ApproachRate:7
SliderMultiplier:2.00000000596046
SliderTickRate:3

[Events]
//Background and Video events
0,0,"adrenaline.jpg"
//Break Periods
2,64086,70433
//Storyboard Layer 0 (Background)
//Storyboard Layer 1 (Fail)
//Storyboard Layer 2 (Pass)
//Storyboard Layer 3 (Foreground)
//Storyboard Sound Samples
//Background Colour Transformations
3,100,163,162,255

[TimingPoints]
7504.05956851434,354.609929078014,4,1,0,100,1,0
41360,-100,4,1,0,100,0,1
49977,-100,4,1,0,100,0,0
86856,-100,4,1,0,100,0,1
98248,-100,4,1,0,100,0,0
120965,-100,4,1,0,100,0,1
129120,-100,4,1,0,100,0,0

[HitObjects]
144,120,7504,1,4
144,120,7858,1,0
144,120,8080,5,0
144,120,8213,1,8
272,144,8567,5,0
272,144,8922,1,0
208,224,9276,5,8
208,224,9631,1,8
208,224,9986,1,8
416,152,10340,1,4
416,152,10695,1,0
416,152,10916,5,0
416,152,11049,1,8
272,144,11404,5,0
272,144,11758,1,0
208,224,12113,5,8
208,224,12468,1,8
208,224,12822,1,8
144,120,13177,1,0
144,120,13531,1,0
144,120,13753,5,0
144,120,13886,1,8
272,144,14240,5,0
272,144,14595,1,0
208,224,14949,5,8
208,224,15304,1,8
208,224,15660,1,8
184,328,16014,6,2,B|104:320|56:272|40:208,1,200.000000596046
256,264,16723,6,2,B|176:256|128:208|112:144,1,200.000000596046
328,200,17433,6,2,B|248:192|200:144|184:80,1,200.000000596046
400,144,18142,6,2,B|320:136|272:88|256:24,1,200.000000596046
184,136,18850,5,4
184,136,19204,1,0
328,136,19559,1,0
328,136,19913,1,0
160,184,20268,1,0
160,184,20623,1,0
352,184,20844,1,0
352,184,21199,1,0
208,272,21686,5,4
208,272,22041,1,0
344,264,22395,1,0
344,264,22750,1,0
176,168,22972,5,0
176,168,23105,1,8
176,168,23326,5,0
176,168,23681,1,0
144,120,24168,1,0
144,120,24523,1,0
144,120,24744,5,0
144,120,24877,1,8
272,144,25232,5,0
272,144,25587,1,0
208,224,25941,1,0
208,224,26296,1,0
208,224,26650,1,0
32,160,27362,6,2,B|96:160|136:120|160:72|144:16,1,200.000000596046
120,208,28071,6,2,B|184:208|224:168|248:120|232:64,1,200.000000596046
208,256,28780,6,2,B|272:256|312:216|336:168|320:112,1,200.000000596046
304,304,29489,6,2,B|368:304|408:264|432:216|416:160,1,200.000000596046
112,112,30199,5,4
351,61,30923,1,4
239,208,31618,1,4
475,249,32327,1,4
293,91,33036,1,4
97,230,33745,1,4
316,327,34454,1,4
88,144,35163,5,0
88,144,35281,1,0
88,144,35399,1,0
88,144,35517,1,0
88,144,35636,1,0
88,144,35754,1,0
88,144,35872,1,0
232,184,36227,5,0
404,233,36582,1,0
246,320,36936,1,0
81,268,37291,1,0
105,89,37645,1,0
253,189,38000,1,0
288,296,38709,6,2,B|432:192|472:160,1,200.000000596046
224,296,40128,6,6,B|136:192|80:120,1,200.000000596046
272,304,41546,5,0
72,296,41901,5,8
184,152,42255,5,0
392,104,42610,5,8
456,304,42965,5,0
280,184,43319,5,8
80,128,43674,5,0
128,328,44028,5,8
336,312,44383,5,0
432,128,44738,5,8
240,32,45092,5,0
248,208,45447,5,8
104,312,45801,5,0
64,136,46156,5,8
160,112,46511,5,0
208,104,46629,1,0
248,128,46747,1,0
248,176,46866,1,8
216,208,46984,1,0
168,200,47102,1,0
144,160,47220,1,0
256,336,47574,5,8
404,235,47929,5,0
272,112,48284,5,8
128,202,48638,5,0
208,288,48993,6,6,B|380:138,2,200.000000596046
256,192,50057,12,0,52184
144,120,52894,1,4
144,120,53248,1,0
144,120,53470,5,0
144,120,53603,1,8
272,144,53957,5,0
272,144,54312,1,0
208,224,54666,5,8
208,224,55021,1,8
208,224,55376,1,8
392,280,55730,1,4
392,280,56085,1,0
392,280,56306,5,0
392,280,56439,1,8
272,144,56794,5,0
272,144,57148,1,0
208,224,57503,5,8
208,224,57858,1,8
208,224,58212,1,12
144,120,58567,1,0
144,120,58921,1,0
144,120,59143,5,0
144,120,59276,1,8
272,144,59630,5,0
272,144,59985,1,0
208,224,60339,5,8
208,224,60694,1,8
208,224,61049,1,8
184,328,61404,6,2,B|104:320|56:272|40:208,1,200.000000596046
256,264,62113,6,2,B|176:256|128:208|112:144,1,200.000000596046
328,200,62823,6,2,B|248:192|200:144|184:80,1,200.000000596046
400,144,63532,6,2,B|320:136|272:88|256:24,1,200.000000596046
104,96,71333,5,0
328,96,71688,1,0
480,256,72043,1,0
464,40,72397,1,0
344,224,72752,1,0
176,80,73106,5,0
24,240,73461,1,0
240,208,73816,1,0
48,320,74170,1,0
272,320,74525,1,0
280,224,74879,1,0
448,80,75234,5,0
448,304,75589,1,0
296,144,75943,1,8
88,80,76298,1,0
152,288,76652,1,8
248,88,77007,1,0
344,288,77362,1,8
416,80,77716,5,0
240,208,78071,1,8
48,320,78426,1,0
64,104,78780,1,8
264,200,79135,1,0
448,312,79489,1,8
184,200,79844,5,0
200,141,79966,1,0
255,115,80084,1,0
310,142,80199,1,8
324,200,80320,1,0
287,246,80438,1,0
226,244,80557,1,0
440,192,80908,5,8
224,192,81262,1,0
56,48,81617,5,8
280,48,81972,1,0
128,208,82326,1,8
312,328,82681,1,0
456,160,83035,1,8
240,192,83390,1,0
256,296,84099,2,2,B|136:280|104:192|104:80|192:32|256:24,1,400.000001192092
256,296,85518,6,2,B|352:296|400:224|408:120|360:56|256:16,1,400.000001192092
104,88,86936,5,0
96,248,87291,1,0
184,88,87645,1,0
208,256,88000,1,0
312,88,88355,1,0
152,192,88709,6,6,B|256:192|360:192,2,200.000000596046
408,88,89773,5,0
400,272,90128,1,0
264,96,90482,1,0
248,256,90837,1,0
112,104,91192,1,0
360,192,91546,6,6,B|264:192|136:192,2,200.000000596046
224,48,92610,5,0
443,47,92965,1,0
472,264,93319,1,0
272,320,93674,1,0
82,191,94029,2,6,B|291:142,2,200.000000596046
256,192,95447,12,0,97929
256,192,98284,5,0
72,72,98638,1,8
152,280,98993,1,0
376,288,99348,1,8
160,280,99702,1,0
384,288,100057,5,8
376,72,100411,1,0
152,64,100766,1,8
328,192,101121,1,0
120,136,101475,1,8
304,256,101830,5,0
88,200,102184,1,8
256,56,102539,1,0
256,280,102894,1,8
456,192,103248,5,0
456,192,103366,1,0
456,192,103485,1,0
456,192,103603,1,8
456,192,103721,1,0
456,192,103839,1,0
456,192,103957,1,0
256,288,104312,5,8
56,192,104667,1,0
248,88,105021,1,8
248,312,105376,1,4
432,192,105731,5,8
216,200,106085,1,0
40,328,106440,1,8
256,336,106794,1,4
256,192,108213,5,4
416,192,109631,5,4
96,192,111050,5,4
256,72,112468,5,4
256,312,113887,5,4
256,192,115305,5,4
256,192,116723,5,4
40,40,118142,6,2,B|104:352|184:16|256:352|368:8|480:344,1,600.000001788138
32,320,119560,6,2,B|128:8|176:352|280:8|352:344|480:16,1,600.000001788138
257,315,120979,5,0
336,187,121333,5,8
174,190,121688,5,0
256,64,122043,5,8
338,188,122397,5,0
175,189,122752,5,8
257,314,123106,5,0
338,188,123461,5,8
175,189,123816,5,0
256,63,124170,5,8
176,190,124525,5,0
338,189,124879,5,8
259,313,125234,5,0
129,272,125589,6,6,B|328:229,2,200.000000596046
384,112,126652,5,0
72,176,127007,1,8
408,288,127362,5,0
408,288,127716,1,8
248,296,128071,1,0
176,248,128426,6,6,B|395:191,2,200.000000596046
80,72,129489,1,0
160,160,129844,1,8
232,64,130199,5,0
288,168,130553,1,8
352,72,130908,1,0
440,152,131262,1,8
224,192,131617,6,0,B|304:192,6,66.6666668653487
352,40,132681,5,8
456,96,133035,1,0
368,176,133390,1,8
464,248,133745,1,0
360,312,134099,5,8
264,240,134454,1,0
176,320,134809,1,8
72,256,135163,1,0
176,192,135518,1,8
72,136,135872,5,0
176,80,136227,1,8
64,40,136582,1,0
72,136,136936,1,8
346,114,137291,5,0
362,55,137413,1,0
417,29,137531,1,0
472,56,137646,1,8
486,114,137767,1,0
449,160,137885,1,0
388,158,138004,1,0
32,32,138355,5,8
184,128,138709,1,0
336,224,139064,1,8
480,328,139418,1,0
32,328,139773,5,8
184,240,140128,1,0
328,136,140482,1,8
472,32,140837,1,0
256,192,142255,12,4,146156
