osu file format v9

[General]
AudioFilename: Nightcore - Adrenaline.mp3
AudioLeadIn: 0
PreviewTime: 72508
Countdown: 1
SampleSet: Normal
StackLeniency: 0.7
Mode: 0
LetterboxInBreaks: 1

[Editor]
Bookmarks: 46773
DistanceSpacing: 0.4
BeatDivisor: 3
GridSize: 8

[Metadata]
Title:Adrenaline (Nightcore Mix)
Artist:BoA
Creator:Anaxor
Version:Insane
Source:Nightcore
Tags:Adrenaline

[Difficulty]
HPDrainRate:9
CircleSize:5
OverallDifficulty:5
ApproachRate:8
SliderMultiplier:2.00000000596046
SliderTickRate:3

[Events]
//Background and Video events
0,0,"adrenaline.jpg"
//Break Periods
2,28302,29490
2,64434,70576
2,108046,108869
//Storyboard Layer 0 (Background)
//Storyboard Layer 1 (Fail)
//Storyboard Layer 2 (Pass)
//Storyboard Layer 3 (Foreground)
//Storyboard Sound Samples
//Background Colour Transformations
3,100,163,162,255

[TimingPoints]
7504.05956851434,354.56801796478,4,1,0,100,1,0
41360,-100,4,1,0,100,0,1
49977,-100,4,1,0,100,0,0
86856,-100,4,1,0,100,0,1
98248,-100,4,1,0,100,0,0
120965,-100,4,1,0,100,0,1
129120,-100,4,1,0,100,0,0

[HitObjects]
31,192,7504,5,0
90,192,7858,1,0
118,139,8213,1,0
153,90,8567,1,0
188,138,8922,1,0
218,189,9276,1,0
278,188,9631,1,0
303,242,9986,1,0
333,293,10340,1,0
367,243,10695,1,0
396,191,11049,1,0
456,190,11404,1,0
255,184,11758,1,0
254,183,12113,1,0
183,200,12464,5,0
200,141,12586,1,0
255,115,12704,1,0
310,142,12822,1,0
324,200,12940,1,0
287,246,13058,1,0
226,244,13177,1,0
484,192,13531,5,0
423,190,13886,1,0
397,135,14240,1,0
363,85,14595,1,0
333,136,14949,1,0
306,190,15304,1,0
245,192,15659,1,0
223,247,16013,1,0
189,296,16368,1,0
157,244,16722,1,0
128,191,17077,1,0
68,195,17431,1,0
128,190,17774,1,0
376,72,18141,5,0
376,72,18259,1,0
376,72,18377,1,0
376,72,18495,1,0
376,72,18613,1,0
376,72,18732,1,0
376,72,18850,1,0
256,192,19204,5,0
195,191,19559,1,0
135,190,19913,1,0
74,190,20268,1,0
256,192,20623,1,0
315,192,20977,1,0
375,194,21332,1,0
434,190,21686,1,0
480,232,22041,1,0
440,280,22395,1,0
479,142,22750,1,0
441,95,23105,1,0
423,191,23459,1,0
176,64,23829,5,0
128,104,23947,1,0
80,144,24065,1,0
120,192,24183,1,0
168,232,24301,1,0
224,200,24420,1,0
272,160,24538,1,0
256,192,24656,12,0,28102
112,112,30240,5,4
351,61,30964,1,4
239,208,31659,1,4
475,249,32368,1,4
293,91,33077,1,4
97,230,33786,1,4
316,327,34495,1,4
88,144,35160,5,0
88,144,35278,1,0
88,144,35396,1,0
88,144,35514,1,0
88,144,35633,1,0
88,144,35751,1,0
88,144,35869,1,0
232,184,36224,5,0
404,233,36578,1,0
246,320,36933,1,0
81,268,37287,1,0
105,89,37642,1,0
253,189,37996,1,0
470,299,38706,6,6,B|251:259,1,200.000000596046
192,336,40124,6,6,B|379:214,1,200.000000596046
272,304,41542,5,0
72,296,41897,5,0
184,152,42251,5,0
392,104,42606,5,0
456,304,42960,5,0
280,184,43315,5,0
80,128,43669,5,0
128,328,44024,5,0
336,312,44379,5,0
432,128,44733,5,0
240,32,45088,5,0
248,208,45442,5,0
104,312,45797,5,0
64,136,46151,5,0
168,80,46506,5,0
224,96,46624,1,0
280,120,46742,1,0
264,176,46861,1,0
240,232,46979,1,0
184,224,47097,1,0
128,208,47215,1,0
256,336,47570,5,0
404,235,47924,5,0
272,112,48279,5,0
128,202,48633,5,0
208,288,48988,6,6,B|380:138,2,200.000000596046
256,192,50361,12,0,52888
256,350,53243,1,0
199,329,53597,1,0
147,298,53952,1,0
197,265,54307,1,0
256,257,54661,1,0
256,196,55016,1,0
312,176,55370,1,0
364,146,55725,1,0
314,112,56079,1,0
257,91,56434,1,0
257,30,56789,1,0
395,192,57143,1,0
96,191,57498,1,0
258,194,57852,5,0
258,194,57970,1,0
258,194,58089,1,0
258,194,58207,1,0
258,194,58325,1,0
258,194,58443,1,0
258,194,58561,1,0
483,65,58916,5,0
423,65,59270,1,0
362,67,59625,1,0
301,67,59980,1,0
226,193,60334,1,0
166,196,60689,1,0
106,194,61043,1,0
45,194,61398,1,0
303,319,61752,1,0
363,320,62107,1,0
423,321,62462,1,0
482,319,62816,1,0
482,319,63171,1,0
233,192,63525,5,0
281,192,63643,1,0
233,192,63762,1,0
281,192,63880,1,0
233,192,63998,1,0
281,192,64116,1,0
233,192,64234,1,0
48,33,71326,5,0
257,28,71680,1,0
467,33,72035,1,0
473,193,72390,1,0
471,351,72744,1,0
260,351,73099,1,0
50,350,73453,1,0
49,192,73808,1,0
257,193,74162,1,0
256,192,74517,1,0
442,41,74871,5,0
442,41,74990,1,0
442,41,75108,1,0
442,41,75226,1,0
442,41,75344,1,0
442,41,75462,1,0
442,41,75581,1,0
255,191,75935,5,0
254,40,76290,1,0
255,339,76644,1,0
405,191,76999,1,0
105,189,77353,1,0
255,191,77708,1,0
406,191,78063,1,0
258,42,78417,1,0
106,189,78772,1,0
255,338,79126,1,0
257,189,79481,1,0
106,190,79835,1,0
258,44,80190,1,0
183,200,80541,5,0
200,141,80663,1,0
255,115,80781,1,0
310,142,80899,1,0
324,200,81017,1,0
287,246,81135,1,0
226,244,81254,1,0
466,190,81608,5,0
255,192,81963,1,0
46,190,82317,1,0
258,345,82672,1,0
257,46,83027,1,0
113,238,84090,6,6,B|371:180,1,200.000000596046
405,211,85509,6,6,B|185:182,1,200.000000596046
396,84,86218,5,0
396,84,86336,1,0
396,84,86454,1,0
396,84,86572,1,0
396,84,86690,1,0
396,84,86809,1,0
396,84,86927,1,0
256,197,87281,5,0
443,47,87636,1,0
476,284,87990,1,0
249,365,88345,1,0
82,191,88700,2,6,B|291:142,2,200.000000596046
257,194,89763,5,0
137,282,90118,1,0
137,282,90472,1,0
377,100,90827,1,0
377,99,91182,1,0
141,277,91536,2,6,B|351:236,2,200.000000596046
256,193,92600,5,0
120,82,92954,1,0
120,82,93309,1,0
377,291,93664,1,0
377,291,94018,1,0
122,257,94373,2,6,B|328:216,2,200.000000596046
256,192,95082,12,8,97209
151,107,97564,5,0
188,135,97682,1,0
227,166,97800,1,0
267,195,97918,1,0
306,226,98037,1,0
346,255,98155,1,0
166,253,98273,5,0
142,194,98628,5,0
256,97,98982,1,0
370,194,99337,1,0
256,291,99691,1,0
143,191,100046,1,0
76,57,100400,1,0
257,192,100755,1,0
424,318,101110,1,0
417,78,101464,1,0
257,193,101819,1,0
84,312,102173,1,0
76,101,102528,1,0
257,194,102882,1,0
185,207,103233,5,0
202,148,103355,1,0
257,122,103473,1,0
312,149,103591,1,0
326,207,103709,1,0
289,253,103827,1,0
228,251,103946,1,0
32,322,104301,5,0
181,322,104655,1,0
331,322,105010,1,0
480,321,105364,1,0
332,217,105719,1,0
182,217,106073,1,0
31,217,106428,1,0
181,118,106783,1,0
330,116,107137,1,0
179,118,107492,1,0
328,118,107846,1,0
70,64,109619,5,4
437,64,110343,1,4
98,162,111038,1,4
457,137,111747,1,4
114,246,112456,1,4
472,216,113165,1,4
133,337,113874,1,4
432,347,114583,5,4
65,315,115307,1,4
414,266,116002,1,4
58,207,116711,1,4
416,177,117420,1,0
404,218,118085,6,6,B|163:192,1,200.000000596046
131,275,119503,6,6,B|353:230,1,200.000000596046
257,315,120965,5,0
336,187,121320,5,0
174,190,121674,5,0
256,64,122029,5,0
338,188,122383,5,0
175,189,122738,5,0
257,314,123092,5,0
338,188,123447,5,0
175,189,123802,5,0
256,63,124156,5,0
176,190,124511,5,0
338,189,124865,5,0
259,313,125220,5,0
129,272,125575,6,6,B|328:229,2,200.000000596046
129,271,126638,5,0
384,112,126993,5,0
114,113,127347,5,0
362,281,127702,5,0
63,311,128056,5,0
176,248,128411,6,6,B|395:191,2,200.000000596046
256,192,129475,12,0,132312
256,193,133021,5,4
256,319,133745,1,4
384,193,134440,1,4
256,66,135149,1,4
129,193,135858,1,0
256,319,136566,5,4
256,73,137290,1,4
386,192,137985,1,4
146,193,138694,1,4
257,334,139403,1,0
257,192,140112,1,0
256,192,142594,12,4,145549
