osu file format v9

[General]
AudioFilename: 198) Blur - Song 2 [1997].mp3
AudioLeadIn: 0
PreviewTime: -1
Countdown: 1
SampleSet: Soft
StackLeniency: 0.7
Mode: 0
LetterboxInBreaks: 1

[Editor]
DistanceSpacing: 1.2
BeatDivisor: 4
GridSize: 8

[Metadata]
Title:Song 2
Artist:Blur
Creator:ibavnoci
Version:Hard
Source:Blur
Tags:Rock 90's

[Difficulty]
HPDrainRate:9
CircleSize:4
OverallDifficulty:8
ApproachRate:8
SliderMultiplier:1.6
SliderTickRate:3

[Events]
//Background and Video events
0,0,"BG.jpg"
//Break Periods
2,37218,43915
2,77938,81383
//Storyboard Layer 0 (Background)
//Storyboard Layer 1 (Fail)
//Storyboard Layer 2 (Pass)
//Storyboard Layer 3 (Foreground)
//Storyboard Sound Samples
//Background Colour Transformations
3,100,163,162,255

[TimingPoints]
7663,462.962962962963,4,2,0,78,1,0
15040,462.249614791988,4,1,0,78,1,0
15050,-66.6666666666667,4,1,1,78,0,1
18622,-66.6666666666667,4,1,1,78,0,0
29849,462.962962962963,4,2,0,78,1,0
29849,-133.333333333333,4,2,0,78,0,0
44643,462.249614791988,4,2,0,78,1,0
44643,-66.6666666666667,4,1,1,78,0,1
49381,-66.6666666666667,4,1,1,78,0,0
70568,462.60601387818,4,2,0,78,1,0
70568,-133.333333333333,4,2,0,78,0,0
85351,462.249614791988,4,2,0,78,1,0
85351,-66.6666666666667,4,1,1,78,0,1
88471,-66.6666666666667,4,1,1,78,0,0
96444,-100,4,1,1,78,0,0
100142,-66.6666666666667,4,1,1,78,0,0
103840,-66.6666666666667,4,1,1,78,0,1

[Colours]
Combo1 : 255,255,0
Combo2 : 5,240,5
Combo3 : 5,5,240
Combo4 : 255,0,0
Combo5 : 255,150,0

[HitObjects]
128,96,7894,2,0,B|88:136|112:176,1,80
216,264,8473,1,0
264,264,8588,2,0,B|304:248|296:192,1,80
320,104,9051,1,0
288,336,9514,5,0
416,288,9744,1,0
288,224,9975,1,0
416,176,10206,1,0
288,112,10668,1,0
288,112,10899,1,0
288,112,11130,1,0
360,288,11598,6,0,B|379:256|339:216,1,80
256,336,12177,1,0
208,336,12292,2,0,B|168:320|176:264,1,80
264,240,12755,1,0
192,64,13209,1,0
144,104,13441,1,0
96,152,13672,1,0
56,200,13903,1,0
448,64,15075,5,0
304,112,15271,1,0
160,64,15502,2,0,B|96:112|112:176|176:192,1,119.999996423721,8|0
256,256,15964,1,0
400,208,16195,1,0
480,336,16426,2,0,B|432:400|368:384|352:320,1,119.999996423721,8|0
256,256,16888,5,0
400,208,17120,1,0
256,256,17353,1,8
400,208,17584,1,0
288,128,17816,1,0
288,128,17931,1,0
288,128,18047,1,0
112,224,18278,1,8
112,224,18509,1,0
256,224,18740,6,0,B|320:288,2,59.9999982118607
400,136,19202,2,0,B|352:184,2,59.9999982118607,8|0|0
248,64,19664,2,0,B|296:112,2,59.9999982118607
144,192,20126,2,0,B|208:144,2,59.9999982118607,8|0|0
328,120,20588,5,0
328,264,20819,1,0
216,176,21050,1,8
96,256,21281,1,0
104,112,21512,1,0
216,16,21743,1,0
216,112,21973,2,0,B|216:232,2,119.999996423721
304,224,22668,5,0
160,256,22899,2,0,B|112:208|176:128,1,119.999996423721,8|0
304,144,23361,1,0
432,72,23592,1,0
288,104,23822,2,0,B|275:182|340:199,1,119.999996423721,8|0
304,336,24285,5,0
160,336,24516,1,0
96,144,24747,1,8
240,144,24978,1,0
240,144,25092,1,0
240,144,25207,1,0
384,144,25440,1,0
304,336,25671,1,8
160,208,26133,5,0
200,168,26365,1,0
240,128,26596,1,8
280,88,26827,1,0
232,264,27058,5,0
272,224,27289,1,0
312,184,27520,1,8
352,144,27751,1,0
216,104,27982,6,0,B|156:74|101:106,1,119.999996423721,0|0
104,248,28445,2,0,B|162:281|218:249,1,119.999996423721,8|0
216,104,28907,2,0,B|274:70|330:102,1,119.999996423721,0|0
336,248,29369,2,0,B|280:279|216:248,1,119.999996423721,8|0
152,152,29831,5,0
152,152,30093,1,0
224,152,30324,2,0,B|264:144|288:112,1,59.9999982118607
336,88,30774,2,0,B|376:64|416:96,1,59.9999982118607
440,136,31248,2,0,B|456:160|440:208,1,59.9999982118607
400,248,31700,1,0
344,296,31932,1,0
280,264,32163,1,0
280,192,32395,2,0,B|312:184|344:136|320:88,1,119.999996423721
248,96,33097,2,0,B|184:96,1,59.9999982118607
72,168,33784,5,0
120,224,34015,2,0,B|152:264|112:288,1,59.9999982118607
56,280,34477,2,0,B|24:240|64:216,1,59.9999982118607
120,224,34939,2,0,B|152:264|112:288,1,59.9999982118607
176,328,35401,1,0
248,328,35632,1,0
320,328,35863,1,0
320,256,36094,2,0,B|200:256,1,119.999996423721
200,256,36787,1,0
200,256,37018,1,0
184,280,44665,5,0
40,280,44874,1,0
168,208,45105,2,0,B|224:288|136:352,1,119.999996423721,8|0
304,264,45567,2,0,B|376:296|448:248,1,119.999996423721
304,96,46029,5,8
168,48,46260,1,0
304,96,46492,1,0
440,48,46723,1,0
304,96,46954,1,8
376,288,47185,2,0,B|320:240|232:304,1,119.999996423721
128,288,47647,5,0
88,256,47762,1,0
80,200,47878,1,8
128,64,48109,2,0,B|192:112|264:56,1,119.999996423721
384,72,48571,1,0
464,192,48802,1,8
320,184,49033,1,0
280,216,49149,1,0
224,224,49264,1,0
248,64,49495,6,0,B|200:112|248:184,2,119.999996423721,0|8|0
112,120,50188,1,0
240,192,50419,1,0
104,240,50651,1,8
232,304,50882,1,0
376,304,51113,2,0,B|424:240|360:176,1,119.999996423721
264,96,51575,5,8
296,56,51690,1,0
352,48,51806,1,0
424,176,52037,2,0,B|336:160|304:232,1,119.999996423721
424,304,52499,2,0,B|336:320|304:248,1,119.999996423721,8|0
184,216,52961,1,0
40,216,53192,1,0
112,88,53423,1,8
304,152,53654,1,0
256,288,53885,6,0,B|328:248|400:304,1,119.999996423721,0|0
456,168,54347,2,0,B|488:96|440:48,1,119.999996423721,0|0
304,40,54809,2,0,B|240:80|176:32,1,119.999996423721
88,136,55272,2,0,B|48:192|88:256,1,119.999996423721
216,192,55734,5,0
216,48,55965,1,0
336,128,56196,2,0,B|384:184|328:248,1,119.999996423721,8|0
464,304,56658,1,0
464,160,56889,1,0
336,224,57120,2,0,B|272:272|192:208,1,119.999996423721,8|0
136,120,57582,6,0,B|216:120,2,59.9999982118607
216,272,58044,2,0,B|216:208,2,59.9999982118607
56,320,58506,2,0,B|128:320,2,59.9999982118607
32,152,58968,2,0,B|32:216,2,59.9999982118607
192,48,59431,5,0
384,104,59662,1,0
192,168,59893,1,0
384,232,60124,1,0
304,40,60355,1,0
280,240,60586,1,0
224,104,60817,2,0,B|160:128|80:96,1,119.999996423721,8|0
56,240,61279,5,0
88,280,61394,1,0
144,288,61510,1,0
192,272,61626,1,0
224,232,61741,1,0
280,224,61857,1,0
312,184,61972,1,0
304,128,62088,1,0
264,96,62203,1,0
128,40,62434,6,0,B|168:104|128:160,1,119.999996423721
168,296,62896,1,8
368,320,63127,1,8
384,176,63358,6,0,B|416:96|368:40,1,119.999996423721,0|0
296,176,63821,2,0,B|224:216|168:168,1,119.999996423721,0|0
88,72,64283,2,0,B|168:24|248:104,1,119.999996423721,0|0
272,192,64745,2,0,B|224:256|296:328,1,119.999996423721,0|0
400,232,65207,2,0,B|450:185|402:121,1,119.999996423721,0|0
272,192,65669,2,0,B|224:256|296:328,1,119.999996423721,0|0
400,231,66131,2,0,B|450:185|404:124,1,119.999996423721,0|0
240,120,66593,1,0
96,136,66824,6,0,B|128:224|80:264,1,119.999996423721
216,320,67286,1,8
216,176,67517,1,0
248,32,67748,2,0,B|320:56|336:144,1,119.999996423721
456,176,68211,1,8
344,264,68442,1,0
352,64,68673,6,0,B|288:104|208:56,1,119.999996423721
96,96,69135,2,0,B|160:160|96:216,1,119.999996423721,8|0
240,264,69597,2,0,B|288:184|240:128,1,119.999996423721
120,192,70059,1,8
120,192,70290,1,0
232,96,70568,6,0,B|264:64|312:40|360:64|392:88|408:104,1,179.999994635582
408,200,71493,2,0,B|464:240,2,59.9999982118607
304,304,72418,1,0
256,248,72649,1,0
328,240,72880,1,0
232,312,73111,2,0,B|176:344|104:296,1,119.999996423721,2|0
88,240,73804,1,0
88,240,74035,1,0
208,80,74500,6,0,B|256:32,2,59.9999982118607,2|0|2
280,104,75194,2,0,B|328:160|400:112,1,119.999996423721
272,200,76119,1,0
328,248,76350,1,0
256,272,76581,1,0
344,176,76813,2,0,B|392:192|440:168|448:112,1,119.999996423721,2|0
448,64,77507,2,0,B|504:16,1,59.9999982118607
256,192,82133,12,0,84446
384,72,85351,5,0
264,152,85582,1,0
144,72,85813,2,0,B|64:88|72:176,1,119.999996423721,8|0
168,256,86275,1,0
264,152,86506,1,0
368,256,86737,2,0,B|448:240|440:152,1,119.999996423721,8|0
328,88,87199,5,0
312,48,87315,1,0
264,48,87431,1,0
184,88,87662,5,0
144,120,87777,1,0
152,168,87893,1,0
184,240,88124,5,0
208,272,88240,1,0
256,272,88355,1,0
328,240,88586,5,0
360,208,88702,1,0
344,168,88817,1,0
208,352,89048,6,0,B|160:296|216:224,1,119.999996423721
344,256,89511,2,0,B|384:208|344:136,1,119.999996423721,8|0
208,144,89973,2,0,B|176:88|232:32,1,119.999996423721
344,120,90435,1,8
176,232,90666,1,0
48,160,90897,5,0
48,160,91013,1,0
48,160,91129,1,0
184,104,91360,2,0,B|224:176|168:240,1,119.999996423721,8|0
376,160,91822,1,0
376,160,91938,1,0
376,160,92053,1,0
248,104,92284,2,0,B|208:176|264:240,1,119.999996423721,8|0
112,256,92746,5,0
272,312,92978,1,0
440,216,93209,1,8
312,40,93440,1,0
360,176,93671,2,0,B|304:128|240:184,1,119.999996423721
160,64,94133,1,8
248,176,94364,1,0
328,296,94595,6,0,B|328:224,2,59.9999982118607
232,272,95058,1,8
424,272,95289,1,0
328,240,95520,2,0,B|328:304,2,59.9999982118607
424,272,95982,1,8
232,272,96213,1,0
216,176,96444,6,0,B|200:112|152:96,1,80,0|0
80,112,96907,1,8
128,32,97138,1,0
224,48,97369,2,0,B|240:112|304:120,1,80,0|0
270,110,97831,1,8
270,110,98062,1,0
368,112,98293,2,0,B|424:152|392:216,1,80,0|0
384,272,98756,1,8
280,248,98987,2,0,B|224:224|168:264,1,80,0|0
136,176,99449,1,0
64,240,99680,2,0,B|8:192|64:144,1,80,8|0
88,88,100142,5,0
88,88,100374,1,0
232,88,100605,2,0,B|352:88,1,119.999996423721,8|0
352,232,101067,1,0
352,232,101298,1,0
208,232,101529,2,0,B|88:232,1,119.999996423721,8|0
184,344,101991,5,0
328,312,102223,1,0
184,248,102454,1,0
352,216,102685,1,0
184,144,102916,1,0
376,120,103147,1,0
184,40,103378,1,0
400,32,103609,1,0
456,168,103840,6,0,B|496:240|400:272,1,119.999996423721
320,312,104303,2,0,B|240:336|168:296,1,119.999996423721,8|0
64,264,104765,1,0
200,208,104996,1,0
72,152,105227,2,0,B|120:96|200:88,1,119.999996423721,8|0
304,144,105689,2,0,B|384:128|336:48,1,119.999996423721
480,96,106152,2,0,B|400:136|464:216,1,119.999996423721,8|0
384,320,106614,1,0
184,264,106845,1,0
48,304,107076,2,0,B|96:232|48:168,1,119.999996423721,8|0
160,88,107538,5,0
296,40,107770,1,0
272,184,108001,2,0,B|344:216|424:160,1,119.999996423721,8|0
320,304,108463,1,0
368,104,108694,1,0
232,64,108925,2,0,B|152:40|96:104,1,119.999996423721,8|0
56,216,109387,5,0
192,272,109619,1,0
328,328,109850,1,8
456,256,110081,2,0,B|464:176|440:120|368:56|304:40,1,239.999992847443
328,200,110774,1,8
176,72,111005,1,0
224,208,111236,6,0,B|264:272|216:336,1,119.999996423721
88,320,111699,2,0,B|49:270|87:208,1,119.999996423721,8|0
296,208,112161,2,0,B|336:272|288:336,1,119.999996423721
16,320,112623,2,0,B|-23:270|17:206,1,119.999996423721,8|0
184,104,113085,5,0
312,104,113317,1,0
160,104,113548,1,8
344,104,113779,1,0
136,104,114010,1,0
368,104,114241,1,0
248,240,114472,2,0,B|248:112,1,119.999996423721,8|0
376,184,114934,5,0
464,296,115166,1,0
320,296,115397,2,0,B|240:312|168:280,1,119.999996423721,8|0
112,184,115859,1,0
24,296,116091,1,0
168,296,116322,2,0,B|248:312|320:280,1,119.999996423721,8|0
376,112,116783,5,0
232,112,117015,1,0
376,112,117246,1,8
232,112,117477,2,0,B|152:168|144:232|152:288|216:320,1,239.999992847443
344,312,118170,6,0,B|424:304|472:224|400:120|288:136|248:192|272:264,1,359.999989271164
