osu file format v9

[General]
AudioFilename: blur - girls and boys.mp3
AudioLeadIn: 0
PreviewTime: 64748
Countdown: 0
SampleSet: Normal
StackLeniency: 0.7
Mode: 0
LetterboxInBreaks: 0

[Editor]
Bookmarks: 17014,60750,63013,63999,64498,74759,75009,108248,112982,140487
DistanceSpacing: 0.8
BeatDivisor: 4
GridSize: 8

[Metadata]
Title:Girls and Boys
Artist:Blur
Creator:Blue Dragon
Version:Normal
Source:
Tags:Krisom Blue_Dragon

[Difficulty]
HPDrainRate:5
CircleSize:3
OverallDifficulty:3
ApproachRate:6
SliderMultiplier:1.7
SliderTickRate:2

[Events]
//Background and Video events
0,0,"girlswhoareboys.png"
//Break Periods
2,97203,107199
//Storyboard Layer 0 (Background)
//Storyboard Layer 1 (Fail)
//Storyboard Layer 2 (Pass)
//Storyboard Layer 3 (Foreground)
//Storyboard Sound Samples
//Background Colour Transformations
3,100,163,162,255

[TimingPoints]
1035,499.833388870377,4,1,0,40,1,0
24776,-100,4,2,0,60,0,0
28774,-100,4,1,0,40,0,0

[HitObjects]
80,189,17029,2,2,B|80:136|112:80|175:64,1,170
336,64,18029,2,2,B|400:80|432:136|431:189,1,170
341,291,19029,2,2,B|157:291,3,170
72,192,21028,6,0,B|72:88|192:48,1,170,0|8
298,60,22028,1,0
298,196,22527,1,8
162,196,23027,1,0
162,332,23527,1,8
296,328,24027,2,0,B|464:328,1,170,0|8
434,196,25027,6,2,B|456:104,3,85
385,113,26026,2,2,B|365:195,3,85,2|2|2|2
296,195,27026,2,2,B|315:112,3,85,2|2|2|2
247,112,28026,1,2
111,112,28525,1,2
23,217,29025,6,0,B|0:320|91:354,1,170,0|8
171,242,30025,2,0,B|363:242,1,170,0|8
420,354,31025,2,0,B|512:320|488:217,1,170,0|8
256,72,32024,1,4
256,72,32524,1,4
120,72,33024,6,0,B|72:56|40:96,2,85,2|0|2
40,184,34024,2,8,B|80:256|184:288,3,170
256,176,36023,1,0
256,312,36523,1,2
392,312,37023,6,0,B|480:336,2,85,8|0|0
352,256,37772,2,2,B|320:176|392:48|480:32,1,255
314,42,39022,5,0
256,168,39522,1,8
200,40,40022,1,0
144,168,40521,1,8
16,216,41021,6,0,B|48:168|16:112,2,85,0|0|2
56,344,42021,2,2,B|248:344,1,170
129,247,43021,2,2,B|321:247,1,170
202,150,44020,2,2,B|394:150,1,170
384,16,45020,6,2,B|208:-24|32:56|48:240|112:320,1,510
216,277,47019,1,0
352,277,47519,1,8
456,184,48019,1,4
456,184,48519,1,4
400,88,49019,6,2,B|376:16|336:0,2,85,2|0|0
360,144,49768,2,2,B|264:120|192:32,1,170
168,8,50518,2,2,B|80:56|32:200|56:320,1,340
190,309,52018,1,0
190,173,52517,1,2
304,248,53017,6,0,B|320:336,2,85,2|0|0
378,244,53767,2,2,B|432:148|406:21|252:-39|106:24|80:152|134:245,1,595
256,136,56016,1,0
256,136,56516,1,2
298,265,57016,6,0,B|210:265,2,85,2|0|0
346,313,57766,2,2,B|448:304|448:168,1,170
376,192,58515,2,0,B|198:192,3,170,8|8|2|8
206,56,60515,5,0
72,96,61015,2,2,B|10:192|56:336|56:336|88:272|184:216|256:352|256:352|328:216|424:272|456:336|456:336|504:192|435:88,1,1020
272,64,64513,1,2
112,120,65013,6,0,B|88:72|96:24,2,85,8|0|0
80,184,65763,2,8,B|56:270|112:350|219:349,1,255,8|0
292,349,66763,2,8,B|399:350|455:270|432:184,1,255,8|0
384,133,67762,2,8,B|120:133,1,255,8|0
128,64,68762,2,8,B|392:64,1,255,8|0
451,64,69762,2,8,B|472:184|392:232|296:232,1,255,8|0
262,183,70761,2,8,B|180:182|100:230|121:350,1,255,8|0
56,368,71761,1,8
56,24,73011,6,2,B|192:0|192:0|152:80|256:126|256:126|352:80|320:0|320:0|456:24,1,595
456,160,75260,1,2
256,232,76010,1,2
256,368,76509,1,2
144,256,77009,2,8,B|144:168|256:94|368:168|368:256,3,340,8|8|8|12
256,336,80508,1,12
392,352,81008,6,2,B|512:336|488:200,1,170
432,208,81758,2,2,B|432:16,3,170
320,112,83757,1,0
320,112,84007,1,2
256,232,84507,1,2
200,112,85007,6,8,B|104:40|8:152|64:232,1,255
155,320,86256,1,0
155,320,86506,2,2,B|352:320,4,170
136,256,88755,5,0
184,208,89005,1,2
376,208,89505,1,0
328,160,89755,1,2
256,40,90255,1,2
256,40,90505,5,8
159,136,91005,1,8
255,232,91504,1,8
351,328,92004,1,8
256,192,92504,12,0,95003
256,192,95503,5,8
256,192,96003,1,12
256,192,96503,1,12
256,192,97003,1,2
256,48,108249,5,0
392,48,108749,2,2,B|368:168|280:168|255:200|255:200|232:168|144:168|120:48,1,425
24,152,110498,1,8
120,248,110998,1,8
216,344,111498,1,8
312,248,111998,2,2,B|400:248,2,85
256,128,112997,5,8
152,40,113497,1,0
152,40,113747,2,8,B|56:112|32:272,1,255,8|0
88,304,114747,2,8,B|184:352|216:256|352:320,1,255,8|0
384,265,115746,2,8,B|320:128|144:176,1,255,8|0
120,120,116746,2,8,B|168:8|360:24,1,255,8|0
386,71,117746,2,8,B|386:331,1,255,8|0
454,326,118745,2,8,B|454:66,1,255,8|0
454,71,119745,1,8
256,352,120995,6,2,B|144:344|144:264|144:264|16:240|60:191|60:191|16:144|144:120|144:120|144:40|256:32,1,595
256,168,123244,1,2
392,168,123744,1,0
392,168,123994,2,2,B|424:272|328:328,2,170
256,192,125118,12,0,126993
256,192,127492,5,0
256,192,127992,1,12
256,192,128492,1,12
392,192,128992,6,2,B|448:120,2,85
328,160,129742,2,8,B|280:32|112:32,1,255,8|0
64,56,130741,2,8,B|-38:146|21:303,1,255,8|0
56,344,131741,2,8,B|165:425|306:333,1,255,8|0
246,293,132741,2,8,B|355:211|496:303,1,255,8|0
512,232,133740,2,8,B|550:61|410:16,1,255,8|0
374,69,134740,2,8,B|412:239|272:284,1,255,8|0
256,216,135740,1,8
64,64,136989,6,2,B|32:192|160:232|208:56|208:56|240:144|256:111|272:144|304:56|304:56|352:232|480:192|448:64,1,765
256,208,139738,1,0
256,208,139988,2,2,B|256:384,2,170
256,192,141113,12,0,143487
256,192,143987,5,12
256,192,144487,1,12
256,192,144987,1,2
