osu file format v13

[General]
AudioFilename: Caged Heart - Katawa Shoujo OST.mp3
AudioLeadIn: 1000
PreviewTime: 19214
Countdown: 0
SampleSet: Soft
StackLeniency: 0.7
Mode: 0
LetterboxInBreaks: 0
WidescreenStoryboard: 0

[Editor]
DistanceSpacing: 1
BeatDivisor: 2
GridSize: 4
TimelineZoom: 1

[Metadata]
Title:Caged Heart
TitleUnicode:Caged Heart
Artist:Blue123
ArtistUnicode:Blue123
Creator:Krfawy
Version:Relaxing
Source:かたわ少女
Tags:visual novel game Katawa Shoujo OST Enigmatic Box Of Sound disability disabled Four Leaf Studios Hisao Nakai Emi Ibarazaki Hanako Ikezawa Lilly Satou Rin Tezuka Shizune Hakamichi Shiina Misha Mikado Kenji Setou -Kamikaze-
BeatmapID:477200
BeatmapSetID:201563

[Difficulty]
HPDrainRate:3
CircleSize:4
OverallDifficulty:3
ApproachRate:4
SliderMultiplier:1.4
SliderTickRate:2

[Events]
//Background and Video events
0,0,"Skazy.jpg",0,0
//Break Periods
//Storyboard Layer 0 (Background)
//Storyboard Layer 1 (Fail)
//Storyboard Layer 2 (Pass)
//Storyboard Layer 3 (Foreground)
//Storyboard Sound Samples
//Background Colour Transformations
3,100,108,108,108

[TimingPoints]
214,800.021333902237,3,2,1,71,1,0
1414,-100,3,2,1,59,0,0
1814,-100,3,2,1,48,0,0
2214,-100,3,2,1,36,0,0
2614,-100,3,2,1,25,0,0
3814,-100,3,2,1,19,0,0
5014,-100,3,2,1,68,0,0
6214,-100,3,2,1,59,0,0
6614,-100,3,2,1,49,0,0
7014,-100,3,2,1,39,0,0
7414,-100,3,2,1,32,0,0
8614,-100,3,2,1,27,0,0
9414,-100,3,2,1,19,0,0
9814,-100,3,2,1,69,0,0
10214,-100,3,2,1,65,0,0
10614,-100,3,2,1,59,0,0
11014,-100,3,2,1,48,0,0
11414,-100,3,2,1,42,0,0
11814,-100,3,2,1,35,0,0
12214,-100,3,2,1,27,0,0
13414,-100,3,2,1,32,0,0
14614,-100,3,2,1,71,0,0
15814,-100,3,2,1,48,0,0
16214,-100,3,2,1,41,0,0
16614,-100,3,2,1,36,0,0
17014,-100,3,2,1,30,0,0
18214,-100,3,2,1,43,0,0
19414,-100,3,2,1,71,0,0
20614,-100,3,2,1,66,0,0
21814,-100,3,2,1,59,0,0
23014,-100,3,2,1,67,0,0
24214,-100,3,2,1,71,0,0
26614,-100,3,2,1,59,0,0
27814,-100,3,2,1,63,0,0
29014,-100,3,2,1,69,0,0
29414,-100,3,2,1,61,0,0
29814,-100,3,2,1,56,0,0
30214,-100,3,2,1,70,0,0
30614,-100,3,2,1,60,0,0
31014,-100,3,2,1,55,0,0
31414,-100,3,2,1,69,0,0
32614,-100,3,2,1,72,0,0
33014,-100,3,2,1,62,0,0
33414,-100,3,2,1,67,0,0
33814,-100,3,2,1,71,0,0
34214,-100,3,2,1,65,0,0
34614,-100,3,2,1,59,0,0
35014,-100,3,2,1,64,0,0
35414,-100,3,2,1,61,0,0
35814,-100,3,2,1,58,0,0
37414,-100,3,2,1,65,0,0
38615,-100,3,2,1,71,0,0
39415,-100,3,2,1,54,0,0
39815,-100,3,2,1,64,0,0
41015,-100,3,2,1,59,0,0
42215,-100,3,2,1,32,0,0
43415,-100,3,2,1,71,0,0
44615,-100,3,2,1,65,0,0
45815,-100,3,2,1,68,0,0
47015,-100,3,2,1,46,0,0
48215,-100,3,2,1,69,0,0
49415,-100,3,2,1,64,0,0
50615,-100,3,2,1,69,0,0
53015,-100,3,2,1,66,0,0
55415,-100,3,2,1,62,0,0
56615,-100,3,2,1,69,0,0
57815,-100,3,2,1,71,0,0
58215,-100,3,2,1,69,0,0
58615,-100,3,2,1,62,0,0
59015,-100,3,2,1,59,0,0
60215,-100,3,2,1,41,0,0
61415,-100,3,2,1,32,0,0
62615,-100,3,2,1,69,0,0
63015,-100,3,2,1,62,0,0
63815,-100,3,2,1,58,0,0
65015,-100,3,2,1,52,0,0
65815,-100,3,2,1,47,0,0
66215,-100,3,2,1,39,0,0
67415,-100,3,2,1,68,0,0
68615,-100,3,2,1,62,0,0
69815,-100,3,2,1,45,0,0
71015,-100,3,2,1,39,0,0
72215,-100,3,2,1,46,0,0
74615,-100,3,2,1,50,0,0
77016,-100,3,2,1,39,0,0

[Colours]
Combo1 : 221,134,132
Combo2 : 232,220,140
Combo3 : 141,189,224
Combo4 : 180,75,106

[HitObjects]
26,194,214,6,0,P|134:169|144:138,1,140,2|0,0:0|0:0,0:0:0:0:
160,88,1414,2,0,P|179:147|307:123,2,210,2|0|0,0:0|0:0|0:0,0:0:0:0:
368,92,5014,6,0,P|348:156|372:244,1,140,2|0,0:0|0:0,0:0:0:0:
412,276,6214,2,0,B|344:256|344:288|260:276,1,140,2|0,0:0|0:0,0:0:0:0:
208,252,7414,2,0,P|163:206|189:114,1,140,0|0,0:0|0:0,0:0:0:0:
213,80,8614,2,0,B|240:57|294:65|294:65|313:94|355:110,1,140,0|0,0:0|0:0,0:0:0:0:
374,158,9814,6,0,P|387:225|285:312,1,210,2|2,0:0|0:0,0:0:0:0:
225,285,11414,2,0,L|213:202,1,70
239,150,12214,2,0,P|306:151|343:86,1,140,0|0,0:0|0:0,0:0:0:0:
273,89,13414,2,0,L|322:239,1,140,0|0,0:0|0:0,0:0:0:0:
325,291,14614,6,0,P|277:330|188:297,1,140,2|0,0:0|0:0,0:0:0:0:
147,275,15814,2,0,B|129:255|126:224|126:224|122:160|72:127,1,140,2|0,0:0|0:0,0:0:0:0:
54,90,17014,2,0,P|59:29|110:71,1,140,2|0,0:0|0:0,0:0:0:0:
138,119,18214,2,0,B|153:140|183:149|183:149|245:167|266:222,1,140,2|0,0:0|0:0,0:0:0:0:
285,259,19414,5,2,0:0:0:0:
354,260,19814,1,0,0:0:0:0:
377,194,20214,1,0,0:0:0:0:
321,152,20614,2,0,P|290:103|292:75,2,70,2|0|0,0:0|0:0|0:0,0:0:0:0:
377,194,21814,2,0,P|428:198|468:118,1,140,2|0,0:0|0:0,0:0:0:0:
430,71,23014,2,0,P|379:67|339:147,1,140,2|0,0:0|0:0,0:0:0:0:
336,205,24214,6,0,P|336:249|314:288,2,70,2|0|0,0:0|0:0|0:0,0:0:0:0:
400,176,25414,2,0,P|408:240|384:312,1,140,2|0,0:0|0:0,0:0:0:0:
340,364,26614,2,0,B|272:352|272:352|176:368,1,140,2|0,0:0|0:0,0:0:0:0:
132,364,27814,2,0,P|79:346|40:274,1,140,2|0,0:0|0:0,0:0:0:0:
24,208,29014,6,0,B|24:176|8:152|8:152|40:116|27:68,1,140,2|0,0:0|0:0,0:0:0:0:
60,16,30214,2,0,P|120:44|200:36,1,140,2|0,0:0|0:0,0:0:0:0:
260,16,31414,2,0,P|336:40|364:92,1,140,2|0,0:0|0:0,0:0:0:0:
353,158,32614,1,2,0:0:0:0:
364,227,33014,1,2,0:0:0:0:
417,183,33414,1,2,0:0:0:0:
459,127,33814,6,0,P|465:83|433:38,2,70,2|2|0,0:0|0:0|0:0,0:0:0:0:
394,101,35014,2,0,P|354:105|307:86,1,70,2|2,0:0|0:0,0:0:0:0:
256,87,35814,1,0,0:0:0:0:
189,113,36214,2,0,P|204:160|175:253,1,140,2|0,0:0|0:0,0:0:0:0:
116,272,37414,2,0,B|105:235|122:209|122:209|74:197|61:169,1,140,2|2,0:0|0:0,0:0:0:0:
36,104,38615,6,0,B|98:70,1,70,2|2,0:0|0:0,0:0:0:0:
166,58,39415,1,0,0:0:0:0:
221,102,39815,2,0,L|308:92,2,70,2|2|0,0:0|0:0|0:0,0:0:0:0:
168,148,41015,2,0,B|164:217,1,70,2|0,0:0|0:0,0:0:0:0:
162,288,41815,1,0,0:0:0:0:
173,356,42215,2,0,P|111:340|93:269,1,140,2|0,0:0|0:0,0:0:0:0:
110,205,43415,6,0,P|153:120|44:131,2,210,2|2|2,0:0|0:0|0:0,0:0:0:0:
63,256,46215,1,0,0:0:0:0:
86,321,46615,1,0,0:0:0:0:
147,354,47015,2,0,P|231:370|285:352,1,140,2|0,0:0|0:0,0:0:0:0:
332,306,48215,6,0,P|350:276|376:252,1,70,2|2,0:0|0:0,0:0:0:0:
423,201,49015,1,0,0:0:0:0:
469,148,49415,2,0,P|461:94|437:69,2,70,2|2|0,0:0|0:0|0:0,0:0:0:0:
401,129,50615,2,0,P|329:91|278:125,1,140,2|0,0:0|0:0,0:0:0:0:
231,162,51815,1,2,0:0:0:0:
182,112,52215,1,2,0:0:0:0:
214,50,52615,1,2,0:0:0:0:
283,61,53015,6,0,P|279:97|302:145,2,70,2|2|0,0:0|0:0|0:0,0:0:0:0:
348,86,54215,2,0,P|359:120|400:154,1,70,2|2,0:0|0:0,0:0:0:0:
401,211,55015,1,0,0:0:0:0:
336,240,55415,2,0,B|268:220|268:252|188:240,1,140,2|0,0:0|0:0,0:0:0:0:
128,228,56615,1,2,0:0:0:0:
69,189,57015,1,2,0:0:0:0:
72,119,57415,1,2,0:0:0:0:
135,88,57815,6,0,P|189:84|211:18,1,70,2|2,0:0|0:0,0:0:0:0:
256,35,58615,1,0,0:0:0:0:
321,58,59015,2,0,L|376:208,1,140,2|0,0:0|0:0,0:0:0:0:
389,257,60215,2,0,P|336:215|271:234,1,140,2|0,0:0|0:0,0:0:0:0:
230,290,61415,2,0,B|234:368,2,70,2|0|0,0:0|0:0|0:0,0:0:0:0:
186,234,62615,6,0,P|184:172|192:163,1,70,2|2,0:0|0:0,0:0:0:0:
242,127,63415,1,0,0:0:0:0:
311,131,63815,2,0,B|336:136|336:136|388:199,1,70,2|2,0:0|0:0,0:0:0:0:
407,225,64615,1,0,0:0:0:0:
452,278,65015,2,0,B|429:300|383:294|383:294|335:290|320:308,1,140,2|0,0:0|0:0,0:0:0:0:
267,354,66215,1,2,0:0:0:0:
197,364,66615,1,0,0:0:0:0:
134,337,67015,1,0,0:0:0:0:
95,278,67415,6,0,P|91:273|11:257,2,70,2|2|0,0:0|0:0|0:0,0:0:0:0:
134,337,68615,2,0,B|224:335,1,70,2|2,0:0|0:0,0:0:0:0:
270,355,69415,1,0,0:0:0:0:
340,363,69815,2,0,P|412:348|455:292,1,140,2|0,0:0|0:0,0:0:0:0:
463,229,71015,2,0,L|394:176,1,70,2|0,0:0|0:0,0:0:0:0:
341,164,71815,1,2,0:0:0:0:
279,197,72215,6,0,B|209:202|209:202|141:182,1,140,2|0,0:0|0:0,0:0:0:0:
86,139,73415,2,0,P|71:200|176:236,1,140,2|0,0:0|0:0,0:0:0:0:
191,257,74615,2,0,B|224:266|256:238|256:238|296:266|321:257,1,140,2|0,0:0|0:0,0:0:0:0:
390,249,75816,2,0,P|440:205|429:141,2,70,2|2|2,0:0|0:0|0:0,0:0:0:0:
320,257,77016,5,2,0:0:0:0:
