osu file format v13

[General]
AudioFilename: Caged Heart - Katawa Shoujo OST.mp3
AudioLeadIn: 1000
PreviewTime: 19214
Countdown: 0
SampleSet: Soft
StackLeniency: 0.7
Mode: 0
LetterboxInBreaks: 0
WidescreenStoryboard: 0

[Editor]
DistanceSpacing: 0.9
BeatDivisor: 4
GridSize: 4
TimelineZoom: 1

[Metadata]
Title:Caged Heart
TitleUnicode:Caged Heart
Artist:Blue123
ArtistUnicode:Blue123
Creator:Krfawy
Version:Challenging
Source:かたわ少女
Tags:visual novel game Katawa Shoujo OST Enigmatic Box Of Sound disability disabled Four Leaf Studios Hisao Nakai Emi Ibarazaki Hanako Ikezawa Lilly Satou Rin Tezuka Shizune Hakamichi Shiina Misha Mikado Kenji Setou -Kamikaze-
BeatmapID:477201
BeatmapSetID:201563

[Difficulty]
HPDrainRate:5
CircleSize:5
OverallDifficulty:5
ApproachRate:6
SliderMultiplier:1.7
SliderTickRate:2

[Events]
//Background and Video events
0,0,"Skazy.jpg",0,0
//Break Periods
//Storyboard Layer 0 (Background)
//Storyboard Layer 1 (Fail)
//Storyboard Layer 2 (Pass)
//Storyboard Layer 3 (Foreground)
//Storyboard Sound Samples
//Background Colour Transformations
3,100,108,108,108

[TimingPoints]
214,800.021333902237,3,2,1,71,1,0
1414,-100,3,2,1,59,0,0
1814,-100,3,2,1,48,0,0
2214,-100,3,2,1,36,0,0
2614,-100,3,2,1,25,0,0
3814,-100,3,2,1,19,0,0
5014,-100,3,2,1,68,0,0
6214,-100,3,2,1,59,0,0
6614,-100,3,2,1,49,0,0
7014,-100,3,2,1,39,0,0
7414,-100,3,2,1,32,0,0
8614,-100,3,2,1,27,0,0
9414,-100,3,2,1,19,0,0
9814,-100,3,2,1,69,0,0
10214,-100,3,2,1,65,0,0
10614,-100,3,2,1,59,0,0
11014,-100,3,2,1,48,0,0
11414,-100,3,2,1,42,0,0
11814,-100,3,2,1,35,0,0
12214,-100,3,2,1,27,0,0
13414,-100,3,2,1,32,0,0
14614,-100,3,2,1,71,0,0
15814,-100,3,2,1,48,0,0
16214,-100,3,2,1,41,0,0
16614,-100,3,2,1,36,0,0
17014,-100,3,2,1,30,0,0
18214,-100,3,2,1,43,0,0
19414,-100,3,2,1,71,0,0
20614,-100,3,2,1,66,0,0
21814,-100,3,2,1,59,0,0
23014,-100,3,2,1,67,0,0
24214,-100,3,2,1,71,0,0
26614,-100,3,2,1,59,0,0
27814,-100,3,2,1,63,0,0
29014,-100,3,2,1,69,0,0
29414,-100,3,2,1,61,0,0
29814,-100,3,2,1,56,0,0
30214,-100,3,2,1,70,0,0
30614,-100,3,2,1,60,0,0
31014,-100,3,2,1,55,0,0
31414,-100,3,2,1,69,0,0
32614,-100,3,2,1,72,0,0
33014,-100,3,2,1,62,0,0
33414,-100,3,2,1,67,0,0
33814,-100,3,2,1,71,0,0
34214,-100,3,2,1,65,0,0
34614,-100,3,2,1,59,0,0
35014,-100,3,2,1,64,0,0
35414,-100,3,2,1,61,0,0
35814,-100,3,2,1,58,0,0
37414,-100,3,2,1,65,0,0
38615,-100,3,2,1,71,0,0
39415,-100,3,2,1,54,0,0
39815,-100,3,2,1,64,0,0
41015,-100,3,2,1,59,0,0
42215,-100,3,2,1,32,0,0
43415,-100,3,2,1,71,0,0
44615,-100,3,2,1,65,0,0
45815,-100,3,2,1,68,0,0
47015,-100,3,2,1,46,0,0
48215,-100,3,2,1,69,0,0
49415,-100,3,2,1,64,0,0
50615,-100,3,2,1,69,0,0
53015,-100,3,2,1,66,0,0
55415,-100,3,2,1,62,0,0
56615,-100,3,2,1,69,0,0
57815,-100,3,2,1,71,0,0
58215,-100,3,2,1,69,0,0
58615,-100,3,2,1,62,0,0
59015,-100,3,2,1,59,0,0
60215,-100,3,2,1,41,0,0
61415,-100,3,2,1,32,0,0
62615,-100,3,2,1,69,0,0
63015,-100,3,2,1,62,0,0
63815,-100,3,2,1,58,0,0
65015,-100,3,2,1,52,0,0
65815,-100,3,2,1,47,0,0
66215,-100,3,2,1,39,0,0
67415,-100,3,2,1,68,0,0
68615,-100,3,2,1,62,0,0
69815,-100,3,2,1,45,0,0
71015,-100,3,2,1,39,0,0
72215,-100,3,2,1,46,0,0
74615,-100,3,2,1,50,0,0
77016,-100,3,2,1,39,0,0

[Colours]
Combo1 : 221,134,132
Combo2 : 232,220,140
Combo3 : 141,189,224
Combo4 : 180,75,106

[HitObjects]
64,192,214,6,0,P|119:198|139:258,1,85,2|0,0:0|0:0,0:0:0:0:
172,288,1014,1,0,0:0:0:0:
232,336,1414,2,0,B|278:322|359:350,1,85,2|0,0:0|0:0,0:0:0:0:
391,350,2214,1,0,0:0:0:0:
428,284,2614,6,0,B|456:200|400:200|428:112,1,170,0|0,0:0|0:0,0:0:0:0:
464,51,3814,2,0,P|392:50|352:137,1,170,0|0,0:0|0:0,0:0:0:0:
358,205,5014,5,2,0:0:0:0:
346,281,5414,1,0,0:0:0:0:
289,331,5814,1,0,0:0:0:0:
212,333,6214,1,2,0:0:0:0:
153,284,6614,1,0,0:0:0:0:
138,209,7014,1,0,0:0:0:0:
154,134,7414,6,0,B|166:103|212:74|212:74|267:76|293:96,1,170,0|0,0:0|0:0,0:0:0:0:
346,151,8614,2,0,B|357:183|303:217|303:217|238:256|252:296,1,170,0|0,0:0|0:0,0:0:0:0:
200,337,9814,6,0,P|157:350|109:337,1,85,2|0,0:0|0:0,0:0:0:0:
68,284,10614,1,0,0:0:0:0:
22,221,11014,1,2,0:0:0:0:
65,158,11414,1,0,0:0:0:0:
138,180,11814,1,0,0:0:0:0:
140,258,12214,6,0,P|169:273|320:256,1,170,2|0,0:0|0:0,0:0:0:0:
358,216,13414,2,0,P|380:192|408:42,1,170,2|0,0:0|0:0,0:0:0:0:
346,23,14614,6,0,P|311:23|258:64,1,85,2|0,0:0|0:0,0:0:0:0:
221,108,15414,1,0,0:0:0:0:
170,165,15814,2,0,P|130:190|86:183,2,85,2|0|0,0:0|0:0|0:0,0:0:0:0:
221,108,17014,6,0,P|303:114|329:197,1,170,2|0,0:0|0:0,0:0:0:0:
399,152,18214,2,0,P|389:236|316:263,1,170,2|0,0:0|0:0,0:0:0:0:
246,229,19414,5,2,0:0:0:0:
257,305,19814,1,0,0:0:0:0:
328,334,20214,1,0,0:0:0:0:
388,286,20614,1,2,0:0:0:0:
378,211,21014,1,0,0:0:0:0:
307,182,21414,1,0,0:0:0:0:
318,258,21814,5,2,0:0:0:0:
378,211,22214,1,0,0:0:0:0:
453,227,22614,1,0,0:0:0:0:
468,152,23014,2,0,P|405:177|366:280,1,170,2|0,0:0|0:0,0:0:0:0:
361,342,24214,6,0,B|339:350|339:350|233:340,1,85,2|0,0:0|0:0,0:0:0:0:
202,331,25014,1,0,0:0:0:0:
153,272,25414,1,2,0:0:0:0:
180,201,25814,1,0,0:0:0:0:
207,130,26214,1,0,0:0:0:0:
255,190,26614,6,0,P|288:265|254:340,1,170,2|0,0:0|0:0,0:0:0:0:
183,370,27814,2,0,P|101:356|57:287,1,170,2|0,0:0|0:0,0:0:0:0:
7,228,29014,6,0,B|102:205,1,85,2|0,0:0|0:0,0:0:0:0:
164,200,29814,1,0,0:0:0:0:
225,245,30214,1,2,0:0:0:0:
287,200,30614,1,0,0:0:0:0:
264,127,31014,1,0,0:0:0:0:
187,127,31414,6,0,B|152:108|120:160|120:160|88:208|44:192,1,170,2|0,0:0|0:0,0:0:0:0:
55,117,32614,2,0,P|55:97|116:55,2,85,2|2|2,0:0|0:0|0:0,0:0:0:0:
131,121,33814,6,0,P|181:143|209:228,1,85,2|2,0:0|0:0,0:0:0:0:
220,240,34614,1,0,0:0:0:0:
254,308,35014,2,0,P|286:334|327:345,2,85,2|2|0,0:0|0:0|0:0,0:0:0:0:
220,240,36214,6,0,P|196:184|76:216,1,170,2|0,0:0|0:0,0:0:0:0:
52,244,37414,1,2,0:0:0:0:
48,252,37815,1,0,0:0:0:0:
44,260,38215,1,2,0:0:0:0:
40,268,38615,6,0,P|56:288|48:376,1,85,2|2,0:0|0:0,0:0:0:0:
136,376,39415,1,0,0:0:0:0:
196,328,39815,2,0,L|279:266,1,85,2|2,0:0|0:0,0:0:0:0:
318,222,40615,1,0,0:0:0:0:
347,151,41015,6,0,P|354:114|233:86,1,170,2|0,0:0|0:0,0:0:0:0:
211,127,42215,2,0,P|203:163|324:191,1,170,2|0,0:0|0:0,0:0:0:0:
365,172,43415,6,0,P|410:174|435:241,2,85,2|2|0,0:0|0:0|0:0,0:0:0:0:
298,205,44615,1,2,0:0:0:0:
248,262,45015,1,2,0:0:0:0:
172,272,45415,1,0,0:0:0:0:
107,232,45815,6,0,P|71:158|128:80,1,170,2|0,0:0|0:0,0:0:0:0:
180,52,47015,1,2,0:0:0:0:
255,68,47415,1,0,0:0:0:0:
302,129,47815,1,0,0:0:0:0:
299,205,48215,6,0,P|294:243|252:287,1,85,2|2,0:0|0:0,0:0:0:0:
204,324,49015,1,0,0:0:0:0:
153,382,49415,2,0,P|128:349|166:267,1,85,2|2,0:0|0:0,0:0:0:0:
160,237,50215,1,0,0:0:0:0:
220,190,50615,6,0,B|245:157|274:205|336:159|336:159|360:171|386:157,1,170,2|0,0:0|0:0,0:0:0:0:
409,90,51815,2,0,P|388:60|337:42,1,85,2|2,0:0|0:0,0:0:0:0:
267,42,52615,1,2,0:0:0:0:
193,63,53015,6,0,P|166:99|81:108,1,85,2|2,0:0|0:0,0:0:0:0:
53,113,53815,1,0,0:0:0:0:
74,185,54215,2,0,L|112:292,1,85,2|2,0:0|0:0,0:0:0:0:
133,335,55015,1,0,0:0:0:0:
197,293,55415,6,0,B|234:274|266:291|266:291|296:307|320:290|320:290|358:299|391:262,1,170,2|0,0:0|0:0,0:0:0:0:
323,225,56615,1,2,0:0:0:0:
304,228,57015,1,2,0:0:0:0:
285,233,57415,1,2,0:0:0:0:
267,238,57815,6,0,P|237:247|160:224,1,85,2|2,0:0|0:0,0:0:0:0:
118,200,58615,1,0,0:0:0:0:
97,126,59015,2,0,P|139:127|176:151,1,85,2|2,0:0|0:0,0:0:0:0:
197,222,59815,1,0,0:0:0:0:
140,274,60215,6,0,P|97:272|61:249,2,85,2|0|0,0:0|0:0|0:0,0:0:0:0:
214,291,61415,1,2,0:0:0:0:
282,325,61815,1,0,0:0:0:0:
357,337,62215,1,0,0:0:0:0:
431,317,62615,6,0,P|448:250|403:178,1,85,2|2,0:0|0:0,0:0:0:0:
416,165,63415,1,0,0:0:0:0:
352,122,63815,2,0,P|313:129|250:104,1,85,2|2,0:0|0:0,0:0:0:0:
205,76,64615,1,0,0:0:0:0:
136,41,65015,6,0,B|121:86|142:117|142:117|118:163|157:185|148:204,1,170,2|0,0:0|0:0,0:0:0:0:
155,279,66215,2,0,P|200:313|211:345,2,85,2|0|0,0:0|0:0|0:0,0:0:0:0:
81,257,67415,5,2,0:0:0:0:
73,181,67815,1,2,0:0:0:0:
65,105,68215,1,0,0:0:0:0:
140,89,68615,1,2,0:0:0:0:
213,110,69015,1,2,0:0:0:0:
287,131,69415,1,0,0:0:0:0:
329,194,69815,6,0,P|323:241|210:260,1,170,2|0,0:0|0:0,0:0:0:0:
158,218,71015,2,0,P|151:177|176:144,1,85,2|0,0:0|0:0,0:0:0:0:
250,126,71815,1,2,0:0:0:0:
326,128,72215,5,2,0:0:0:0:
373,189,72615,1,2,0:0:0:0:
354,263,73015,1,0,0:0:0:0:
285,295,73415,1,2,0:0:0:0:
217,260,73815,1,2,0:0:0:0:
140,254,74215,1,0,0:0:0:0:
69,224,74615,6,0,P|45:159|113:86,1,170,2|0,0:0|0:0,0:0:0:0:
180,87,75816,1,2,0:0:0:0:
247,124,76216,1,2,0:0:0:0:
210,191,76616,1,2,0:0:0:0:
143,154,77016,5,2,0:0:0:0:
