osu file format v11

[General]
AudioFilename: Shotgun Senorita (Zardonic Remix).mp3
AudioLeadIn: 0
PreviewTime: 21968
Countdown: 0
SampleSet: Normal
StackLeniency: 0.4
Mode: 0
LetterboxInBreaks: 0

[Editor]
Bookmarks: 99968
DistanceSpacing: 1.2
BeatDivisor: 4
GridSize: 4

[Metadata]
Title:Shotgun Senorita (Zardonic Remix)
TitleUnicode:Shotgun Senorita (Zardonic Remix)
Artist:Blue Stahli
ArtistUnicode:Blue Stahli
Creator:Aleks719
Version:Hard
Source:
Tags:niva nivalis electronic drum and bass dnb d'n'b Federico Augusto Agreda Alvarez minimal
BeatmapID:193436
BeatmapSetID:65853

[Difficulty]
HPDrainRate:6
CircleSize:4
OverallDifficulty:6
ApproachRate:8
SliderMultiplier:1.6
SliderTickRate:2

[Events]
//Background and Video events
0,0,"Konachan.com - 144928 building cigarette gun necklace original sky smoking terabyte_(rook777) weapon.jpg"
//Break Periods
//Storyboard Layer 0 (Background)
//Storyboard Layer 1 (Fail)
//Storyboard Layer 2 (Pass)
//Storyboard Layer 3 (Foreground)
//Storyboard Sound Samples
//Background Colour Transformations
3,100,192,192,192

[TimingPoints]
26,342.857142857143,4,1,0,50,1,0
10311,-200,4,2,0,50,0,0
19311,-125,4,1,0,30,0,0
20854,-100,4,1,0,30,0,0
21968,-100,4,1,0,50,0,1
22140,-100,4,1,0,50,0,0
27283,-200,4,1,0,50,0,0
27797,-100,4,1,0,50,0,0
32940,-100,4,1,0,60,0,0
42540,-200,4,1,0,70,0,0
42626,-200,4,1,0,45,0,0
43226,-100,4,1,0,60,0,0
43911,-100,4,1,0,60,0,1
44083,-100,4,1,0,60,0,0
65854,-100,4,1,0,60,0,1
66026,-100,4,1,0,60,0,0
87111,-100,4,1,0,80,0,0
87797,-100,4,1,0,80,0,1
87968,-100,4,1,0,60,0,0
109740,-100,4,1,0,60,0,1
109911,-100,4,1,0,60,0,0
131683,-100,4,1,0,80,0,1
131854,-100,4,1,0,60,0,0
134426,-100,4,1,0,30,0,0

[Colours]
Combo1 : 188,23,202
Combo2 : 66,128,138
Combo3 : 0,128,192
Combo4 : 221,0,0
Combo5 : 255,128,0

[HitObjects]
256,196,10311,5,2,2:0:0
188,184,10997,6,0,P|264:128|308:240,1,240,4|2,0:2|0:0,0:0:0
172,256,12368,2,0,P|116:244|84:188,1,120,0|2,0:0|0:0,0:0:0
256,60,13397,1,2,0:0:0
256,60,13740,2,0,P|312:72|344:128,1,120,0|2,0:0|0:0,0:0:0
112,360,14768,5,0,1:0:0
184,336,14940,1,2,0:0:0
256,324,15111,1,0,1:0:0
328,336,15283,2,0,P|348:300,1,40
400,360,15626,2,0,P|468:312,1,80,0|0,1:0|1:0,0:0:0
472,240,16140,1,0,1:0:0
436,176,16311,5,0,1:0:0
376,136,16483,2,0,P|320:112|328:56,2,120,2|2|2,1:2|0:0|0:0,0:0:0
136,136,17854,2,0,P|192:112|184:56,2,120,2|2|2,1:2|0:0|0:0,0:0:0
256,324,19226,5,0,1:0:0
228,240,19397,1,0,0:0:0
256,156,19568,1,0,0:0:0
228,72,19740,1,0,0:0:0
132,64,19911,2,0,P|148:96|144:128,1,64
108,268,20254,2,0,P|92:236|96:204,1,64
132,64,20597,5,0,0:0:0
192,204,20768,1,0,0:0:0
192,204,20940,2,0,P|368:264|264:112,1,480,0|4,0:0|0:0,0:0:0
96,192,22311,5,8,0:2:0
112,280,22483,1,0,0:0:0
172,344,22654,1,0,0:0:0
256,308,22826,1,0,0:0:0
340,344,22997,1,8,0:2:0
400,280,23168,1,0,0:0:0
416,192,23340,6,2,P|412:112|352:64,1,160,2|8,0:0|0:2,0:0:0
332,156,23854,2,2,P|308:184|312:224,1,80,2|0,0:0|0:0,0:0:0
256,308,24197,1,2,0:0:0
200,224,24368,2,2,P|204:184|180:156,1,80,2|0,0:0|0:0,0:0:0
158,64,24711,6,2,P|100:112|96:192,1,160,2|8,0:0|0:2,0:0:0
44,264,25226,2,0,P|84:268|84:268|116:292,1,80
208,328,25568,1,0,0:0:0
304,328,25740,1,8,0:2:0
396,292,25911,2,0,P|428:268|428:268|468:264,1,80
456,348,26254,5,0,0:0:0
496,196,26426,1,8,0:2:0
344,156,26597,1,0,0:0:0
304,304,26768,2,0,P|256:288,4,40,0|0|0|0|4,0:0|0:0|0:0|0:0|0:0,0:0:0
496,196,27454,6,2,P|480:136,1,60,2|0,0:0|0:0,0:0:0
472,104,27797,6,0,P|392:92,1,80,8|0,0:2|0:0,0:0:0
304,52,28140,2,0,P|312:92|292:124,1,80,0|0,0:0|0:0,0:0:0
168,104,28483,2,0,P|198:77|236:78,1,80,8|0,0:2|0:0,0:0:0
280,196,28826,6,2,P|241:182|223:149,1,80,2|0,0:0|0:0,0:0:0
304,284,29168,2,2,P|342:270|360:237,1,80,2|2,0:0|0:0,0:0:0
264,364,29511,2,2,P|225:350|207:317,1,80,0|2,0:0|0:0,0:0:0
184,224,29854,1,2,0:0:0
284,44,30197,1,2,0:0:0
176,72,30368,5,0,0:0:0
80,56,30540,1,8,0:2:0
24,132,30711,1,2,0:0:0
40,228,30883,2,0,P|72:248|112:240,1,80,2|0,0:0|0:0,0:0:0
244,276,31226,2,0,P|228:196,1,80,2|0,0:0|0:0,0:0:0
224,72,31568,5,2,0:0:0
320,56,31740,1,0,0:0:0
376,132,31911,1,8,0:2:0
388,228,32083,2,0,P|420:264,2,40,2|0|0,0:0|0:0|0:0,0:0:0
308,284,32426,2,2,P|272:260|228:268|228:268,1,80
0,316,32940,5,6,0:0:0
44,228,33111,1,2,0:2:0
44,228,33197,1,2,0:2:0
44,228,33283,2,0,P|16:148,1,80,2|2,0:2|0:2,0:0:0
152,220,33626,1,2,0:2:0
152,220,33711,1,2,0:2:0
152,220,33798,2,0,P|124:140,1,80,2|2,0:2|0:2,0:0:0
268,192,34140,5,2,0:2:0
268,192,34226,1,2,0:2:0
268,192,34311,2,2,P|296:272,2,80,2|2|2,0:0|0:2|0:2,0:0:0
348,140,34826,1,2,0:0:0
444,140,34997,1,2,0:2:0
468,232,35168,6,2,P|472:272|444:308,1,80,2|2,0:2|0:1,0:2:0
368,356,35511,1,2,0:2:0
368,356,35683,1,2,0:1:0
256,372,35854,5,0,0:0:0
160,364,36026,1,8,0:2:0
72,324,36197,2,0,P|68:272|68:272|48:248,1,80
144,272,36540,2,0,P|136:188,2,80
212,204,37054,2,0,P|240:168,4,40,2|2|2|2|2,0:2|0:2|0:2|0:2|0:2,0:2:0
352,192,37568,5,0,0:0:0
451,183,37740,1,0,0:0:0
459,285,37911,2,0,P|480:320,2,40,2|2|2,0:2|0:2|0:0,0:0:0
360,291,38254,1,0,0:0:0
192,344,38426,6,2,P|228:352|276:340,1,80,10|0,0:0|0:0,0:0:0
228,256,38768,1,4,0:3:0
132,264,38940,2,0,P|112:240|112:240|108:224|108:224|88:196,1,80,8|0,0:0|0:0,0:0:0
52,108,39283,1,4,0:3:0
52,108,39454,2,0,P|88:100|136:112,1,80,8|0,0:0|0:0,0:0:0
340,88,39797,6,0,P|316:168,1,80,10|0,0:0|0:0,0:0:0
336,348,40140,2,0,P|328:308|344:272,1,80,4|8,0:3|0:0,0:0:0
176,348,40483,2,0,P|184:308|168:272,1,80,0|4,0:0|0:3,0:0:0
172,88,40826,2,0,P|196:168,1,80,8|0,0:0|0:0,0:0:0
464,228,41168,6,0,P|384:204,1,80,10|4,0:0|0:3,0:0:0
48,156,41511,2,0,P|128:180,1,80,0|8,0:0|0:0,0:0:0
376,120,41854,2,0,P|296:144,1,80,0|4,0:0|0:3,0:0:0
136,264,42197,2,0,P|216:240,1,80,8|4,0:0|0:3,0:0:0
376,120,42540,6,0,P|440:160|420:236,1,160,12|8,0:0|0:0,0:0:0
352,300,43397,1,4,0:3:0
328,308,43483,1,4,0:3:0
304,316,43568,1,4,0:3:0
220,368,43740,1,0,0:0:0
152,228,43911,5,4,0:0:0
84,160,44083,2,0,P|112:136|156:132,1,80,0|8,0:0|0:0,0:0:0
296,64,44425,2,0,P|256:76|256:76|216:64,1,80
358,131,44768,2,0,P|400:136|428:160,1,80,4|8,0:3|0:0,0:0:0
368,304,45111,2,0,P|352:272|352:272|360:224,1,80,0|4,0:0|0:3,0:0:0
256,148,45454,6,0,P|256:192,2,40,0|0|8,0:0|0:0|0:0,0:0:0
152,228,45797,2,0,P|160:272|160:272|144:304,1,80,4|4,0:3|0:3,0:0:0
296,336,46140,2,0,P|256:360|216:336|216:336,1,80,4|8,0:3|0:0,0:0:0
360,228,46483,1,0,0:0:0
152,228,46654,1,4,0:3:0
408,80,46997,5,8,0:0:0
304,144,47168,2,0,P|320:136|320:136|380:152,1,80
256,60,47511,1,4,0:3:0
132,152,47683,2,0,P|192:136|192:136|208:144,1,80,8|0,0:0|0:0,0:0:0
104,80,48026,6,0,P|60:128|88:212,1,160,4|8,0:0|0:0,0:0:0
184,244,48540,2,0,P|228:252|256:276|256:276|284:252|328:244,1,160,4|4,0:3|0:3,0:0:0
408,80,49054,2,0,P|452:128|424:212,1,160,8|4,0:0|0:3,0:0:0
332,348,49568,5,0,0:0:0
180,348,49740,1,8,0:0:0
300,272,49911,1,0,0:0:0
212,272,50083,1,0,0:0:0
300,192,50254,2,0,P|332:168|340:128,1,80,4|8,0:3|0:0,0:0:0
171,130,50597,2,0,P|180:168|212:192,1,80,0|4,0:0|0:3,0:0:0
352,56,50940,5,0,0:0:0
256,108,51111,1,8,0:0:0
160,56,51283,2,0,P|100:100|112:176,1,160,0|4,0:0|0:3,0:0:0
168,256,51797,1,8,0:0:0
332,228,51968,2,0,P|304:260|260:264,1,80,0|4,0:0|0:3,0:0:0
260,172,52311,5,0,0:0:0
348,136,52483,1,8,0:0:0
420,200,52654,1,0,0:0:0
348,136,52825,1,0,0:0:0
280,68,52997,2,0,P|200:84,1,80,4|8,0:3|0:0,0:0:0
28,52,53340,2,0,P|108:36,1,80,0|0,0:0|0:0,0:0:0
112,148,53683,6,0,P|128:184|120:228,1,80,4|8,0:3|0:0,0:0:0
184,116,54025,2,0,P|204:192|184:272,1,160,0|4,0:0|0:3,0:0:0
268,128,54540,1,8,0:0:0
268,128,54711,2,4,P|280:168|276:216,2,80,8|4|4,0:3|0:3|0:3,0:3:0
248,28,55225,5,8,0:0:0
340,64,55397,2,0,P|376:80|376:80|416:76,1,80
400,248,55740,2,0,P|416:212|416:212|412:172,1,80,4|8,0:3|0:0,0:0:0
488,264,56083,2,0,P|456:340,1,80,0|4,0:0|0:3,0:0:0
356,364,56426,5,0,0:0:0
256,340,56597,1,8,0:0:0
160,296,56768,1,0,0:0:0
184,196,56940,1,0,0:0:0
104,120,57111,1,4,0:3:0
80,220,57283,1,8,0:0:0
184,196,57454,1,0,0:0:0
208,96,57626,6,0,P|248:32|332:24,1,160,4|8,0:0|0:0,0:0:0
388,96,58140,2,0,P|396:136|388:176,1,80
448,332,58483,2,0,P|440:292|448:252,1,80,4|8,0:3|0:0,0:0:0
480,68,58826,2,0,P|488:108|480:148,1,80,0|4,0:0|0:3,0:0:0
384,188,59168,5,0,0:0:0
288,200,59340,1,8,0:0:0
220,268,59511,2,0,P|144:288|80:240,1,160,4|4,0:3|0:3,0:0:0
176,108,60025,1,8,0:0:0
288,200,60197,2,0,P|312:232|316:272,1,80,0|4,0:0|0:3,0:0:0
184,184,60540,6,0,P|160:156|156:112,1,80,0|8,0:0|0:0,0:0:0
73,257,60883,2,0,P|152:272,1,80
328,184,61226,2,0,P|352:156|356:112,2,80,4|8|0,0:3|0:0|0:0,0:0:0
438,257,61740,2,0,P|360:272,1,80,4|0,0:3|0:0,0:0:0
204,344,62083,5,8,0:0:0
308,344,62254,1,0,0:0:0
308,344,62597,1,4,0:3:0
360,264,62768,2,0,P|376:224|368:184,1,80,8|4,0:0|0:3,0:0:0
256,208,63111,5,4,0:3:0
156,168,63283,2,0,P|140:128|148:88,1,80,0|8,0:0|0:0,0:0:0
296,40,63625,2,0,P|256:44|256:44|216:40,1,80
367,92,63968,2,0,P|372:127|356:167,1,80,4|8,0:3|0:0,0:0:0
256,208,64311,1,0,0:0:0
204,360,64483,6,0,P|128:372|88:304,1,160,8|2,0:0|0:0,0:0:0
308,360,64997,2,0,P|384:372|424:304,1,160,8|2,0:0|0:0,0:0:0
256,284,65511,2,2,P|256:256,8,20,8|0|0|0|0|0|0|0|6,0:0|0:0|0:0|0:0|0:0|0:0|0:0|0:0|0:0,0:0:0
256,188,66025,5,0,0:0:0
256,92,66197,1,8,0:0:0
160,96,66368,2,2,P|152:160|152:160|164:172,1,80,2|2,0:0|0:0,0:0:0
349,170,66711,2,2,P|360:160|360:160|352:96,1,80,0|10,0:0|0:0,0:0:0
256,32,67054,1,0,0:0:0
180,248,67225,2,2,P|256:272|332:248,1,160,2|8,0:0|0:0,0:0:0
472,184,67740,5,2,0:0:0
376,92,67911,1,2,0:0:0
256,152,68083,1,2,0:0:0
356,240,68254,1,8,0:0:0
328,36,68425,1,0,0:0:0
328,36,68597,2,2,P|304:108|360:164,1,160,2|8,0:0|0:0,0:0:0
432,280,69111,5,2,0:0:0
352,336,69283,1,2,0:0:0
256,332,69454,1,2,0:0:0
176,276,69625,1,8,0:0:0
92,328,69797,1,0,0:0:0
180,372,69968,6,2,P|232:336|220:276|220:276|208:220,1,160,2|10,0:0|0:0,0:0:0
302,228,70483,2,2,P|292:276|292:276|280:336|332:372,1,160,2|2,0:0|0:0,0:0:0
332,140,70997,2,2,P|256:119|180:140,2,160,10|2|8,0:0|0:0|0:0,0:0:0
376,292,71854,5,2,0:0:0
256,280,72025,1,2,0:0:0
136,312,72197,1,0,0:0:0
136,104,72368,1,10,0:0:0
256,136,72540,1,0,0:0:0
376,124,72711,2,2,P|388:188|348:220|364:284,1,160,2|8,0:0|0:0,0:0:0
276,364,73225,6,2,P|236:352|192:360,1,80
120,296,73568,2,2,P|112:212,1,80,2|8,0:0|0:0,0:0:0
196,164,73911,1,2,0:0:0
200,252,74083,2,2,P|268:216|280:140,1,160,2|8,0:0|0:0,0:0:0
188,48,74597,5,2,0:0:0
100,88,74768,1,2,0:0:0
56,176,74940,1,2,0:0:0
120,344,75111,1,10,0:0:0
56,272,75283,1,2,0:0:0
100,88,75454,6,2,P|168:56|232:108,1,160,2|10,0:0|0:0,0:0:0
320,108,75968,2,2,P|160:128,1,160
128,64,76483,2,2,P|88:132|140:196,1,160,10|6,0:0|0:1,0:0:0
236,216,76997,1,4,0:3:0
380,248,77168,6,2,P|396:336,1,80,10|2,0:0|0:0,0:0:0
436,152,77511,2,2,P|452:240,1,80,2|2,0:0|0:0,0:0:0
492,56,77854,2,2,P|508:140,1,80,10|0,0:0|0:0,0:0:0
492,56,78197,5,2,0:0:0
256,288,78540,1,10,0:0:0
256,288,78711,1,2,0:0:0
20,56,79054,5,2,0:0:0
20,56,79225,1,8,0:0:0
44,188,79397,1,2,0:0:0
44,188,79568,1,2,0:0:0
340,68,79911,6,0,P|324:104|332:144,1,80,8|2,0:0|0:0,0:0:0
428,112,80254,1,2,0:0:0
268,264,80425,1,2,0:0:0
356,308,80597,2,0,P|372:272|364:232,1,80,8|2,0:0|0:0,0:0:0
240,172,80940,5,2,0:0:0
156,124,81111,1,0,0:0:0
44,196,81283,1,8,0:0:0
128,240,81454,1,2,0:0:0
128,240,81797,1,0,0:0:0
124,144,81968,2,2,P|188:88|264:92,1,160,10|14,0:0|0:0,0:0:0
416,108,82483,5,4,0:3:0
328,148,82654,1,4,0:3:0
336,52,82825,1,8,0:0:0
436,120,82997,1,4,0:3:0
316,168,83168,1,4,0:3:0
188,172,83340,1,8,0:0:0
276,264,83511,1,4,0:3:0
336,376,83683,1,6,0:0:0
408,288,83854,5,8,0:0:0
408,288,84025,2,0,P|348:292|348:292|332:308,1,80,4|4,0:3|0:3,0:0:0
228,340,84368,1,8,0:0:0
124,300,84540,2,0,P|128:344,2,40,4|0|8,0:3|0:0|0:0,0:0:0
28,240,84883,1,0,0:0:0
40,128,85054,1,10,0:0:0
152,228,85225,6,0,P|112:204|100:172,1,80,0|8,0:0|0:0,0:0:0
252,56,85568,2,0,P|292:80|300:120,1,80,0|8,0:0|0:0,0:0:0
180,152,85911,1,0,0:0:0
176,144,86083,1,8,0:0:0
384,120,86254,1,0,0:0:0
388,128,86425,1,2,0:0:0
48,48,86768,5,2,0:0:0
48,48,86940,1,2,0:0:0
464,48,87283,1,8,0:0:0
464,48,87454,1,10,0:0:0
256,120,87797,5,4,0:0:0
116,224,87968,2,0,P|148:200|188:196,1,80,0|8,0:0|0:0,0:0:0
308,372,88311,2,0,P|320:292,1,80
192,292,88654,2,0,P|204:372,1,80,4|8,0:3|0:0,0:0:0
396,224,88997,2,0,P|364:200|324:196,1,80,0|4,0:0|0:3,0:0:0
256,248,89340,6,0,P|256:288,2,40,0|0|8,0:0|0:0|0:0,0:0:0
208,156,89683,2,0,P|176:132|132:136,1,80
4,56,90026,2,0,P|36:80|80:76,1,80,4|8,0:3|0:0,0:0:0
152,56,90368,1,0,0:0:0
232,64,90540,1,4,0:3:0
440,148,90883,5,8,0:0:0
432,244,91054,2,0,P|472:236,2,40
376,324,91397,1,4,0:3:0
472,332,91568,1,8,0:0:0
328,236,91740,1,0,0:0:0
180,196,91911,6,0,P|204:124|156:60,1,160,4|8,0:0|0:0,0:0:0
124,136,92426,2,0,P|92:208|92:208|120:288,1,160,4|4,0:3|0:3,0:0:0
60,336,92940,2,0,P|128:364|192:312,1,160,8|4,0:0|0:3,0:0:0
256,192,93454,6,0,P|240:144,2,40,0|0|8,0:0|0:0|0:0,0:0:0
288,284,93797,2,0,P|320:304|364:308,1,80
460,300,94140,2,0,P|476:348,2,40,4|0|8,0:3|0:0|0:0,0:0:0
400,224,94483,1,0,0:0:0
412,128,94654,1,4,0:3:0
400,224,94826,5,0,0:0:0
320,168,94997,2,0,P|284:148|284:148|244:152,1,80,8|0,0:0|0:0,0:0:0
152,168,95340,1,0,0:0:0
72,220,95511,2,0,P|68:260|92:296,1,80,4|8,0:3|0:0,0:0:0
184,312,95854,2,0,P|188:272|164:236,1,80,0|4,0:0|0:3,0:0:0
104,20,96368,5,8,0:0:0
136,112,96540,1,0,0:0:0
232,104,96711,1,0,0:0:0
264,196,96883,1,4,0:3:0
360,184,97054,1,8,0:0:0
392,276,97226,2,0,P|412:312|408:352,1,80
288,360,97568,6,0,P|244:368|208:356,1,80,4|8,0:3|0:0,0:0:0
100,352,97911,2,0,P|136:284|112:208,1,160,0|4,0:0|0:3,0:0:0
56,120,98426,1,8,0:0:0
56,120,98597,2,4,P|84:36,2,80,8|4|4,0:3|0:3|0:3,0:3:0
16,260,99111,5,8,0:0:0
16,260,99283,2,0,P|56:260|92:244,1,80
56,336,99626,2,0,P|96:332|136:348,1,80,4|8,0:3|0:0,0:0:0
308,344,99968,2,0,P|268:348|228:332,1,80,0|4,0:0|0:3,0:0:0
408,332,100311,2,0,P|448:328|488:344,1,80,0|8,0:0|0:0,0:0:0
408,332,100654,5,0,0:0:0
308,344,100826,1,0,0:0:0
304,244,100997,1,4,0:3:0
404,232,101168,1,8,0:0:0
400,132,101340,1,0,0:0:0
300,144,101511,1,4,0:0:0
184,216,101683,6,0,P|192:188|156:168|164:140,1,80,0|8,0:0|0:0,0:0:0
100,216,102026,2,0,P|88:296,1,80
12,132,102368,2,0,P|96:144,1,80,4|8,0:3|0:0,0:0:0
164,292,102711,2,0,P|248:304,1,80,0|0,0:0|0:0,0:0:0
380,320,103054,5,0,0:0:0
444,248,103226,1,8,0:0:0
440,152,103397,2,0,P|400:84|320:72,1,160,4|4,0:3|0:3,0:0:0
348,160,103911,1,8,0:0:0
316,248,104083,2,0,P|280:268|240:264,1,80,0|4,0:0|0:3,0:0:0
196,136,104426,6,0,P|232:116|272:120,1,80,4|8,0:3|0:0,0:0:0
180,216,104768,2,0,P|144:236|104:232,1,80,0|0,0:0|0:0,0:0:0
60,104,105111,2,0,P|96:84|136:88,2,80,4|8|0,0:3|0:0|0:0,0:0:0
0,200,105626,5,4,0:3:0
20,292,105797,1,0,0:0:0
96,348,105968,1,8,0:0:0
192,364,106140,2,0,P|260:380|280:332|352:348,1,160,4|4,0:3|0:3,0:0:0
444,336,106654,1,8,0:0:0
492,252,106826,1,0,0:0:0
464,144,106997,5,4,0:3:0
400,72,107168,2,0,P|360:64|324:80,1,80,0|8,0:0|0:0,0:0:0
208,172,107511,1,0,0:0:0
304,172,107683,1,0,0:0:0
186,79,107854,2,0,P|152:64|112:72,1,80,4|8,0:3|0:0,0:0:0
48,144,108197,1,0,0:0:0
64,256,108368,6,0,P|116:312|196:304,1,160,8|2,0:0|0:0,0:0:0
448,256,108883,2,0,P|396:312|316:304,1,160,8|2,0:0|0:0,0:0:0
256,192,109397,5,4,0:3:0
256,96,109568,1,0,0:0:0
256,96,109654,1,0,0:0:0
256,96,109740,21,6,0:0:0
168,48,109911,1,0,0:0:0
344,48,110083,1,8,0:0:0
328,148,110254,2,2,P|336:212|336:212|324:224,1,80,2|2,0:0|0:0,0:0:0
187,222,110597,2,2,P|176:212|176:212|184:148,2,80,2|10|0,0:0|0:0|0:0,0:0:0
332,296,111111,2,2,P|256:320|180:296,1,160,2|8,0:0|0:0,0:0:0
40,184,111626,5,2,0:0:0
136,92,111797,1,2,0:0:0
256,152,111969,1,2,0:0:0
156,240,112140,1,8,0:0:0
304,96,112311,1,0,0:0:0
304,96,112483,2,2,P|328:168|272:224,1,160,2|8,0:0|0:0,0:0:0
156,240,112997,5,2,0:0:0
64,208,113169,1,2,0:0:0
136,144,113340,2,2,P|124:80|124:80|104:68,1,80,2|8,0:0|0:0,0:0:0
28,120,113683,1,0,0:0:0
32,232,113854,6,2,P|36:292|92:312|92:312|144:300,1,160,2|10,0:0|0:0,0:0:0
368,340,114368,2,2,P|364:280|308:260|308:260|256:272,1,160,2|2,0:0|0:0,0:0:0
176,188,114883,2,2,P|332:148,1,160,10|2,0:0|0:0,0:0:0
160,32,115568,5,10,0:0:0
104,108,115740,1,2,0:0:0
16,144,115911,1,2,0:0:0
16,240,116083,1,0,0:0:0
104,276,116254,1,10,0:0:0
160,352,116426,1,0,0:0:0
36,332,116597,2,2,P|72:278|123:283|157:227,1,160,2|8,0:0|0:0,0:0:0
256,120,117111,6,2,P|244:160|252:204,1,80
264,352,117454,2,2,P|304:276,1,80,2|8,0:0|0:0,0:0:0
360,168,117797,1,2,0:0:0
384,336,117969,2,2,P|456:296|472:216,1,160,2|8,0:0|0:0,0:0:0
440,96,118483,5,2,0:0:0
344,80,118654,1,2,0:0:0
256,36,118826,1,2,0:0:0
168,80,118997,1,10,0:0:0
72,96,119168,1,2,0:0:0
128,200,119340,6,2,P|196:168|260:220,1,160,2|10,0:0|0:0,0:0:0
348,220,119854,2,2,P|188:240,1,160
384,284,120369,2,2,P|420:212|368:148,1,160,10|6,0:0|0:1,0:0:0
288,116,120883,1,4,0:3:0
168,224,121054,6,2,P|152:312,1,80,10|2,0:0|0:0,0:0:0
97,206,121397,2,2,P|111:127,1,80,2|2,0:0|0:0,0:0:0
56,32,121740,2,2,P|40:116,1,80,10|0,0:0|0:0,0:0:0
16,224,122083,5,2,0:0:0
196,352,122426,1,10,0:0:0
196,352,122597,2,2,P|272:380|348:352,1,160
424,300,123111,1,8,0:0:0
448,208,123283,1,2,0:0:0
424,116,123454,1,2,0:0:0
244,68,123797,6,0,P|228:104|236:144,1,80,8|2,0:0|0:0,0:0:0
260,308,124140,2,0,P|276:272|268:232,1,80,2|2,0:0|0:0,0:0:0
332,112,124483,1,8,0:0:0
172,264,124654,1,2,0:0:0
168,32,124826,6,2,P|148:104|168:188,1,160,2|10,0:0|0:0,0:0:0
336,344,125340,2,2,P|356:272|336:188,1,160
337,190,125854,1,10,0:0:0
337,190,126197,5,6,0:0:0
164,232,126540,2,2,P|112:248|112:248|80:232,1,80,10|0,0:0|0:0,0:0:0
140,156,126883,2,2,P|220:128,1,80,2|0,0:0|0:0,0:0:0
280,200,127226,1,10,0:0:0
244,288,127397,1,0,0:0:0
128,352,127568,6,2,P|68:324|124:280,1,160,2|10,0:0|0:0,0:0:0
0,352,128083,2,2,P|8:268|60:216,1,160
244,288,128597,2,2,P|240:328|208:360,2,80,10|2|2,0:0|0:0|0:0,0:0:0
244,288,129283,1,8,0:0:0
256,168,129454,5,2,0:0:0
324,100,129626,1,2,0:0:0
392,168,129797,1,4,0:3:0
324,236,129968,1,10,0:0:0
256,168,130140,5,0,0:0:0
168,80,130311,1,2,0:0:0
79,168,130483,1,4,0:3:0
167,256,130654,1,10,0:0:0
168,256,130826,1,2,0:0:0
416,288,131168,5,4,0:3:0
316,356,131340,1,10,0:0:0
196,356,131511,1,0,0:3:0
96,288,131683,1,4,0:0:0
256,192,131854,12,4,134426,0:3:0
