osu file format v9

[General]
AudioFilename: Blue Stahli - Bulletproof.mp3
AudioLeadIn: 1500
PreviewTime: 23146
Countdown: 0
SampleSet: Normal
StackLeniency: 0.7
Mode: 0
LetterboxInBreaks: 0
EpilepsyWarning: 1

[Editor]
DistanceSpacing: 0.6
BeatDivisor: 8
GridSize: 8

[Metadata]
Title:Bulletproof
Artist:Blue Stahli
Creator:jericho2442
Version:Hell
Source:
Tags:deadbeat

[Difficulty]
HPDrainRate:6
CircleSize:4
OverallDifficulty:8
ApproachRate:9
SliderMultiplier:2.3
SliderTickRate:1

[Events]
//Background and Video events
0,0,"Blue Stahli BG.jpg"
//Break Periods
2,38116,44700
2,67654,74239
2,111731,113008
//Storyboard Layer 0 (Background)
//Storyboard Layer 1 (Fail)
//Storyboard Layer 2 (Pass)
//Storyboard Layer 3 (Foreground)
//Storyboard Sound Samples
Sample,22108,0,"SB\Warning.wav",100
Sample,51646,0,"SB\Warning.wav",100
Sample,112569,0,"SB\Warning.wav",100
//Background Colour Transformations
3,100,163,162,255

[TimingPoints]
993,461.538461538462,4,1,0,100,1,0
15762,-100,4,1,1,100,0,0
23146,-50,4,1,0,100,0,1
37916,-50,4,1,0,100,0,0
45069,-100,4,1,1,100,0,0
52685,-50,4,1,0,100,0,1
67454,-50,4,1,0,100,0,0
74608,-100,4,1,1,100,0,0
113608,-50,4,1,0,100,0,1
128377,-50,4,1,0,100,0,0

[Colours]
Combo1 : 0,0,255
Combo2 : 255,0,0

[HitObjects]
256,192,993,1,0
208,192,1108,1,0
168,168,1223,1,0
104,104,1454,2,0,B|64:152|89:217|89:217|88:216|88:216,1,115,8|0
88,256,1800,2,0,B|88:320|88:320|160:320|160:320,1,115
184,320,2146,2,0,B|240:320|312:320|312:320,3,115,0|8|0|0
344,320,2954,5,0
384,296,3069,1,0
384,200,3300,2,0,B|384:128|448:112|448:112,1,115,8|0
424,72,3646,2,0,B|304:72|304:72,1,115
264,72,3993,2,0,B|200:72|200:72|160:32|160:32,3,115,0|8|0|0
120,40,4800,5,0
72,40,4916,1,0
72,128,5146,2,0,B|72:184|72:184|112:184|112:232|112:232,1,115,8|0
112,264,5493,2,0,B|154:306|154:306|192:264|192:264,1,115
192,216,5839,2,0,B|234:174|234:174|272:216|272:216,3,115,0|8|0|0
296,256,6646,5,0
320,216,6762,1,0
368,136,6993,2,0,B|424:176|408:240|408:240,1,115,8|0
408,280,7339,2,0,B|416:360|512:336|512:336,1,115
488,296,7685,1,0
488,248,7800,1,0
488,200,7916,1,8
488,152,8031,1,0
480,104,8146,1,0
456,64,8262,1,0
416,48,8377,6,0,B|360:32|360:32,1,57.5
312,32,8608,1,0
216,32,8839,1,8
168,32,8954,1,0
136,64,9069,1,0
128,112,9185,1,0
128,208,9416,1,0
128,256,9531,1,0
128,352,9762,2,0,B|200:352|216:288|216:288,1,115,8|0
304,288,10223,6,0,B|304:232|304:232,2,57.5
400,288,10685,1,8
432,256,10800,1,0
400,224,10916,1,0
432,192,11031,1,0
400,104,11262,1,0
432,72,11377,1,0
344,40,11608,2,0,B|288:16|288:16|240:48|240:48,1,115,8|0
152,48,12069,5,0
112,72,12185,1,0
96,112,12300,1,0
96,160,12416,1,0
112,200,12531,1,8
208,200,12762,1,0
208,152,12877,1,0
288,200,13108,1,0
288,248,13223,1,0
288,344,13454,2,0,B|368:344|383:272|383:272,1,115,8|0
384,192,13916,5,0
384,144,14031,1,0
384,96,14146,1,0
312,40,14377,2,0,B|312:112|312:112|272:144|272:144,1,115,8|0
232,138,14723,2,0,B|197:109|197:109|198:39,1,115
152,40,15069,1,0
112,64,15185,1,0
80,96,15300,1,8
72,144,15416,1,0
80,192,15531,1,0
104,232,15646,1,0
136,264,15762,6,0,B|208:264|208:344|208:344|352:344|352:344|344:248|440:264|440:264,1,402.5,4|0
480,264,16685,1,0
456,224,16800,1,0
480,184,16916,1,0
456,144,17031,1,0
480,104,17146,2,0,B|472:32|400:40|400:40,1,115,8|0
304,40,17608,6,0,B|176:40|184:168|184:168|312:160|296:320|296:320,1,402.5,4|0
296,344,18531,1,0
256,328,18646,1,0
240,280,18762,1,0
224,240,18877,1,0
184,224,18993,2,0,B|112:216|128:136|128:136,1,115,8|0
32,32,19454,6,0,B|208:32|208:32|208:192|376:160|376:160,1,402.5,4|0
400,160,20377,1,0
448,160,20493,1,0
448,208,20608,1,0
448,256,20723,1,0
400,256,20839,2,0,B|280:256|280:256,1,115,8|0
256,192,21300,8,4,22108
248,32,23146,5,4
320,32,23262,1,0
392,32,23377,1,0
392,168,23608,2,0,B|296:168|296:168|240:104|240:104|200:168|200:168,1,230,4|0
64,216,23954,2,0,B|160:216|160:216|216:280|216:280|256:208|256:208,1,230
392,232,24300,1,2
392,368,24531,2,0,B|296:384|224:304|240:232|240:232,1,230
248,32,24993,5,4
176,32,25108,1,0
104,32,25223,1,0
216,112,25454,2,0,B|256:176|256:176|288:120|288:120|384:120|384:120,1,230,4|0
296,304,25800,2,0,B|256:240|256:240|224:296|224:296|128:296|128:296,1,230
144,112,26146,1,2
40,200,26377,2,2,B|40:344|40:344|136:344|136:344,1,230,4|0
264,344,26839,5,4
264,344,26954,1,0
264,344,27069,1,0
296,32,27300,2,0,B|336:88|296:152|296:152|392:208|392:208,1,230,4|0
232,32,27646,2,0,B|192:88|232:152|232:152|136:208|136:208,1,230
264,344,27993,1,2
264,224,28223,2,2,B|264:280|264:280|329:288|328:360|328:360|401:360|401:360,1,230,4|0
480,192,28685,6,0,B|400:208|392:128|392:128,2,115,4|0|0
352,136,29146,2,0,B|296:136|272:64|272:64|248:136|176:136|176:136,1,230,4|0
24,240,29493,2,0,B|80:240|104:312|104:312|128:240|200:240|200:240,1,230
256,240,29839,1,0
328,240,29954,1,0
384,288,30069,1,4
440,240,30185,1,0
384,192,30300,1,0
384,120,30416,1,0
384,48,30531,6,0,B|336:24|336:24|280:48|280:48,1,115,4|0
279,48,30762,1,0
144,48,30993,2,0,B|88:88|88:88|88:144|88:144|144:168|144:168|144:224|144:224,1,230,4|0
208,344,31339,2,0,B|264:304|264:304|264:248|264:248|208:224|208:224|208:168|208:168,1,230
208,48,31685,1,2
344,48,31916,2,2,B|496:32|480:208|480:208,1,230,4|0
480,328,32377,5,4
480,256,32493,1,0
416,288,32608,1,0
288,320,32839,2,0,B|176:368|176:368|80:320|80:320,1,230,4|0
288,248,33185,2,0,B|176:200|176:200|80:248|80:248,1,230
179,284,33531,1,2
194,146,33762,2,2,B|304:196|304:196|391:131|391:131,1,230,4|0
296,30,34223,5,4
224,32,34339,1,0
152,32,34454,1,0
32,104,34685,2,0,B|96:104|96:104|64:160|64:160|56:240|144:240|144:240,1,230,4|0
272,104,35031,2,0,B|208:104|208:104|240:160|240:160|248:240|160:240|160:240,1,230
152,104,35377,1,2
152,240,35608,2,2,B|136:296|152:352|224:352|224:352|288:304|288:304,1,230,4|0
416,312,36069,6,0,B|336:304|352:224|352:224,2,115,4|0|0
480,192,36531,2,0,B|472:40|328:24|328:24,1,230,4|0
144,192,36877,2,0,B|152:40|296:24|296:24,1,230
312,88,37223,1,0
312,160,37339,1,0
312,232,37454,1,4
312,304,37569,1,0
272,360,37685,1,0
200,360,37800,1,0
128,360,37916,1,4
480,192,45300,6,0,B|480:112|408:96|408:96,1,115
480,264,45762,1,8
32,192,46223,6,0,B|32:112|104:96|104:96,1,115
32,264,46685,1,8
256,352,47146,6,0,B|216:304|256:224|256:224,1,115,8|0
336,352,47608,1,8
336,216,47839,2,0,B|336:160|336:160,2,57.5
456,280,48300,2,0,B|456:160|456:160,1,115,0|8
312,32,48993,6,0,B|192:32|192:32,1,115
256,152,49454,1,8
200,352,49916,6,0,B|320:352|320:352,1,115
256,232,50377,1,8
480,136,50839,6,0,B|480:256|480:256,1,115
352,192,51300,1,8
216,192,51531,2,0,B|160:192|160:192,2,57.5
80,192,51993,2,0,B|80:120|152:112|152:112,1,115,0|8
184,112,52339,1,0
216,112,52454,1,0
248,104,52569,1,0
280,96,52685,6,0,B|328:96|352:24|352:24|376:96|440:96|440:96,1,230,4|0
360,208,53146,2,0,B|312:208|288:280|288:280|264:208|200:208|200:208,1,230,4|0
32,144,53493,2,0,B|80:144|104:72|104:72|128:144|192:144|192:144,1,230
360,144,53839,1,2
496,144,54069,1,6
496,216,54185,1,0
496,288,54300,1,0
376,352,54531,5,4
336,296,54646,1,0
296,352,54762,1,0
160,352,54993,2,0,B|160:264|160:264|80:264|80:264|80:352|80:352,1,230,4|0
80,120,55339,2,0,B|80:208|80:208|160:208|160:208|160:120|160:120,1,230
336,240,55685,1,2
336,104,55916,2,2,B|339:170|339:170|397:172|436:236|399:279|382:294|382:294,1,230,4|0
256,32,56377,5,4
256,104,56493,1,0
256,176,56608,1,0
128,112,56839,2,0,B|128:344|128:344,1,230,4|0
192,144,57185,2,0,B|192:376|192:376,1,230
256,176,57531,1,2
384,112,57762,2,2,B|384:344|384:344,1,230,4|0
256,280,58223,5,4
200,320,58339,1,0
144,360,58454,1,0
32,280,58685,2,0,B|120:200|120:200|24:136|24:136,1,230,4|0
176,280,59031,2,0,B|264:200|264:200|168:136|168:136,1,230
112,104,59377,1,0
152,48,59493,1,0
208,88,59608,1,4
256,40,59723,1,0
304,88,59839,1,0
256,136,59954,1,0
256,208,60069,6,0,B|400:200|408:56|408:56,1,230,4|0
480,168,60531,2,0,B|432:216|432:216|472:248|472:248|416:288|416:288|464:328|464:328,1,230,4|0
240,312,60877,2,0,B|288:264|288:264|248:232|248:232|304:192|304:192|256:152|256:152,1,230
360,248,61223,1,2
360,112,61454,1,6
240,48,61685,1,0
104,48,61916,5,4
48,88,62031,1,0
45,156,62146,1,0
56,296,62377,2,0,B|80:240|80:240|144:360|144:360|160:320|160:320,1,230,4|0
360,296,62723,2,0,B|336:240|336:240|272:360|272:360|256:320|256:320,1,230
208,176,63069,1,2
208,40,63300,2,2,B|344:40|368:192|368:192,1,230,4|0
504,184,63762,6,0,B|504:320|504:320,2,115,4|0|0
496,48,64223,2,4,B|416:48|384:128|384:128|288:128|288:128,1,230
184,296,64569,2,0,B|264:296|296:216|296:216|392:216|392:216,1,230
208,176,64916,1,2
72,176,65146,2,2,B|72:88|144:64|144:64|128:16|48:40|48:40,1,230,4|0
208,32,65608,6,0,B|336:32|336:32,2,115,4|0|0
320,112,66069,2,0,B|384:112|408:48|408:48|408:184|408:184,1,230,4|0
208,112,66416,2,0,B|144:112|120:176|120:176|120:40|120:40,1,230
48,64,66762,1,0
48,136,66877,1,0
48,208,66993,1,4
48,280,67108,1,0
112,248,67223,1,0
112,320,67339,1,0
176,280,67454,1,4
480,192,74839,6,0,B|480:104|400:96|400:96,1,115
320,192,75300,2,0,B|320:280|400:288|400:288,1,115,8|0
480,192,75762,2,0,B|480:104|400:96|400:96,1,115
320,192,76223,2,0,B|320:280|400:288|400:288,1,115,8|0
376,328,76569,1,0
336,352,76685,6,0,B|208:352|208:352,1,115
104,280,77146,2,0,B|232:280|232:280,1,115,8|0
336,208,77608,2,0,B|208:208|208:208,1,115
104,136,78069,2,0,B|232:136|232:136,1,115,8|0
216,88,78416,1,0
264,88,78531,6,0,B|336:80|320:0|320:0,1,115
456,8,78993,2,0,B|456:136|456:136,1,115,8|0
376,240,79454,2,0,B|376:112|376:112,1,115
304,240,79916,2,0,B|224:248|232:336|232:336,1,115,8|0
184,320,80262,1,0
136,320,80377,6,0,B|136:248|64:240|64:240,3,115,0|0|8|0
256,192,81300,12,4,82223
256,32,82685,5,8
48,32,83031,1,0
48,176,83262,1,8
48,104,83377,1,0
168,176,83608,2,0,B|160:248|112:280|112:280,1,115,8|0
256,280,84069,5,0
440,64,84531,1,8
256,168,84877,1,0
256,32,85108,2,0,B|256:96|256:96,1,57.5,8|0
128,32,85454,2,0,B|128:160|128:160,1,115,8|0
128,288,85916,6,0,B|208:288|216:360|216:360|328:360|328:360,1,230,0|8
440,192,86723,2,0,B|360:184|376:104|376:104,1,115,0|8
304,112,87069,2,0,B|184:112|184:112,2,115,0|8|0
184,184,87762,6,0,B|264:184|264:256|264:256|328:256|328:256|328:304|328:304,1,230,0|8
120,296,88569,2,0,B|59:268|54:186|54:186,1,115,0|8
62,148,88916,2,0,B|72:87|146:57|146:57,1,115,0|8
408,56,89608,5,0
408,328,90069,1,8
248,192,90416,1,0
176,192,90531,1,0
112,168,90646,1,8
80,104,90762,1,0
208,48,90993,1,8
408,328,91454,5,0
408,56,91915,1,8
248,192,92262,1,0
176,192,92377,1,0
112,216,92492,1,8
80,280,92608,1,0
208,336,92839,1,8
40,64,93300,5,0
176,64,93531,1,0
112,184,93762,1,8
248,192,93993,2,0,B|288:192|296:160|296:160,4,57.5,0|0|0|8|0
384,168,94685,1,8
256,192,95146,12,4,96531
272,80,96993,5,0
384,80,97224,1,0
328,184,97454,1,8
328,296,97685,6,0,B|296:296|272:272|272:272,1,57.5
216,272,97916,2,0,B|160:272|160:272,1,57.5
104,272,98147,2,2,B|8:272|8:272|80:200|112:104|-8:48|-8:48,1,345,0|0
64,32,98954,5,0
120,32,99070,1,0
232,32,99301,2,0,B|304:32|336:96|336:96,1,115,8|0
384,88,99647,2,0,B|384:216|384:216,1,115
384,264,99993,2,2,B|384:320|448:352|448:352|280:400|240:224|240:224,1,345,0|0
200,264,100801,5,0
152,288,100916,1,0
128,344,101031,1,0
112,288,101147,2,0,B|112:248|80:248|80:248|80:184|80:184,1,115,8|0
80,136,101493,2,0,B|80:80|80:80|112:80|112:32|112:32,1,115
168,40,101839,2,2,B|168:168|168:168|224:32|376:56|376:56,1,345,0|0
392,56,102647,5,0
368,112,102762,1,0
368,224,102993,1,8
408,272,103108,1,0
368,312,103224,1,0
328,272,103339,1,0
216,272,103570,1,0
160,272,103685,1,0
120,312,103801,1,0
104,256,103916,1,8
64,216,104031,1,0
64,160,104147,1,0
64,104,104262,1,0
112,136,104377,5,0
344,136,104839,1,8
232,264,105185,1,0
232,208,105301,1,0
280,240,105416,1,0
280,296,105531,1,2
232,328,105647,1,0
184,304,105762,1,2
72,304,105993,1,0
72,192,106224,6,0,B|72:32|224:32|224:32,1,230,0|8
368,88,107031,1,0
368,32,107147,1,0
320,64,107262,1,0
320,120,107377,1,2
368,152,107493,1,0
416,128,107608,1,2
416,240,107839,1,0
304,240,108070,6,0,B|304:304|360:336|360:336|240:336|240:336,1,230,0|8
256,160,108877,1,0
200,160,108993,1,0
152,128,109108,1,0
128,80,109224,1,2
104,128,109339,1,0
64,168,109454,1,2
128,264,109685,1,0
240,264,109916,5,4
296,264,110031,1,0
344,232,110146,1,0
368,176,110262,1,0
360,120,110377,1,4
328,72,110493,1,0
272,48,110608,1,0
216,56,110723,1,0
160,56,110839,2,0,B|128:56|128:56,4,28.75,4|0|0|0|4
256,160,111300,1,4
256,160,111531,1,4
256,40,113608,6,0,B|184:32|168:104|168:104,2,115,4|0|0
392,40,114069,2,0,B|392:176|392:176,1,115,4|0
320,152,114300,2,0,B|320:280|320:280,1,115
320,336,114531,2,0,B|249:333|249:263|249:263,1,115,4|0
176,256,114762,2,0,B|112:256|112:256|112:192|112:192,1,115,2|0
40,208,114993,2,2,B|46:138|119:132|119:132|120:8|120:8,1,230,4|0
256,24,115454,5,4
256,24,115569,1,0
256,24,115685,1,0
392,24,115916,2,0,B|464:24|464:96|464:96,1,115,4|0
392,96,116146,2,0,B|280:176|280:176,1,115
328,224,116377,2,0,B|432:152|432:152,1,115,4|0
464,216,116608,2,0,B|400:256|448:320|448:320,1,115,2|0
376,320,116839,2,2,B|256:320|256:320|256:240|184:240|184:240,1,230,4|0
64,192,117300,5,4
64,120,117416,1,0
128,152,117531,1,0
64,272,117762,2,0,B|136:272|136:352|136:352,3,115,4|0|0|0
208,344,118223,2,0,B|344:344|344:344,3,115,4|0|2|0
392,344,118685,2,2,B|392:280|320:272|320:272|320:192|320:192|384:192|384:192,1,230,4|0
256,96,119146,5,4
256,96,119262,1,0
256,96,119377,1,0
120,96,119608,2,0,B|120:160|176:200|176:200,1,115,4|0
168,264,119839,2,0,B|240:264|240:192|240:192,1,115
312,192,120069,1,4
344,256,120185,1,0
416,256,120300,1,0
440,192,120416,1,0
416,128,120531,1,4
376,192,120646,1,0
344,128,120762,1,0
376,64,120877,1,0
304,64,120993,6,0,B|144:120|224:0|40:72|40:72,1,230,4|0
80,200,121454,2,0,B|144:200|144:200|144:264|144:264|80:264|80:264|80:304|80:304,1,230,4|0
264,200,121800,2,0,B|200:200|200:200|200:264|200:264|264:264|264:264|264:304|264:304,1,230
168,120,122146,1,2
304,128,122377,2,2,B|368:128|392:200|392:200|456:192|472:256|472:256,1,230,4|0
264,344,122839,5,4
264,272,122954,1,0
264,200,123069,1,0
264,64,123300,2,0,B|224:64|224:64|184:24|184:24|120:24|88:80|128:120|128:120,1,230,4|0
328,128,123646,2,0,B|368:128|368:128|408:168|408:168|472:168|504:112|464:72|464:72,1,230
264,64,123993,1,2
264,200,124223,2,2,B|112:192|120:368|120:368,1,230,4|0
32,240,124685,6,0,B|32:112|32:112,2,115,4|0|0
104,120,125146,2,0,B|160:120|176:40|176:40|248:40|248:40|224:96|224:96,1,230,4|0
104,240,125493,2,0,B|160:240|176:320|176:320|248:320|248:320|224:264|224:264,1,230
56,176,125839,1,2
192,176,126069,2,2,B|440:176|440:176,1,230,4|0
424,40,126531,5,4
424,40,126646,1,0
424,40,126762,1,0
288,40,126993,1,4
288,40,127108,1,0
288,40,127223,1,0
256,192,127339,12,4,128377
