osu file format v9

[General]
AudioFilename: Blue Stahli - Bulletproof.mp3
AudioLeadIn: 1500
PreviewTime: 23146
Countdown: 0
SampleSet: Normal
StackLeniency: 0.7
Mode: 0
LetterboxInBreaks: 0
EpilepsyWarning: 1

[Editor]
DistanceSpacing: 0.8
BeatDivisor: 4
GridSize: 8

[Metadata]
Title:Bulletproof
Artist:Blue Stahli
Creator:jericho2442
Version:Heaven
Source:
Tags:deadbeat

[Difficulty]
HPDrainRate:1
CircleSize:3
OverallDifficulty:2
ApproachRate:2
SliderMultiplier:0.999999999999999
SliderTickRate:2

[Events]
//Background and Video events
0,0,"Blue Stahli BG.jpg"
//Break Periods
2,38116,44202
2,67654,73279
2,111731,112048
//Storyboard Layer 0 (Background)
//Storyboard Layer 1 (Fail)
//Storyboard Layer 2 (Pass)
//Storyboard Layer 3 (Foreground)
//Storyboard Sound Samples
//Background Colour Transformations
3,100,163,162,255

[TimingPoints]
993,461.538461538462,4,1,0,100,1,0
15762,-100,4,1,1,100,0,0
23146,-100,4,1,1,100,0,1
37916,-100,4,1,1,100,0,0
52685,-100,4,1,1,100,0,1
67454,-100,4,1,1,100,0,0
113608,-100,4,1,1,100,0,1
128377,-100,4,1,1,100,0,0

[Colours]
Combo1 : 0,0,255
Combo2 : 255,0,0

[HitObjects]
256,32,993,6,0,B|368:32|459:131|403:251|403:251,1,300,0|8
400,320,2839,2,0,B|320:400|280:320|200:224|112:336|112:336,1,300,0|8
46,328,4685,6,0,B|46:272|102:248|102:248|102:144|102:144|102:112|118:80|150:72|150:72,1,300,0|8
182,144,6531,2,0,B|302:144|302:144|334:144|374:176|374:208|374:240|374:240|374:304|374:304,1,300,0|8
294,288,8377,5,0
134,288,9300,1,8
134,128,10223,2,0,B|134:208|134:208|186:211|206:256|206:256|206:112|206:112,1,300,0|8
206,48,12069,5,0
358,96,12993,1,8
358,256,13916,2,0,B|357:172|357:172|278:169|270:96|251:32|352:19|352:19,1,300,0|8
414,24,15762,5,8
414,104,16223,1,0
494,104,16685,2,0,B|486:168|432:182|432:182|432:289|432:289,1,200,8|8
366,328,18069,5,0
294,368,18531,2,0,B|182:368|182:368|174:312|126:296|126:296,1,200,8|8
102,376,19916,5,0
22,376,20377,2,0,B|22:320|78:296|78:296|78:192|78:192,1,200,8|8
78,120,21762,5,0
150,160,22223,1,8
256,40,23146,6,0,B|320:40|336:104|336:104,2,99.9999999999999,4|0|0
256,120,24531,1,8
256,200,24993,6,0,B|256:264|192:280|192:280,2,99.9999999999999,4|0|0
176,200,26377,1,8
96,200,26839,5,4
40,256,27300,1,0
40,336,27762,1,0
120,336,28223,1,8
200,336,28685,6,0,B|264:336|264:336|296:296|352:296|384:336|384:336,1,200,4|0
464,336,30069,1,8
464,256,30531,6,0,B|464:192|408:168|408:168,1,99.9999999999999,4|0
384,248,31454,2,0,B|336:200|280:240|280:240,1,99.9999999999999,0|8
208,232,32377,6,0,B|208:128|208:128,1,99.9999999999999,4|0
128,160,33300,2,0,B|128:56|128:56,1,99.9999999999999,0|8
47,61,34223,6,0,B|47:165|47:165,1,99.9999999999999,4|0
88,232,35146,1,0
88,312,35608,1,8
256,192,36069,12,4,37916
256,40,45762,6,0,B|128:40|128:176|128:176,1,200,8|8
128,328,47608,2,0,B|256:328|256:192|256:192,1,200,8|8
256,120,48993,5,0
256,40,49454,2,0,B|320:40|356:99|354:162|296:192|296:192,1,200,8|8
144,192,51300,2,0,B|136:328|264:352|264:352,1,200,8|8
325,346,52685,6,0,B|389:346|400:280|400:280,1,99.9999999999999,4|0
320,264,53608,2,0,B|344:208|304:168|304:168,1,99.9999999999999,0|8
248,224,54531,6,0,B|200:160|248:120|248:120,1,99.9999999999999,4|0
240,48,55454,2,0,B|128:48|128:48,1,99.9999999999999,0|8
56,48,56377,5,4
104,112,56839,1,0
56,176,57300,1,0
104,240,57762,1,8
104,320,58223,6,0,B|168:320|199:267|208:208|147:171|147:171,1,200,4|0
216,120,59608,1,8
296,120,60069,6,0,B|424:120|448:240|448:240,1,200,4|0
448,312,61454,1,8
368,328,61916,6,0,B|240:336|224:208|224:208,1,200,4|0
144,216,63300,1,8
64,216,63762,6,0,B|67:154|119:112|187:117|216:179|216:179,1,200,4|0
288,168,65146,1,8
368,168,65608,6,0,B|368:112|312:80|272:88|272:88|272:24|272:24,1,200,4|0
191,27,66993,1,8
111,28,67454,1,4
480,192,74839,6,0,B|478:125|429:103|429:103|427:103,2,99.9999999999999,0|8|0
480,272,76223,1,8
432,336,76685,6,0,B|328:336|328:336,1,99.9999999999999,0|8
248,336,77608,2,0,B|136:336|136:336,1,99.9999999999999,0|8
64,336,78531,6,0,B|64:280|120:256|120:256,1,99.9999999999999,0|8
120,176,79454,2,0,B|120:72|120:72,1,99.9999999999999,0|8
200,76,80377,6,0,B|200:148|248:172|248:172|248:220|248:220|248:332|320:332|320:332,1,300,0|8
392,336,82223,5,0
392,256,82685,1,8
392,96,83608,1,8
312,96,84069,5,0
312,176,84531,1,8
312,336,85454,1,8
312,256,85916,5,0
240,296,86377,1,8
80,296,87300,1,8
160,296,87762,5,0
200,224,88223,1,8
200,64,89146,1,8
360,64,90069,6,0,B|352:128|408:152|408:152,2,99.9999999999999,8|0|8
280,64,91454,1,0
200,64,91916,6,0,B|208:128|152:152|152:152,2,99.9999999999999,8|0|8
280,64,93300,1,0
280,144,93762,6,0,B|280:256|280:256,1,99.9999999999999,8|0
280,328,94685,1,8
208,288,95146,5,0
144,336,95608,1,8
80,288,96069,1,0
144,240,96531,1,8
144,160,96993,6,2,B|152:16|288:32|288:32,1,200,4|0
352,32,98377,1,8
432,32,98839,6,2,B|429:95|372:112|372:112|372:222|372:222,1,200,0|0
371,284,100223,1,8
312,232,100685,6,2,B|184:232|184:368|184:368,1,200,0|0
104,360,102069,1,8
24,360,102531,6,2,B|24:296|96:272|96:272|96:192|96:192,1,200,0|0
96,112,103916,1,8
176,112,104377,5,0
312,32,105300,1,8
448,112,106223,1,0
312,200,107146,1,8
312,360,108069,6,0,B|240:360|216:304|216:304,1,99.9999999999999,0|8
144,312,108993,2,0,B|40:312|40:312,1,99.9999999999999,8|8
40,232,109916,6,0,B|104:232|104:232,7,50,0|0|8|0|0|0|8|4
256,40,113608,5,4
336,40,114069,1,0
408,80,114531,1,0
424,160,114993,1,8
424,240,115454,5,4
352,200,115916,1,0
280,240,116377,1,0
208,200,116839,1,8
128,200,117300,5,4
168,128,117762,1,0
248,128,118223,1,0
312,80,118685,1,8
392,80,119146,6,0,B|392:192|392:192,1,99.9999999999999,4|0
392,264,120069,2,0,B|392:368|392:368,1,99.9999999999999,0|8
312,368,120993,5,4
312,288,121454,1,0
312,208,121916,2,0,B|248:208|234:267|234:267,1,99.9999999999999,0|8
155,261,122839,5,4
88,208,123300,1,0
24,160,123762,2,0,B|64:104|128:136|128:136,1,99.9999999999999,0|8
192,128,124685,6,0,B|192:16|192:16,1,99.9999999999999,4|0
272,32,125608,2,0,B|272:144|272:144,1,99.9999999999999,0|8
256,192,126531,12,4,128377
