osu file format v12

[General]
AudioFilename: AtomSmasher.mp3
AudioLeadIn: 0
PreviewTime: 98458
Countdown: 0
SampleSet: Soft
StackLeniency: 0.7
Mode: 0
LetterboxInBreaks: 0

[Editor]
DistanceSpacing: 1
BeatDivisor: 4
GridSize: 4

[Metadata]
Title:Atom Smasher
TitleUnicode:Atom Smasher
Artist:Blue Stahli
ArtistUnicode:Blue Stahli
Creator:Cobra
Version:Amateur
Source:
Tags:antisleep vol. three fixt music bret autrey
BeatmapID:239260
BeatmapSetID:87626

[Difficulty]
HPDrainRate:3
CircleSize:3
OverallDifficulty:3
ApproachRate:3
SliderMultiplier:0.8
SliderTickRate:1

[Events]
//Background and Video events
0,0,"BG.jpg",0,0
//Break Periods
2,65278,69976
//Storyboard Layer 0 (Background)
//Storyboard Layer 1 (Fail)
//Storyboard Layer 2 (Pass)
//Storyboard Layer 3 (Foreground)
//Storyboard Sound Samples
//Background Colour Transformations
3,100,163,162,255

[TimingPoints]
853,422.535211267606,4,2,1,45,1,0
14374,-100,4,2,1,55,0,0
14479,-100,4,2,1,45,0,0
24514,-100,4,2,1,60,0,0
27895,-100,4,2,1,45,0,0
31275,-100,4,2,1,70,0,0
58317,-100,4,2,1,70,0,0
58529,-100,4,2,1,20,0,0
71838,-100,4,2,1,60,0,0
71944,-100,4,2,1,45,0,0
87050,-100,4,2,1,55,0,0
88740,-100,4,2,1,65,0,0
90430,-100,4,2,1,75,0,0
92120,-100,4,2,1,85,0,0
93810,-100,4,2,1,95,0,0
98881,-100,4,2,1,70,0,1
108176,-100,4,2,1,70,0,0
109022,-100,4,2,1,70,0,1
125500,-100,4,2,1,70,0,0
125923,-100,4,2,1,65,0,0
132683,-100,4,2,1,70,0,0

[Colours]
Combo1 : 131,83,255
Combo2 : 63,100,228

[HitObjects]
56,308,14374,2,0,P|108:264|208:284,1,160,4|2,0:0|0:0,0:0:0:0:
256,328,15641,1,0,0:0:0:0:
317,273,16064,2,0,P|404:264|456:308,1,160,0|2,0:0|0:0,0:0:0:0:
480,148,17754,5,0,0:0:0:0:
340,72,18599,1,2,0:0:0:0:
180,60,19444,2,0,P|132:72|84:172,1,160,0|2,0:0|0:0,0:0:0:0:
188,288,21134,5,4,0:0:0:0:
264,312,21557,1,0,0:0:0:0:
336,276,21979,2,0,P|404:248|492:276,2,160,2|0|2,0:0|1:0|0:0,0:0:0:0:
176,300,24514,6,0,L|92:308,2,80,2|0|2,0:0|0:0|0:0,0:0:0:0:
256,288,25782,1,0,0:0:0:0:
336,276,26205,6,0,L|415:268,2,80,2|0|2,0:0|0:0|0:0,0:0:0:0:
256,288,27472,1,4,0:0:0:0:
256,192,27895,12,0,30430,0:0:0:0:
88,68,31275,6,0,P|144:72|204:160,1,160,4|8,0:0|0:0,0:0:0:0:
256,212,32543,1,0,0:0:0:0:
308,149,32965,2,0,P|368:72|424:68,1,160,0|8,0:0|0:0,0:0:0:0:
492,212,34655,6,0,P|468:240|428:268,1,80,4|0,0:0|0:0,0:0:0:0:
360,300,35500,1,8,0:0:0:0:
200,316,36345,2,0,B|120:316|120:316|40:276,1,160,0|8,0:0|0:0,0:0:0:0:
120,136,38036,6,0,B|224:128|260:48,1,160,4|8,0:0|0:0,0:0:0:0:
328,32,39303,1,0,0:0:0:0:
408,36,39726,1,0,0:0:0:0:
452,184,40571,1,8,0:0:0:0:
432,260,40993,1,0,0:0:0:0:
368,308,41416,6,0,L|200:308,1,160,4|8,0:0|0:0,0:0:0:0:
36,312,43106,2,0,P|18:234|40:156,1,160,0|8,0:0|0:0,0:0:0:0:
80,88,44374,1,0,0:0:0:0:
144,40,44796,2,0,B|200:60|200:60|248:60|248:60|304:80,1,160,2|4,0:0|0:0,0:0:0:0:
332,232,46486,6,0,P|316:280|400:348,2,160,0|8|4,0:0|0:0|0:0,0:0:0:0:
256,204,48599,1,2,0:0:0:0:
180,232,49022,2,0,P|196:280|112:348,1,160,8|0,0:0|0:0,0:0:0:0:
72,196,50712,1,8,0:0:0:0:
180,76,51557,6,0,B|224:68|256:92|256:92|288:68|332:76,1,160,4|8,0:0|0:0,0:0:0:0:
404,112,52824,1,0,0:0:0:0:
452,176,53247,2,0,L|472:272,2,80,0|2|8,0:0|0:0|0:0,0:0:0:0:
316,92,54937,5,4,0:0:0:0:
256,40,55360,1,2,0:0:0:0:
196,92,55782,1,8,0:0:0:0:
156,248,56627,6,0,P|256:351|356:248,1,320,0|0,0:0|0:0,0:0:0:0:
256,192,58529,12,4,65078,1:0:0:0:
208,132,71416,6,0,L|196:76,2,40,0|0|4,0:0|0:0|0:0,0:0:0:0:
256,284,72683,5,2,0:0:0:0:
408,328,73529,2,0,P|480:292|476:204,1,160,0|2,0:0|0:0,0:0:0:0:
456,144,74796,1,0,0:0:0:0:
392,96,75219,1,0,0:0:0:0:
232,80,76064,6,0,B|232:140|232:140|164:232,1,160,2|0,0:0|0:0,0:0:0:0:
96,248,77331,1,0,0:0:0:0:
160,300,77754,2,0,P|244:328|316:312,1,160,2|4,0:0|0:0,0:0:0:0:
392,300,79022,6,0,P|395:259|426:219,1,80,0|2,0:0|0:0,0:0:0:0:
492,88,80289,2,0,P|489:129|458:169,1,80,0|0,0:0|0:0,0:0:0:0:
412,104,81134,2,0,P|332:128|312:204,1,160,2|0,0:0|0:0,0:0:0:0:
256,256,82402,5,0,0:0:0:0:
201,194,82824,2,0,P|180:128|100:104,1,160,2|0,0:0|0:0,0:0:0:0:
32,248,84514,1,2,0:0:0:0:
188,280,85360,6,0,L|344:316,1,160,4|0,0:0|1:0,0:0:0:0:
476,228,87050,2,0,L|320:192,1,160,0|0,1:0|1:0,0:0:0:0:
204,88,88740,6,0,B|164:72|164:108|128:88|128:88|92:72|92:108|52:88,1,160,0|0,1:0|1:0,0:0:0:0:
52,248,90430,2,0,B|92:264|92:228|128:248|128:248|164:264|164:228|204:248,1,160,0|0,1:0|1:0,0:0:0:0:
332,336,92120,6,0,P|368:324|400:296,2,80,0|0|0,1:0|0:0|1:0,0:0:0:0:
256,196,93810,2,0,P|224:168|188:156,2,80,0|0|0,1:0|0:0|1:0,0:0:0:0:
332,336,95500,2,0,P|408:324|440:248,1,160,0|0,1:0|1:0,0:0:0:0:
436,176,96768,1,0,1:0:0:0:
416,100,97191,5,4,0:0:0:0:
416,100,98881,6,0,P|340:136|292:212,1,160,4|8,0:0|0:0,0:0:0:0:
192,316,100571,2,0,P|104:312|68:244,1,160,0|8,0:0|0:0,0:0:0:0:
120,192,101838,1,0,0:0:0:0:
69,127,102261,2,0,P|104:72|192:68,1,160,4|8,0:0|0:0,0:0:0:0:
256,216,103951,5,0,0:0:0:0:
376,124,104796,2,4,L|464:132,2,80,8|0|4,0:0|0:0|0:0,0:0:0:0:
256,20,106486,2,0,P|208:84|120:88,1,160,8|0,0:0|0:0,0:0:0:0:
72,148,107754,1,2,0:0:0:0:
96,224,108176,6,0,B|152:280|152:280|160:368,1,160,8|4,0:0|0:0,0:0:0:0:
256,232,109867,1,8,0:0:0:0:
352,360,110712,2,0,B|359:279|359:279|415:223,1,160,0|8,0:0|0:0,0:0:0:0:
472,168,111979,1,0,0:0:0:0:
416,112,112402,6,4,L|384:24,2,80,4|0|8,0:0|0:0|0:0,0:0:0:0:
380,268,114092,2,0,P|308:300|236:268,1,160,0|8,0:0|0:0,0:0:0:0:
204,196,115360,1,0,0:0:0:0:
180,120,115782,6,0,P|108:88|36:120,2,160,4|8|0,0:0|0:0|0:0,0:0:0:0:
332,72,118317,1,8,0:0:0:0:
408,92,118740,1,0,0:0:0:0:
468,148,119162,5,4,0:0:0:0:
488,308,120007,1,8,0:0:0:0:
332,352,120853,2,0,P|268:336|232:256,1,160,0|8,0:0|0:0,0:0:0:0:
212,180,122120,1,0,0:0:0:0:
160,120,122543,6,0,L|24:32,2,160,4|8|8,0:0|0:0|0:0,0:0:0:0:
212,180,124655,2,0,P|252:188|296:180,1,80,8|8,0:0|0:0,0:0:0:0:
348,128,125500,1,8,0:0:0:0:
420,164,125923,6,0,L|444:252,2,80,4|0|4,0:0|0:0|0:0,0:0:0:0:
296,264,127613,2,0,L|320:352,2,80,4|0|4,0:0|0:0|0:0,0:0:0:0:
256,192,129303,12,4,132683,1:0:0:0:
