osu file format v12

[General]
AudioFilename: AtomSmasher.mp3
AudioLeadIn: 0
PreviewTime: 98458
Countdown: 0
SampleSet: Soft
StackLeniency: 0.7
Mode: 0
LetterboxInBreaks: 0

[Editor]
DistanceSpacing: 0.8
BeatDivisor: 4
GridSize: 4

[Metadata]
Title:Atom Smasher
TitleUnicode:Atom Smasher
Artist:Blue Stahli
ArtistUnicode:Blue Stahli
Creator:Cobra
Version:Advanced
Source:
Tags:antisleep vol. three fixt music bret autrey
BeatmapID:239259
BeatmapSetID:87626

[Difficulty]
HPDrainRate:6
CircleSize:4
OverallDifficulty:6
ApproachRate:8
SliderMultiplier:1.3
SliderTickRate:2

[Events]
//Background and Video events
0,0,"BG.jpg",0,0
//Break Periods
2,65278,70666
//Storyboard Layer 0 (Background)
//Storyboard Layer 1 (Fail)
//Storyboard Layer 2 (Pass)
//Storyboard Layer 3 (Foreground)
//Storyboard Sound Samples
//Background Colour Transformations
3,100,163,162,255

[TimingPoints]
853,422.535211267606,4,2,1,45,1,0
14374,-100,4,2,1,55,0,0
14479,-100,4,2,1,45,0,0
25360,-100,4,2,1,55,0,0
26205,-100,4,2,1,65,0,0
27050,-100,4,2,1,75,0,0
27895,-100,4,2,1,45,0,0
31275,-80,4,2,1,70,0,0
44796,-80,4,2,1,70,0,0
45641,-80,4,2,1,70,0,0
57472,-80,4,2,1,80,0,0
58317,-80,4,2,1,70,0,0
58529,-100,4,2,1,20,0,0
71416,-100,4,2,1,45,0,0
71838,-100,4,2,1,60,0,0
71944,-100,4,2,1,45,0,0
87050,-100,4,2,1,55,0,0
88740,-100,4,2,1,65,0,0
90430,-100,4,2,1,75,0,0
92120,-80,4,2,1,80,0,0
92965,-80,4,2,1,85,0,0
93810,-80,4,2,1,90,0,0
98881,-80,4,2,1,70,0,1
108176,-80,4,2,1,70,0,0
109022,-80,4,2,1,70,0,1
125500,-80,4,2,1,70,0,0
125923,-80,4,2,1,55,0,0
132683,-80,4,2,1,70,0,0

[Colours]
Combo1 : 131,83,255
Combo2 : 63,100,228

[HitObjects]
80,272,14374,2,0,P|156:273|204:232,1,130,4|0,0:0|0:0,0:0:0:0:
314,141,15219,2,0,P|356:111|432:112,1,130,2|0,0:0|0:0,0:0:0:0:
484,168,15853,1,0,0:0:0:0:
432,224,16064,2,0,L|400:360,1,130
314,358,16698,2,0,L|344:232,1,130,2|0,0:0|0:0,0:0:0:0:
360,160,17331,1,2,0:0:0:0:
220,192,17754,5,0,0:0:0:0:
128,296,18176,1,0,0:0:0:0:
20,136,18599,2,0,P|44:196|40:260,1,130,2|0,0:0|0:0,0:0:0:0:
128,296,19233,2,0,L|200:288,1,65
144,144,19867,1,0,0:0:0:0:
144,144,20078,2,0,L|299:124,1,130,2|0,0:0|0:0,0:0:0:0:
336,88,20712,1,2,0:0:0:0:
468,140,21134,5,4,0:0:0:0:
468,140,21557,1,0,0:0:0:0:
468,284,21979,2,0,P|444:324|360:336,1,130,2|0,0:0|0:0,0:0:0:0:
296,324,22613,1,0,0:0:0:0:
236,284,22824,1,2,0:0:0:0:
135,183,23247,1,0,0:0:0:0:
135,183,23458,1,2,0:0:0:0:
98,322,23881,1,0,0:0:0:0:
98,322,24092,1,2,0:0:0:0:
340,304,24514,6,0,L|408:340,1,65,4|0,0:0|0:0,0:0:0:0:
388,240,24937,2,0,L|456:252,1,65,0|0,0:0|0:0,0:0:0:0:
452,132,25360,6,0,L|388:144,1,65,4|0,0:0|0:0,0:0:0:0:
397,49,25782,2,0,L|340:80,1,65,0|0,0:0|0:0,0:0:0:0:
240,216,26205,5,4,0:0:0:0:
191,131,26416,1,0,0:0:0:0:
106,180,26627,1,0,0:0:0:0:
155,264,26838,1,0,0:0:0:0:
344,312,27050,5,4,0:0:0:0:
412,244,27261,1,0,1:0:0:0:
448,152,27472,1,0,1:0:0:0:
428,56,27683,1,0,1:0:0:0:
256,192,27895,12,0,30853,0:0:0:0:
48,48,31275,6,0,B|56:95|56:95|88:135|88:135|105:205,1,162.5,4|0,0:0|0:0,0:0:0:0:
128,304,31909,1,0,0:0:0:0:
45,151,32120,2,0,P|85:129|141:133,1,81.25,8|0,0:0|0:0,0:0:0:0:
256,164,32543,2,0,P|216:186|181:187,1,81.25
194,97,32965,5,0,0:0:0:0:
248,264,33176,1,2,0:0:0:0:
260,296,33282,1,0,0:0:0:0:
272,328,33388,1,2,0:0:0:0:
352,220,33599,1,0,0:0:0:0:
442,311,33810,2,0,P|482:263|458:151,1,162.5,8|0,0:0|0:0,0:0:0:0:
393,86,34444,2,0,P|368:78|348:64,1,40.625
320,48,34655,6,0,L|212:32,1,81.25,4|0,0:0|0:0,0:0:0:0:
256,120,35078,2,0,L|148:104,1,81.25,0|0,0:0|0:0,0:0:0:0:
96,48,35500,1,8,0:0:0:0:
96,48,35712,2,0,L|80:132,2,81.25
32,188,36345,5,0,0:0:0:0:
124,260,36557,1,2,0:0:0:0:
160,264,36662,1,0,0:0:0:0:
192,280,36768,1,2,0:0:0:0:
140,347,36979,1,0,0:0:0:0:
255,207,37191,2,0,P|326:205|392:264,1,162.5,8|8,0:0|0:0,0:0:0:0:
392,264,37719,1,8,0:0:0:0:
392,264,37824,1,8,0:0:0:0:
464,224,38036,6,0,P|451:184|450:145,1,81.25,4|0,0:0|0:0,0:0:0:0:
332,48,38458,2,0,P|345:88|346:127,1,81.25,0|0,0:0|0:0,0:0:0:0:
256,208,38881,1,8,0:0:0:0:
256,208,39092,2,0,P|243:168|242:129,2,81.25
300,296,39726,5,0,0:0:0:0:
200,344,39937,1,2,0:0:0:0:
168,336,40043,1,0,0:0:0:0:
140,324,40148,1,2,0:0:0:0:
56,256,40360,1,0,0:0:0:0:
24,156,40571,2,0,L|36:72,1,81.25,8|0,0:0|0:0,0:0:0:0:
124,44,40993,2,0,L|216:56,1,81.25,0|0,0:0|0:0,0:0:0:0:
325,104,41416,6,0,P|272:164|184:152,1,162.5,4|0,0:0|0:0,0:0:0:0:
124,44,42050,1,0,0:0:0:0:
56,96,42261,1,8,0:0:0:0:
72,180,42472,2,0,P|58:223|20:260,2,81.25
124,44,43106,6,0,B|192:48|192:48|220:40|220:40|288:44,1,162.5,0|0,0:0|0:0,0:0:0:0:
396,80,43740,1,0,0:0:0:0:
424,92,43845,1,0,0:0:0:0:
454,103,43951,1,8,0:0:0:0:
408,312,44374,1,2,0:0:0:0:
100,312,44796,6,0,B|256:392|256:232|408:312,1,325,0|8,0:0|0:0,0:0:0:0:
174,249,46064,1,0,0:0:0:0:
83,215,46275,1,0,0:0:0:0:
100,312,46486,1,0,0:0:0:0:
174,249,46698,5,2,0:0:0:0:
192,224,46803,1,0,0:0:0:0:
212,196,46909,1,2,0:0:0:0:
292,108,47120,1,0,0:0:0:0:
184,48,47331,2,0,P|100:48|28:104,1,162.5,8|0,0:0|0:0,0:0:0:0:
12,199,47965,2,0,L|27:256,1,40.625
44,276,48176,6,0,P|76:312|96:352,1,81.25,4|0,0:0|0:0,0:0:0:0:
176,296,48599,2,0,P|208:264|223:231,1,81.25,0|0,0:0|0:0,0:0:0:0:
256,144,49022,1,8,0:0:0:0:
283,41,49233,1,0,0:0:0:0:
358,116,49444,2,0,L|404:148,3,40.625
435,124,49867,6,0,P|408:176|464:272,1,162.5,0|2,0:0|0:0,0:0:0:0:
496,332,50500,1,0,0:0:0:0:
348,344,50712,2,0,P|347:285|252:226,1,162.5,8|8,0:0|0:0,0:0:0:0:
270,226,51240,1,8,0:0:0:0:
270,226,51345,1,8,0:0:0:0:
196,244,51557,6,0,L|108:252,1,81.25,4|0,0:0|0:0,0:0:0:0:
136,176,51979,2,0,L|48:184,1,81.25,0|0,0:0|0:0,0:0:0:0:
16,116,52402,2,0,L|212:96,1,162.5,8|0,0:0|0:0,0:0:0:0:
248,52,53036,1,0,0:0:0:0:
336,24,53247,5,0,0:0:0:0:
459,54,53458,1,2,0:0:0:0:
448,84,53563,1,0,0:0:0:0:
440,116,53669,1,2,0:0:0:0:
496,196,53881,1,0,0:0:0:0:
460,276,54092,2,0,L|392:344,1,81.25,8|0,0:0|0:0,0:0:0:0:
320,368,54514,6,0,P|212:376|144:328,1,162.5,0|4,0:0|0:0,0:0:0:0:
88,308,55148,1,0,0:0:0:0:
124,228,55360,2,0,L|115:139,1,81.25,0|0,0:0|0:0,0:0:0:0:
112,116,55676,1,0,0:0:0:0:
108,84,55782,1,8,0:0:0:0:
192,24,55993,1,0,0:0:0:0:
300,40,56205,1,2,0:0:0:0:
326,59,56310,1,0,0:0:0:0:
355,72,56416,1,2,0:0:0:0:
387,77,56521,1,0,0:0:0:0:
420,75,56627,6,0,L|448:156,1,81.25,4|0,0:0|0:0,0:0:0:0:
360,300,57050,2,0,L|352:219,1,81.25,8|0,0:0|0:0,0:0:0:0:
248,144,57472,2,0,P|232:184|240:236,1,81.25,4|0,0:0|0:0,0:0:0:0:
432,352,57895,2,0,P|448:312|440:260,1,81.25,8|0,0:0|0:0,0:0:0:0:
389,184,58317,1,4,0:0:0:0:
256,192,58529,12,4,65078,1:0:0:0:
280,324,71416,5,8,0:0:0:0:
300,312,71522,1,0,0:0:0:0:
321,300,71627,1,8,0:0:0:0:
342,288,71733,1,0,0:0:0:0:
364,276,71838,5,4,0:0:0:0:
476,192,72261,2,0,P|464:128|476:48,1,130,0|2,0:0|0:0,0:0:0:0:
471,63,72895,1,0,0:0:0:0:
303,95,73317,2,0,L|344:44,1,65
208,95,73951,2,0,L|168:44,1,65,0|2,0:0|0:0,0:0:0:0:
120,216,74585,2,0,P|108:256|80:292,2,65,0|2|0,0:0|0:0|0:0,0:0:0:0:
24,296,75219,6,0,P|84:300|144:364,1,130
256,192,76064,1,2,0:0:0:0:
256,264,76275,1,0,0:0:0:0:
376,344,76698,1,0,0:0:0:0:
440,296,76909,2,0,L|460:160,1,130
394,99,77543,2,0,L|376:228,1,130,2|0,0:0|0:0,0:0:0:0:
304,180,78176,2,0,L|318:95,1,65,2|0,0:0|0:0,0:0:0:0:
341,45,78599,5,4,0:0:0:0:
200,40,79022,1,0,0:0:0:0:
52,144,79444,2,0,L|76:72,1,65,2|0,0:0|0:0,0:0:0:0:
160,192,80078,1,0,0:0:0:0:
160,192,80289,2,0,P|200:248|208:312,1,130,0|0,0:0|0:0,0:0:0:0:
303,307,80923,2,0,P|312:248|352:192,1,130,2|0,0:0|0:0,0:0:0:0:
352,191,81557,1,2,0:0:0:0:
256,48,81979,5,0,0:0:0:0:
256,48,82402,1,0,0:0:0:0:
224,292,82824,2,0,P|256:299|288:292,1,65,2|0,0:0|0:0,0:0:0:0:
408,240,83458,1,0,0:0:0:0:
408,240,83669,2,0,P|400:152|446:112,1,130
496,112,84303,2,0,P|444:104|389:35,1,130,2|0,0:0|0:0,0:0:0:0:
328,16,84937,1,2,0:0:0:0:
184,116,85360,5,4,0:0:0:0:
56,328,85782,1,0,0:0:0:0:
56,56,86205,1,0,1:0:0:0:
184,268,86627,1,0,0:0:0:0:
316,176,87050,6,0,L|296:84,1,65,0|0,1:0|0:0,0:0:0:0:
424,244,87472,2,0,L|444:336,1,65
276,264,87895,2,0,P|265:297|269:335,1,65,0|0,1:0|0:0,0:0:0:0:
424,144,88317,2,0,P|435:111|431:73,1,65
306,53,88740,5,0,1:0:0:0:
205,330,89162,1,0,0:0:0:0:
205,53,89585,1,0,1:0:0:0:
306,330,90007,1,0,0:0:0:0:
152,144,90430,6,0,P|112:136|76:116,1,65,0|0,1:0|0:0,0:0:0:0:
152,240,90853,2,0,P|112:248|76:268,1,65,0|0,0:0|0:0,0:0:0:0:
224,96,91275,2,0,L|296:80,1,65,0|0,1:0|0:0,0:0:0:0:
224,288,91698,2,0,L|296:304,1,65
376,280,92120,5,0,1:0:0:0:
481,219,92331,1,0,0:0:0:0:
420,113,92543,1,0,1:0:0:0:
315,174,92754,1,0,0:0:0:0:
292,252,92965,5,0,1:0:0:0:
231,146,93176,1,0,0:0:0:0:
336,85,93388,1,0,1:0:0:0:
397,191,93599,1,0,0:0:0:0:
40,64,93810,6,0,L|24:168,1,81.25,0|0,1:0|0:0,0:0:0:0:
84,328,94233,2,0,L|68:224,1,81.25,0|0,1:0|0:0,0:0:0:0:
120,96,94655,2,0,L|128:196,1,81.25,0|0,1:0|0:0,0:0:0:0:
168,360,95078,2,0,L|184:256,1,81.25,0|0,1:0|0:0,0:0:0:0:
223,187,95500,5,0,1:0:0:0:
234,156,95606,1,0,0:0:0:0:
253,130,95712,1,0,1:0:0:0:
279,110,95817,1,0,0:0:0:0:
308,96,95923,1,0,1:0:0:0:
340,91,96029,1,0,0:0:0:0:
372,94,96134,1,0,1:0:0:0:
403,105,96240,1,0,0:0:0:0:
430,123,96345,5,0,1:0:0:0:
451,147,96451,1,0,0:0:0:0:
465,176,96557,1,0,1:0:0:0:
472,208,96662,1,0,0:0:0:0:
470,241,96768,1,0,1:0:0:0:
460,271,96874,1,0,0:0:0:0:
442,299,96979,1,0,1:0:0:0:
418,321,97085,1,0,0:0:0:0:
390,336,97191,5,4,0:0:0:0:
390,336,98881,2,0,P|342:328|294:304,1,81.25,4|0,0:0|0:0,0:0:0:0:
240,260,99303,1,0,0:0:0:0:
159,192,99514,1,0,0:0:0:0:
141,296,99726,1,8,0:0:0:0:
240,260,99937,2,0,L|340:276,2,81.25
64,228,100571,5,0,0:0:0:0:
28,132,100782,1,2,0:0:0:0:
60,128,100888,1,0,0:0:0:0:
92,124,100993,1,2,0:0:0:0:
164,56,101205,1,0,0:0:0:0:
256,16,101416,2,0,P|264:64|388:100,1,162.5,8|0,0:0|0:0,0:0:0:0:
432,80,102050,1,0,0:0:0:0:
424,156,102261,6,0,B|412:200|412:200|421:252,1,81.25,4|0,0:0|0:0,0:0:0:0:
496,336,102683,2,0,B|508:292|508:292|499:240,1,81.25,0|0,0:0|0:0,0:0:0:0:
352,308,103106,2,0,P|272:320|192:292,1,162.5,8|0,0:0|0:0,0:0:0:0:
100,280,103740,1,0,0:0:0:0:
4,240,103951,6,0,P|71:192|172:208,1,162.5
252,228,104585,1,0,0:0:0:0:
300,136,104796,2,0,B|334:102|334:102|349:57,1,81.25,4|0,0:0|0:0,0:0:0:0:
474,54,105219,2,0,B|439:87|439:87|424:132,1,81.25,4|0,0:0|0:0,0:0:0:0:
300,136,105641,6,0,L|200:120,1,81.25,4|0,0:0|0:0,0:0:0:0:
126,101,106064,1,0,0:0:0:0:
48,8,106275,1,0,0:0:0:0:
6,122,106486,1,8,0:0:0:0:
88,216,106698,2,0,L|108:304,2,81.25
60,76,107331,5,0,0:0:0:0:
180,144,107543,1,2,0:0:0:0:
200,168,107648,1,0,0:0:0:0:
224,192,107754,1,2,0:0:0:0:
308,284,107965,1,0,0:0:0:0:
308,284,108176,6,0,L|384:276,2,54.1666666666667,8|0|0,0:0|0:0|0:0,0:0:0:0:
476,224,108599,2,0,L|400:216,2,54.1666666666667,0|0|0,0:0|0:0|0:0,0:0:0:0:
328,156,109022,5,4,0:0:0:0:
424,100,109233,1,0,0:0:0:0:
328,156,109444,2,0,P|288:144|248:116,1,81.25
184,44,109867,1,8,0:0:0:0:
84,72,110078,2,0,L|68:124,3,40.625
18,158,110500,6,0,P|62:158|90:182,1,81.25
116,288,110923,2,0,P|72:288|44:264,1,81.25
184,196,111345,1,0,0:0:0:0:
204,164,111451,1,0,0:0:0:0:
224,132,111557,1,8,0:0:0:0:
476,336,111979,1,0,0:0:0:0:
260,228,112402,5,4,0:0:0:0:
280,196,112507,1,0,0:0:0:0:
300,164,112613,1,2,0:0:0:0:
320,132,112719,1,0,0:0:0:0:
340,100,112824,1,4,0:0:0:0:
408,40,113036,1,0,0:0:0:0:
440,128,113247,2,0,L|464:220,1,81.25,8|0,0:0|0:0,0:0:0:0:
337,246,113669,2,0,P|289:242|260:228,1,81.25
180,144,114092,5,0,0:0:0:0:
108,76,114303,1,2,0:0:0:0:
84,104,114409,1,0,0:0:0:0:
76,136,114514,1,2,0:0:0:0:
48,228,114726,1,0,0:0:0:0:
124,346,114937,2,0,P|136:316|136:268,1,81.25,8|0,0:0|0:0,0:0:0:0:
248,229,115360,2,0,P|248:277|260:308,1,81.25,0|0,0:0|0:0,0:0:0:0:
348,336,115782,5,4,0:0:0:0:
416,256,115993,1,0,0:0:0:0:
484,336,116205,1,0,0:0:0:0:
416,256,116416,2,0,L|416:152,1,81.25,0|8,0:0|0:0,0:0:0:0:
416,80,116838,1,0,0:0:0:0:
324,36,117050,1,0,0:0:0:0:
293,46,117155,1,0,0:0:0:0:
260,50,117261,1,0,0:0:0:0:
228,47,117367,1,0,0:0:0:0:
196,36,117472,6,0,L|184:144,1,81.25
104,56,117895,2,0,L|68:148,1,81.25,2|0,0:0|0:0,0:0:0:0:
36,256,118317,2,0,P|75:231|127:235,1,81.25,8|0,0:0|0:0,0:0:0:0:
188,301,118740,2,0,P|149:326|116:328,1,81.25
44,164,119162,5,4,0:0:0:0:
140,144,119374,1,0,0:0:0:0:
224,196,119585,1,0,0:0:0:0:
272,280,119796,2,0,L|364:284,1,81.25,0|8,0:0|0:0,0:0:0:0:
496,336,120219,2,0,L|414:332,2,81.25
400,200,120853,5,0,0:0:0:0:
412,104,121064,1,2,0:0:0:0:
416,68,121169,1,0,0:0:0:0:
420,32,121275,1,2,0:0:0:0:
48,144,121698,2,0,P|120:140|156:32,1,162.5,8|0,0:0|0:0,0:0:0:0:
84,72,122331,1,0,0:0:0:0:
112,319,122543,6,0,L|32:328,1,81.25,4|0,0:0|0:0,0:0:0:0:
83,240,122965,2,0,L|164:232,1,81.25,0|0,0:0|0:0,0:0:0:0:
263,276,123388,1,8,0:0:0:0:
372,312,123599,1,0,0:0:0:0:
438,219,123810,1,8,0:0:0:0:
372,127,124022,1,0,0:0:0:0:
263,163,124233,1,8,0:0:0:0:
340,216,124444,5,0,0:0:0:0:
406,123,124655,1,8,0:0:0:0:
340,31,124867,1,0,0:0:0:0:
231,67,125078,1,8,0:0:0:0:
231,180,125289,1,0,0:0:0:0:
308,124,125500,5,8,0:0:0:0:
196,20,125712,1,8,0:0:0:0:
48,48,125923,5,4,0:0:0:0:
59,78,126029,1,0,0:0:0:0:
64,110,126134,1,4,0:0:0:0:
62,142,126240,1,0,0:0:0:0:
54,174,126345,1,0,0:0:0:0:
164,336,126768,1,4,0:0:0:0:
152,305,126874,1,0,0:0:0:0:
147,273,126979,1,4,0:0:0:0:
149,241,127085,1,0,0:0:0:0:
157,209,127191,1,4,0:0:0:0:
452,60,127613,5,4,0:0:0:0:
420,65,127719,1,0,0:0:0:0:
388,71,127824,1,4,0:0:0:0:
356,77,127930,1,0,0:0:0:0:
324,83,128036,1,4,0:0:0:0:
324,320,128458,1,4,0:0:0:0:
356,314,128564,1,0,0:0:0:0:
388,308,128669,1,4,0:0:0:0:
420,302,128775,1,0,0:0:0:0:
452,297,128881,1,4,0:0:0:0:
256,192,129303,12,4,132683,1:0:0:0:
