osu file format v9

[General]
AudioFilename: Blue Stahli - Anti You.mp3
AudioLeadIn: 0
PreviewTime: -1
Countdown: 1
SampleSet: Normal
StackLeniency: 0.7
Mode: 0
LetterboxInBreaks: 1

[Editor]
Bookmarks: 9334,30698,38880,52971,67062,82516,89334,103880,117971,149334,163880
DistanceSpacing: 0.8
BeatDivisor: 3
GridSize: 8

[Metadata]
Title:Anti You
Artist:Blue Stahli
Creator:thatguy0815
Version:I hate you, die in a fire!
Source:
Tags:Blue Stahli Anti You

[Difficulty]
HPDrainRate:5
CircleSize:4
OverallDifficulty:8
ApproachRate:10
SliderMultiplier:3
SliderTickRate:1

[Events]
//Background and Video events
0,0,"Fire_Woman_Widescreen.jpg"
//Break Periods
2,64466,66620
2,88482,103438
2,115451,117377
2,149542,163438
//Storyboard Layer 0 (Background)
//Storyboard Layer 1 (Fail)
//Storyboard Layer 2 (Pass)
//Storyboard Layer 3 (Foreground)
//Storyboard Sound Samples
//Background Colour Transformations
3,100,163,162,0

[TimingPoints]
2070,454.545454545455,3,1,0,85,1,0
16607,-100,3,1,0,85,0,1
26910,-200,3,1,0,85,0,1
30698,-100,3,1,0,85,0,0
32365,-200,3,1,0,50,0,0
32971,-200,3,1,0,85,0,0
34031,-200,3,1,0,50,0,0
34789,-200,3,1,0,85,0,0
36001,-200,3,1,0,50,0,0
36607,-200,3,1,0,85,0,0
51001,-100,3,1,0,85,0,0
52971,-100,3,1,0,85,0,0
57365,-100,3,1,0,35,0,0
60243,-100,3,1,0,85,0,0
67062,-100,3,1,0,85,0,1
82516,-100,3,1,0,85,0,0
117971,-100,3,1,0,85,0,1
133274,-100,3,1,0,25,0,1
135092,-100,3,1,0,85,0,1
147365,-100,3,1,0,65,0,1
147819,-100,3,1,0,45,0,1
148274,-100,3,1,0,25,0,1
148728,-100,3,1,0,15,0,1
149183,-100,3,1,0,5,0,1
149334,-100,3,1,0,85,0,0
163880,-100,3,1,0,85,0,1

[Colours]
Combo1 : 255,191,0
Combo2 : 255,0,0
Combo3 : 255,128,0

[HitObjects]
128,192,2070,2,0,B|128:256|224:256|224:192|224:192|288:192,1,200,4|8
272,192,2524,1,0
400,64,2827,1,0
400,64,2979,2,0,B|464:64|464:160|400:160|400:160|400:224,1,200,4|8
400,208,3433,2,0,B|352:272|416:304,2,100
400,208,3888,2,0,B|336:160|304:224,2,100,0|8|8
400,208,4342,1,8
240,80,4645,5,0
240,80,4797,2,0,B|303:32|335:96,2,100,0|8|8
240,80,5251,1,4
112,64,5554,1,0
112,64,5706,2,0,B|48:64|48:160|112:160|112:160|112:224,1,200,8|8
112,208,6160,1,12
256,256,6463,1,0
256,256,6615,2,0,B|256:192|336:192,2,100,0|0|8
256,256,7070,2,0,B|256:320|176:319,2,100,8|0|0
256,256,7524,5,8
256,32,7979,1,8
112,192,8433,1,8
400,192,8888,1,12
32,32,9342,5,4
64,64,9494,1,0
96,96,9645,1,8
128,128,9797,1,0
480,32,10251,5,4
448,64,10403,1,0
416,96,10554,1,8
384,128,10706,1,0
256,32,11009,5,8
256,32,11160,1,4
256,80,11312,1,0
256,128,11463,1,8
256,176,11615,1,0
112,304,11918,6,0,B|64:240|128:192,1,100,8|0
128,192,12221,1,0
160,160,12373,1,8
192,128,12524,1,4
400,80,12827,6,0,B|448:144|384:192,1,100,0|12
384,192,13130,1,8
352,224,13282,1,8
64,48,13433,5,4
96,80,13585,1,8
128,112,13736,1,8
448,48,13888,5,4
416,80,14039,1,8
384,112,14191,1,8
448,336,14342,5,4
416,304,14494,1,8
384,272,14645,1,8
96,320,14797,2,0,B|48:288|48:288|96:256,8,100,12|0|0|0|0|0|0|0|0
128,320,16160,6,0,B|144:256|144:256|176:368|176:368|208:256|208:256|240:288,1,300
240,160,16766,1,0
272,64,16918,1,8
384,64,17070,1,4
416,304,17373,1,8
80,48,17524,1,0
336,304,17676,1,8
160,48,17827,1,8
464,48,17979,2,0,B|448:112|496:144,1,100,4|8
96,304,18282,1,8
256,128,18433,2,0,B|224:160|320:192|240:272,1,100,4|8
64,192,18736,1,8
448,192,18888,1,4
224,48,19191,5,8
448,336,19342,2,0,B|448:272|384:272,2,100,4|0|8
144,240,19797,2,0,B|112:224|112:224|176:208|176:208|144:192|144:192|144:128,1,200,4|8
448,48,20251,1,4
48,192,20403,1,8
448,336,20554,1,8
256,192,20706,1,4
96,48,21009,2,0,B|96:80|176:80|176:48,1,100,8|4
368,144,21312,1,8
112,288,21463,1,8
256,48,21615,1,4
464,288,21766,1,8
80,128,21918,1,8
464,48,22070,6,4,B|384:128,1,100
48,336,22524,6,4,B|128:256,1,100
48,48,22979,6,4,B|128:128,1,100
464,336,23433,6,4,B|384:256,1,100
256,48,23888,5,4
144,304,24039,1,12
448,224,24191,1,12
16,128,24342,1,4
416,80,24645,5,8
272,256,24797,1,4
96,80,24948,1,8
32,304,25100,1,8
224,160,25251,1,4
448,336,25403,1,8
416,80,25554,1,8
64,224,25706,2,4,B|32:176|96:144,1,100,4|0
256,48,26009,1,8
448,240,26160,1,4
96,48,26463,5,8
256,336,26615,1,4
416,48,26766,1,8
96,336,26918,1,8
144,208,27070,2,12,B|240:144,1,100
336,80,27524,1,4
384,320,27676,1,8
80,112,27827,1,8
480,192,27979,1,4
224,272,28282,5,8
256,32,28433,1,8
272,272,28585,1,8
256,32,28736,1,8
192,304,28888,1,8
256,32,29039,1,8
304,304,29191,1,8
176,112,29342,2,4,B|256:144|336:112,3,150
448,48,31160,5,4
336,144,31312,1,8
192,240,31463,1,0
64,336,31615,1,4
256,48,31918,1,8
80,112,32070,1,4
448,288,32373,6,0,B|432:208|432:208|352:256|352:256|304:208,1,200
208,224,33130,1,8
272,16,33282,1,8
448,112,33433,1,12
48,352,33736,1,4
96,176,33888,1,0
272,96,34039,6,0,B|288:176|288:176|368:128|368:128|432:208,1,250,0|4
288,336,34948,1,8
64,112,35100,1,8
432,48,35251,1,4
128,288,35554,2,8,B|160:240,1,50
480,336,36009,6,0,B|464:256|464:256|384:304|384:304|368:272,1,200
256,32,36766,1,0
160,336,36918,1,8
464,144,37070,1,4
112,144,37373,1,8
48,48,37524,1,8
368,80,37827,2,0,B|336:96|336:96|320:144,1,50
288,176,38130,1,0
240,240,38282,1,0
192,304,38433,1,0
64,192,38736,5,0
32,128,38888,1,8
64,64,39039,1,8
128,32,39191,1,8
192,64,39342,1,4
448,160,39645,1,8
416,96,39797,1,8
240,144,40100,1,4
160,288,40554,5,0
224,320,40706,1,8
288,288,40857,1,8
336,240,41009,1,8
352,176,41160,1,4
288,32,41463,1,8
224,64,41615,1,8
176,112,41766,6,0,B|176:160|112:160|112:160|32:160|32:256|32:256|48:256,1,250
272,208,42827,1,8
320,160,42979,1,8
128,48,43282,1,8
80,96,43433,1,8
96,256,43736,1,8
144,304,43888,5,4
416,208,44342,1,4
256,32,44797,1,4
256,352,45251,1,4
96,64,45706,5,12
96,224,46009,1,0
128,288,46160,1,8
192,320,46312,1,8
256,288,46463,1,8
288,224,46615,1,4
336,64,46918,1,8
400,32,47070,1,8
432,224,47373,1,4
256,96,47827,5,8
192,64,47979,1,8
128,96,48130,1,8
64,128,48282,1,0
32,192,48433,1,8
64,256,48585,1,8
128,288,48736,1,0
192,272,48888,6,0,B|144:256|160:208|160:208|176:144|288:224|320:144,1,250,0|0
352,112,49797,1,8
400,64,49948,1,8
464,96,50100,1,0
464,160,50251,1,8
432,224,50403,1,8
384,272,50554,1,8
320,288,50706,1,0
256,288,50857,1,8
96,192,51160,6,0,B|48:176|48:176|144:176|144:176|96:144|96:144|96:48,3,300
184,32,52979,2,4,B|184:192|328:192|328:16,3,300
256,344,54797,5,4
48,192,55251,1,4
464,192,55706,1,4
256,40,56160,1,4
256,344,56615,1,12
64,48,57070,5,8
200,152,57373,2,0,B|256:200|256:200|232:224|232:224|304:280,1,200
392,224,57827,2,0,B|319:167|319:167|343:143|343:143|287:95,1,200
64,184,58433,1,4
448,184,58888,1,4
296,136,59191,2,0,B|248:192|248:192|224:168|224:168|168:240,1,200
224,328,59645,2,0,B|280:255|280:255|304:279|304:279|352:223,1,200
64,48,60251,5,4
448,336,60706,1,12
448,48,61160,1,12
64,336,61615,1,12
256,40,62070,1,4
256,344,62524,1,4
40,192,62979,1,4
472,192,63433,2,0,B|488:128|408:88|328:160|328:160|264:80,1,300,4|0
48,344,64266,1,8
288,32,67070,5,8
256,352,67221,1,8
224,32,67373,1,8
32,192,67524,1,4
168,88,67676,1,8
296,256,67827,1,4
400,88,67979,2,8,B|472:136|352:232|352:232|248:152,1,300,8|0
48,344,68888,1,4
456,64,69342,5,8
240,280,69494,1,8
448,344,69645,1,8
160,64,69797,2,0,B|88:112|208:208|208:208|312:128,1,300
32,336,70706,1,4
376,48,71160,5,0
288,328,71312,1,8
64,136,71463,1,8
408,272,71615,1,4
208,56,71766,1,0
96,304,71918,1,0
392,152,72070,1,0
96,56,72221,6,8,B|112:104|168:120,1,100
192,336,72524,1,4
472,40,72979,5,4
40,344,73433,1,4
40,40,73888,1,4
472,344,74342,1,4
408,144,74797,5,8
272,296,74948,1,8
80,184,75100,1,8
232,24,75251,1,4
32,280,75403,1,8
256,192,75554,1,8
280,24,75706,1,4
360,216,75857,1,8
200,336,76009,1,8
256,64,76160,1,4
472,344,76615,5,4
296,344,77070,1,4
120,112,77221,1,8
392,48,77373,1,8
224,344,77524,1,4
392,128,77676,1,8
120,40,77827,1,8
256,312,77979,1,4
48,192,78433,5,4
456,72,78888,1,4
400,272,79039,1,0
216,168,79191,1,0
416,72,79342,1,4
272,272,79494,1,0
104,160,79645,1,0
416,32,79797,1,4
304,232,79948,1,0
48,256,80100,1,0
456,32,80251,1,4
280,184,80403,1,8
96,72,80554,1,8
456,72,80706,5,12
56,312,81160,5,12
56,72,81615,5,12
456,312,82070,5,12
256,48,82524,5,4
176,312,82827,1,8
72,248,82979,1,8
256,192,83282,2,0,B|288:128|344:192|344:192|384:112,1,200
440,56,83736,1,0
424,320,83888,1,8
304,320,84039,1,8
200,320,84191,1,8
88,320,84342,1,4
112,56,84645,1,4
256,96,84797,5,8
392,144,84948,2,0,B|504:0|408:176|480:216|480:216,1,200,8|0
64,224,85706,1,4
184,96,85857,1,8
288,224,86009,1,0
392,96,86160,2,8,B|488:96|488:216|392:216,1,200
184,224,86918,6,0,B|160:200|160:200|216:168|216:168|120:120,1,200
48,96,87373,1,8
120,8,87524,1,12
240,104,87676,1,8
368,208,87827,1,8
496,328,87979,1,4
16,328,88282,1,4
224,48,103888,6,4,B|168:88|176:144|224:184|272:184|320:136|320:80|272:48,1,300
224,336,104797,6,4,B|168:296|176:240|224:200|272:200|320:248|320:304|272:336,1,300
56,160,105706,6,4,B|95:104|151:112|191:160|191:208|143:256|87:256|56:208,1,300
464,160,106615,6,4,B|424:104|368:112|328:160|328:208|376:256|432:256|463:208,1,300
216,192,107524,5,4
112,280,107979,1,0
64,56,108282,2,0,B|144:48|144:48|104:96|104:96|240:96|240:96|208:48|208:48|304:48,1,400
472,192,109342,1,0
40,192,109797,1,0
448,328,110100,2,0,B|368:336|368:336|408:288|408:288|272:288|272:288|304:336|304:336|208:336,1,400
168,40,111160,1,0
432,192,111615,1,0
104,280,112070,1,0
344,64,112524,1,0
376,312,112979,1,0
96,88,113433,1,0
464,160,113888,6,4,B|432:16|336:16|208:128|208:240|336:368|432:368|463:208,1,600
48,192,115251,1,0
128,64,117827,5,0
416,80,117979,1,4
320,176,118130,1,8
208,272,118282,1,8
256,32,118433,1,4
416,320,118585,1,8
48,192,118736,1,8
400,112,118888,1,12
80,304,119039,5,0
192,64,119191,1,0
336,272,119342,1,4
480,320,119494,1,8
416,48,119645,1,8
96,128,119797,1,4
176,336,119948,1,8
256,48,120100,1,8
336,336,120251,1,12
144,64,120706,5,4
432,192,120857,1,8
80,288,121009,1,8
320,64,121160,1,4
464,32,121312,1,8
256,320,121463,1,8
64,128,121615,1,12
400,288,121766,1,0
224,64,121918,1,0
112,352,122070,1,4
416,96,122373,5,4
320,336,122524,1,8
80,224,122676,1,8
192,128,122827,1,8
448,224,122979,1,4
304,32,123130,1,8
176,272,123282,1,8
464,144,123433,1,4
80,64,123888,6,8,B|48:112|112:144,1,100
272,272,124191,1,4
384,128,124342,2,8,B|352:80|416:48,1,100
464,320,124645,1,4
256,48,124797,2,8,B|256:160,1,100
48,192,125100,1,4
256,336,125251,2,8,B|256:224,1,100
480,32,125706,5,4
112,64,126160,5,4
112,320,126312,1,8
400,64,126463,1,8
400,320,126615,1,4
256,64,126766,1,8
152,320,126918,1,8
400,192,127070,1,12
32,352,127524,5,4
480,32,127979,5,4
304,272,128130,1,8
80,96,128282,1,8
464,160,128433,1,4
144,288,128585,1,8
256,32,128736,1,8
400,320,128888,1,12
32,32,129342,5,4
256,336,129797,5,4
144,96,129948,1,8
448,192,130100,1,8
96,256,130251,1,4
352,96,130403,1,8
448,304,130554,1,8
256,48,130706,1,12
256,48,131160,5,4
224,304,131312,1,8
400,128,131463,1,8
48,192,131615,5,4
336,160,131766,1,8
128,48,131918,1,8
256,336,132070,5,4
288,96,132221,1,8
144,240,132373,1,8
464,192,132524,5,4
400,320,132676,1,8
112,320,132827,1,8
256,48,132979,5,4
64,320,133433,2,0,B|96:272|160:272,1,100
448,320,133888,2,0,B|416:272|352:272,1,100
64,64,134342,2,0,B|96:112|160:112,1,100
448,64,134797,2,0,B|416:112|352:112,1,100
32,192,135251,5,4
208,48,135403,1,0
128,320,135554,1,0
480,192,135706,2,0,B|384:128|384:256|288:192,1,200,4|8
32,192,136160,2,0,B|128:128|128:256|224:192,1,200,4|8
256,32,136615,5,4
96,96,136766,1,8
416,240,136918,1,8
256,352,137069,1,4
416,96,137221,1,8
96,240,137373,1,8
256,384,137524,2,0,B|320:288|192:288|256:192,1,200,12|0
256,0,137979,2,0,B|320:96|192:96|256:192,1,200,4|0
216,196,138433,2,0,B|128:256|128:128|32:192,1,200,4|0
295,196,138888,2,0,B|384:256|384:128|480:192,1,200,4|0
416,32,139342,5,4
288,320,139494,1,8
128,64,139645,1,8
64,320,139797,1,4
256,64,139948,1,8
432,320,140100,1,8
64,296,140251,1,12
352,352,140403,1,8
408,88,140554,1,8
136,272,140706,1,4
336,48,140857,5,8
480,256,141009,1,8
256,48,141160,1,8
400,256,141312,1,8
176,32,141463,1,8
432,32,141615,1,4
72,80,141766,5,8
496,192,141918,1,12
72,304,142069,1,8
256,32,142221,1,8
432,352,142373,1,4
112,352,142524,1,8
280,280,142676,5,8
16,160,142827,1,8
336,32,142979,2,0,B|336:160|160:176|160:32,2,300,12|4|4
256,352,144342,1,4
32,32,144494,1,0
480,32,144645,1,0
160,240,144797,5,4
304,48,144948,1,8
416,256,145100,1,8
128,64,145251,1,4
64,240,145403,1,8
288,240,145554,1,8
208,64,145706,5,8
400,336,145857,1,12
112,336,146009,1,8
320,336,146160,1,8
32,336,146312,1,8
240,336,146463,1,8
336,32,146615,2,0,B|336:160|160:176|160:32,6,300,4|0|0|0|0|0|0
256,32,163888,5,4
256,352,164342,5,4
32,192,164797,5,4
480,192,165251,5,4
176,336,165403,1,8
480,48,165554,1,8
48,336,165706,1,4
464,336,166160,1,12
48,48,166615,1,12
464,48,167069,1,4
224,208,167213,1,8
272,160,167289,1,8
320,112,167373,1,4
128,48,167524,5,4
368,320,167676,1,8
416,16,167827,1,8
16,352,167979,1,4
512,160,168130,1,8
8,160,168282,1,8
504,360,168433,5,12
256,24,168585,1,8
8,288,168736,1,8
256,368,168888,1,4
512,48,169039,1,8
64,16,169191,1,8
432,304,169342,6,4,B|384:336|448:368|496:320|496:256|432:208,1,200,12|0
80,304,169797,2,4,B|128:336|64:368|16:320|16:256|80:208,1,200
256,32,170251,2,4,B|240:64|240:64|272:64|272:64|256:80|256:80|256:192,1,200
160,32,170706,1,4
448,80,171152,5,0
384,96,171228,1,8
320,112,171304,1,8
256,128,171380,1,8
192,144,171455,1,8
192,144,171531,1,8
192,144,171615,1,8
32,352,171918,5,4
192,240,172062,1,8
240,192,172137,1,8
224,128,172213,1,8
256,64,172289,1,8
320,48,172365,1,8
384,64,172440,1,8
432,112,172516,1,8
448,176,172592,1,0
448,240,172668,1,0
448,240,172743,1,0
448,240,172819,1,0
448,240,172895,1,0
448,240,172979,1,4
176,320,173130,5,8
64,64,173282,1,8
336,304,173433,1,4
256,32,173585,1,8
48,240,173736,1,8
432,144,173888,2,0,B|464:224|368:240|320:80|400:32|496:96|512:256,2,300,12|4|4
400,320,174948,5,8
96,64,175100,1,8
416,16,175251,1,4
48,336,175403,1,8
256,48,175554,1,8
480,336,175706,1,12
48,240,175857,1,8
400,80,176009,1,8
144,336,176160,1,4
144,336,176312,1,8
192,80,176615,6,0,B|160:32,2,50
48,288,176918,1,4
448,96,177069,2,0,B|496:64,2,50,0|0|0
176,304,177373,2,0,B|144:352,8,50
112,96,178433,5,4
416,304,178888,5,4
160,32,179039,1,8
48,320,179191,1,4
304,48,179342,1,8
48,184,179494,1,8
408,176,179645,1,12
232,344,179797,1,8
480,144,180251,5,4
80,16,180706,5,4
496,368,180857,1,8
352,0,181009,1,8
32,336,181160,1,4
512,192,181312,1,8
0,48,181463,1,8
240,384,181615,1,12
240,16,182069,5,4
48,272,182373,5,8
384,64,182524,1,4
416,352,182676,1,8
80,48,182827,1,8
128,368,182979,1,4
304,32,183130,1,8
416,0,183282,1,8
0,368,183433,1,4
256,192,183888,5,4
96,192,184039,1,8
256,192,184191,1,8
48,80,184342,1,12
256,192,184494,1,8
32,16,184645,1,8
256,192,184797,1,4
0,384,184948,1,8
480,16,185100,1,8
304,256,185251,1,12
48,192,185706,5,4
480,192,186160,5,4
144,368,186312,1,8
112,8,186463,1,8
0,272,186615,1,8
352,16,186766,1,12
480,64,186918,1,8
256,192,187069,1,4
256,192,187524,5,4
256,32,187979,5,4
64,192,188130,1,8
256,352,188282,1,8
448,192,188433,1,4
64,192,188585,1,8
408,192,188736,1,8
64,32,188888,1,12
448,32,189342,5,4
64,336,189797,5,4
176,192,189948,1,8
288,16,190100,1,8
448,336,190251,1,4
336,192,190403,1,8
224,16,190554,1,8
48,192,190706,1,12
176,336,190857,1,8
224,64,191009,1,8
464,192,191160,1,4
336,336,191312,1,8
288,64,191463,1,8
48,320,191615,1,12
336,64,192069,6,4,B|240:80|288:224|400:224|448:128,2,300
32,192,193433,5,4
272,16,193585,1,8
496,272,193736,1,8
176,368,193888,1,4
496,96,194039,1,8
352,368,194191,1,8
32,192,194342,1,12
480,192,194797,5,4
216,192,195251,5,4
256,32,195403,1,8
256,144,195554,1,8
160,64,195706,1,4
352,64,195857,1,8
296,192,196009,1,8
256,352,196160,1,12
72,280,196312,1,8
440,280,196463,1,8
16,16,196615,1,4
208,352,196918,5,8
336,16,197069,1,4
480,352,197221,1,8
208,16,197373,1,8
64,352,197524,1,12
400,112,197676,1,8
400,272,197827,1,8
32,192,197979,1,4
256,144,198433,5,4
128,16,198585,1,8
208,192,198736,1,8
368,16,198888,1,4
256,240,199039,1,8
496,352,199191,1,8
304,192,199342,1,12
32,16,199797,5,4
480,16,200251,5,4
480,368,200706,5,4
32,368,201160,5,4
32,16,201615,5,4
256,384,202069,5,4
496,192,202524,5,4
256,16,202979,5,4
16,192,203433,5,4
256,384,203888,5,4
256,16,204342,5,4
32,368,204797,5,4
480,368,205251,5,4
32,32,205706,5,8
448,368,205857,1,0
96,32,206009,1,4
384,368,206160,1,8
160,32,206312,1,4
320,368,206463,1,4
224,32,206615,1,12
256,368,206766,1,8
288,32,206918,1,8
192,368,207069,1,4
352,32,207221,1,8
128,368,207373,1,8
416,32,207524,1,12
