osu file format v14

[General]
AudioFilename: audio.mp3
AudioLeadIn: 0
PreviewTime: 44345
Countdown: 0
SampleSet: Soft
StackLeniency: 0.7
Mode: 2
LetterboxInBreaks: 0
WidescreenStoryboard: 1

[Editor]
Bookmarks: 12934,24228,35522,46816,58110,69404,80698,91992,103287,114531
DistanceSpacing: 1.5
BeatDivisor: 4
GridSize: 8
TimelineZoom: 2.3

[Metadata]
Title:Run The Track
TitleUnicode:Run The Track
Artist:Blue Stahli & Nyzzy Nyce
ArtistUnicode:Blue Stahli & Nyzzy Nyce
Creator:Sinnoh
Version:Salad
Source:
Tags:rock hip hop electronic rap racing car mbomb
BeatmapID:2242897
BeatmapSetID:1071229

[Difficulty]
HPDrainRate:3
CircleSize:3
OverallDifficulty:7
ApproachRate:7
SliderMultiplier:1.8
SliderTickRate:1

[Events]
//Background and Video events
0,0,"bg.jpg",0,0
//Break Periods
//Storyboard Layer 0 (Background)
//Storyboard Layer 1 (Fail)
//Storyboard Layer 2 (Pass)
//Storyboard Layer 3 (Foreground)
//Storyboard Sound Samples

[TimingPoints]
1640,352.941176470588,4,2,0,70,1,0
7287,-100,4,3,0,70,0,0
12934,-100,4,2,0,70,0,0
13639,-100,4,2,0,70,0,0
13970,-100,4,2,0,5,0,0
13992,-100,4,2,0,70,0,0
15051,-100,4,2,0,70,0,0
15404,-100,4,2,0,70,0,0
15757,-100,4,2,0,70,0,0
16463,-100,4,2,0,70,0,0
16728,-100,4,2,0,5,0,0
16816,-100,4,2,0,70,0,0
18757,-100,4,2,0,70,0,0
19287,-100,4,2,0,70,0,0
19551,-100,4,2,0,5,0,0
19639,-100,4,2,0,70,0,0
20693,-100,4,2,0,70,0,0
20963,-100,4,2,0,5,0,0
21051,-100,4,2,0,70,0,0
22110,-100,4,2,0,70,0,0
22375,-100,4,2,0,5,0,0
22463,-100,4,2,0,70,0,0
23522,-100,4,2,0,70,0,0
24228,-100,4,2,0,70,0,0
24934,-100,4,2,0,70,0,0
25110,-100,4,2,0,70,0,0
26345,-100,4,2,0,70,0,0
26698,-100,4,2,0,70,0,0
27051,-100,4,2,0,70,0,0
27757,-100,4,2,0,70,0,0
28110,-100,4,2,0,70,0,0
29698,-100,4,2,0,70,0,0
29787,-100,4,2,0,5,0,0
29875,-100,4,2,0,70,0,0
30581,-100,4,2,0,70,0,0
30757,-100,4,2,0,70,0,0
31992,-100,4,2,0,70,0,0
32169,-100,4,2,0,70,0,0
33404,-100,4,2,0,70,0,0
33581,-100,4,2,0,70,0,0
36228,-100,4,2,0,70,0,0
36492,-100,4,2,0,5,0,0
36581,-100,4,2,0,70,0,0
37639,-100,4,2,0,70,0,0
37904,-100,4,2,0,5,0,0
37992,-100,4,2,0,70,0,0
39051,-100,4,2,0,70,0,0
39404,-100,4,2,0,70,0,0
40992,-100,4,2,0,70,0,0
41081,-100,4,2,0,5,0,0
41169,-100,4,2,0,70,0,0
41875,-100,4,2,0,70,0,0
42139,-100,4,2,0,5,0,0
42228,-100,4,2,0,70,0,0
43287,-100,4,2,0,70,0,0
43551,-100,4,2,0,5,0,0
43639,-100,4,2,0,70,0,0
46816,-100,4,2,0,70,0,1
58110,-100,4,2,0,70,0,0
60228,-100,4,2,0,70,0,0
60934,-100,4,2,0,70,0,0
63051,-100,4,2,0,70,0,0
63404,-100,4,2,0,70,0,0
63581,-100,4,2,0,70,0,0
63669,-100,4,2,0,5,0,0
63757,-100,4,2,0,70,0,0
65875,-100,4,2,0,70,0,0
66139,-100,4,2,0,5,0,0
66228,-100,4,2,0,70,0,0
69228,-100,4,2,0,70,0,0
69316,-100,4,2,0,5,0,0
69404,-100,4,2,0,70,0,0
70110,-100,4,2,0,70,0,0
70375,-100,4,2,0,5,0,0
70463,-100,4,2,0,70,0,0
71522,-100,4,2,0,70,0,0
71787,-100,4,2,0,5,0,0
71875,-100,4,2,0,70,0,0
72934,-100,4,2,0,70,0,0
73198,-100,4,2,0,5,0,0
73287,-100,4,2,0,70,0,0
74875,-100,4,2,0,70,0,0
74963,-100,4,2,0,5,0,0
75051,-100,4,2,0,70,0,0
75757,-100,4,2,0,70,0,0
76022,-100,4,2,0,5,0,0
76110,-100,4,2,0,70,0,0
76816,-100,4,2,0,70,0,0
77169,-100,4,2,0,70,0,0
77434,-100,4,2,0,5,0,0
77522,-100,4,2,0,70,0,0
77875,-100,4,2,0,70,0,0
78581,-100,4,2,0,70,0,0
78845,-100,4,2,0,5,0,0
78934,-100,4,2,0,70,0,0
80698,-100,4,2,0,70,0,0
81404,-100,4,2,0,70,0,0
81669,-100,4,2,0,5,0,0
81757,-100,4,2,0,70,0,0
82816,-100,4,2,0,70,0,0
82992,-100,4,2,0,70,0,0
84228,-100,4,2,0,70,0,0
84404,-100,4,2,0,70,0,0
86169,-100,4,2,0,70,0,0
86257,-100,4,2,0,5,0,0
86345,-100,4,2,0,70,0,0
87051,-100,4,2,0,70,0,0
88463,-100,4,2,0,70,0,0
89169,-100,4,3,0,70,0,0
90581,-100,4,3,0,70,0,0
91992,-100,4,2,0,70,0,1
103287,-100,4,2,0,70,0,0
105404,-100,4,2,0,70,0,0
105757,-100,4,2,0,70,0,0
108228,-100,4,2,0,70,0,0
108581,-100,4,2,0,70,0,0
108757,-100,4,2,0,70,0,0
108845,-100,4,2,0,5,0,0
108934,-100,4,2,0,70,0,0
111052,-100,4,2,0,70,0,0
111316,-100,4,2,0,5,0,0
111405,-100,4,2,0,70,0,0
114404,-100,4,2,0,70,0,0
115992,-100,4,2,0,60,0,0
117404,-100,4,2,0,50,0,0
118816,-100,4,2,0,40,0,0
120228,-100,4,2,0,30,0,0
121639,-100,4,2,0,5,0,0

[Colours]
Combo1 : 0,128,192
Combo2 : 167,167,167

[HitObjects]
327,264,12051,5,0,1:0:0:0:
425,247,12228,2,0,L|444:153,2,90,0|4|0,1:0|0:3|1:0,0:0:0:0:
132,256,12934,6,0,L|18:233,1,90,4|0,0:3|0:0,0:0:0:0:
139,162,13287,2,0,L|342:118,1,180,0|2,0:0|1:3,0:0:0:0:
324,268,13816,1,0,0:0:0:0:
220,255,13992,6,0,P|214:184|390:86,1,270,4|4,0:3|0:3,0:0:0:0:
437,203,14698,2,0,L|389:118,1,90,4|0,0:3|0:0,0:0:0:0:
290,120,15051,1,2,1:3:0:0:
108,238,15404,1,4,0:3:0:0:
432,304,15757,5,4,0:3:0:0:
466,228,15934,2,0,L|453:123,1,90,0|0,0:0|0:0,0:0:0:0:
359,117,16287,1,0,0:0:0:0:
251,299,16463,2,0,P|192:271|271:225,1,180,2|4,1:3|0:3,0:0:0:0:
352,209,16992,1,0,0:0:0:0:
427,181,17169,6,0,P|411:94|319:74,1,180,0|4,0:0|0:3,0:0:0:0:
230,252,17698,2,0,L|229:153,1,90,0|8,0:0|0:0,0:0:0:0:
422,99,18228,1,4,0:3:0:0:
116,268,18581,5,4,0:3:0:0:
41,223,18757,2,0,P|33:168|138:85,1,180,0|0,0:0|0:0,0:0:0:0:
208,164,19287,2,0,L|318:133,1,90,2|0,1:3|0:0,0:0:0:0:
186,352,19639,2,0,L|185:71,1,270,4|4,0:3|0:3,0:0:0:0:
288,193,20345,2,0,L|384:158,2,90,4|0|0,0:3|0:0|1:0,0:0:0:0:
110,217,21051,1,4,0:3:0:0:
413,253,21404,5,4,0:3:0:0:
486,216,21581,2,0,P|467:108|394:88,1,180,0|0,0:0|0:0,0:0:0:0:
323,227,22110,2,0,L|219:207,1,90,2|0,1:3|0:0,0:0:0:0:
136,225,22463,2,0,L|144:119,1,90,4|0,0:3|0:0,0:0:0:0:
239,113,22816,6,0,L|335:91,2,90,0|4|4,0:0|0:3|0:3,0:0:0:0:
82,277,23522,1,8,0:0:0:0:
73,233,23610,1,0,0:0:0:0:
82,189,23698,1,8,0:3:0:0:
108,153,23786,1,8,0:3:0:0:
146,129,23874,1,4,0:3:0:0:
459,189,24228,5,4,0:1:0:0:
504,119,24404,2,0,L|397:103,1,90,0|0,0:0|0:0,0:0:0:0:
326,195,24757,1,0,0:0:0:0:
419,288,24934,2,0,L|413:165,1,90,2|0,1:3|0:0,0:0:0:0:
313,286,25287,2,0,L|280:179,1,90,4|0,0:3|0:0,0:0:0:0:
389,199,25639,6,0,P|401:117|293:69,1,180,0|6,0:0|0:3,0:0:0:0:
224,229,26169,2,0,L|232:110,1,90,0|2,0:0|1:3,0:0:0:0:
388,133,26698,1,12,0:3:0:0:
95,273,27051,5,12,0:3:0:0:
39,231,27228,2,0,P|33:143|130:106,1,180,0|0,0:0|0:0,0:0:0:0:
195,189,27757,2,0,L|386:159,2,180,2|4|0,1:3|0:3|0:0,0:0:0:0:
63,226,28816,1,4,0:3:0:0:
149,159,28992,2,0,L|274:134,1,90,0|8,0:0|0:0,0:0:0:0:
68,60,29522,1,4,0:3:0:0:
386,279,29875,6,0,P|445:217|359:171,1,180,12|0,0:3|0:0,0:0:0:0:
235,294,30581,2,0,L|221:176,1,90,2|0,1:3|0:0,0:0:0:0:
315,188,30934,2,0,L|322:89,1,90,4|0,0:3|0:0,0:0:0:0:
222,99,31287,2,0,L|74:65,1,135,0|0,0:0|0:0,0:0:0:0:
275,287,31992,1,2,1:3:0:0:
94,205,32345,1,12,0:3:0:0:
409,317,32698,6,0,P|476:277|467:203,1,135,12|0,0:3|0:0,0:0:0:0:
441,202,33051,2,0,L|338:154,1,90,0|0,0:0|0:0,0:0:0:0:
250,209,33404,2,0,L|251:91,1,90,2|0,1:3|0:0,0:0:0:0:
436,307,33934,2,0,L|429:156,1,135,0|0,0:0|0:0,0:0:0:0:
307,174,34463,1,4,0:3:0:0:
472,155,34816,2,8,L|475:45,2,90,8|0|8,0:0|3:0|0:3,0:0:0:0:
157,340,35522,6,0,P|88:294|200:193,1,270,4|0,1:0|0:0,0:0:0:0:
268,207,36228,2,0,L|465:174,2,180,2|4|0,1:3|0:3|0:0,0:0:0:0:
126,255,37287,1,4,0:3:0:0:
297,146,37639,2,0,L|482:98,1,180,2|12,1:3|0:3,0:0:0:0:
181,245,38345,6,0,L|189:145,1,90,12|0,0:3|0:0,0:0:0:0:
284,138,38699,1,0,0:0:0:0:
100,183,39051,2,0,P|30:156|20:70,2,135,2|0|0,1:3|0:0|0:0,0:0:0:0:
213,165,39757,2,0,L|353:124,1,135,0|0,0:0|0:0,0:0:0:0:
170,301,40463,2,0,P|110:266|189:185,1,180,8|4,0:0|0:3,0:0:0:0:
414,253,41169,6,0,P|432:170|351:104,1,180,12|0,0:3|0:0,0:0:0:0:
210,238,41875,2,0,L|201:139,1,90,0|0,1:3|0:0,0:0:0:0:
300,181,42227,2,0,L|306:64,1,90,4|0,0:3|0:0,0:0:0:0:
198,98,42581,2,2,L|9:45,1,180,2|6,0:0|0:3,0:0:0:0:
348,310,43287,2,0,P|436:181|310:55,1,360,2|12,1:3|3:3,3:3:0:0:
135,251,44345,6,0,L|132:130,1,90,4|0,3:3|3:0,3:3:0:0:
224,176,44698,2,0,L|396:108,1,180,6|4,3:3|3:0,3:3:0:0:
311,305,45228,1,0,3:0:0:0:
215,309,45404,2,0,L|219:211,1,90,4|4,3:3|3:3,0:0:0:0:
322,203,45757,2,0,L|314:82,1,90,4|4,3:3|3:3,0:0:0:0:
212,100,46110,1,4,3:3:0:0:
168,88,46198,1,4,3:3:0:0:
125,76,46286,1,4,3:3:0:0:
81,65,46374,1,4,3:3:0:0:
38,53,46462,1,6,0:3:0:0:
348,340,46816,6,0,P|368:252|271:200,1,180,4|4,1:0|0:3,0:0:0:0:
199,219,47345,2,0,P|138:163|221:114,1,180,0|4,1:0|0:3,0:0:0:0:
368,97,47875,2,0,L|389:301,1,180,12|12,1:3|1:3,0:0:0:0:
197,332,48581,1,4,0:3:0:0:
148,270,48757,2,0,P|145:194|229:139,1,180,0|4,1:3|0:3,0:0:0:0:
413,243,49287,2,0,P|425:148|409:54,1,180,12|12,1:3|1:3,0:0:0:0:
209,245,49992,6,0,L|91:203,1,90,0|0,1:0|0:0,0:0:0:0:
210,225,50345,2,0,P|263:180|184:117,1,180,4|12,0:3|1:3,0:0:0:0:
106,200,50875,1,0,0:0:0:0:
44,139,51051,2,0,P|43:94|174:22,1,180,12|0,1:3|1:0,0:0:0:0:
302,251,51757,1,8,0:0:0:0:
387,203,51933,1,0,3:0:0:0:
423,132,52109,1,4,0:3:0:0:
115,249,52463,6,0,P|89:168|180:116,1,180,4|4,1:0|0:3,0:0:0:0:
268,255,52992,2,0,P|312:196|215:135,1,180,0|4,1:3|0:3,0:0:0:0:
80,259,53522,2,0,L|68:64,1,180,12|12,1:3|1:3,0:0:0:0:
256,255,54228,1,4,0:3:0:0:
322,220,54404,2,0,L|473:110,1,180,0|4,1:3|0:3,0:0:0:0:
293,194,54934,6,0,L|98:143,1,180,12|12,1:3|1:3,0:0:0:0:
276,130,55639,2,0,L|363:104,2,90,4|4|0,0:3|0:3|1:0,0:0:0:0:
117,229,56346,1,0,1:3:0:0:
412,321,56698,2,0,L|422:108,1,180,12|12,1:3|1:3,0:0:0:0:
272,307,57404,1,8,0:3:0:0:
228,297,57492,1,8,0:3:0:0:
193,269,57580,1,4,0:3:0:0:
174,229,57668,1,4,0:3:0:0:
174,184,57756,1,4,0:3:0:0:
470,274,58110,6,0,P|476:168|394:131,1,180,4|2,1:2|0:0,0:0:0:0:
233,283,58816,1,2,1:3:0:0:
225,219,58992,2,0,L|217:112,1,90,0|4,0:0|0:3,0:0:0:0:
367,100,59522,2,0,L|463:79,2,90,2|4|4,0:0|0:3|0:3,0:0:0:0:
187,237,60228,2,0,L|5:181,1,180,2|4,1:3|0:3,0:0:0:0:
334,302,60934,6,0,P|390:265|319:193,1,180,4|2,0:3|0:0,0:0:0:0:
175,185,61639,1,2,1:3:0:0:
259,147,61816,2,0,L|353:104,1,90,0|4,0:0|0:3,0:0:0:0:
182,336,62345,2,0,P|124:289|187:199,1,180,2|4,0:0|0:3,0:0:0:0:
337,149,63051,2,4,L|547:90,1,180,2|4,1:3|0:3,0:0:0:0:
204,282,63757,6,0,L|20:247,1,180,4|2,0:3|0:0,0:0:0:0:
223,334,64463,1,0,1:0:0:0:
310,302,64639,2,0,L|310:204,1,90,0|4,0:0|0:3,0:0:0:0:
122,210,65169,2,0,P|95:146|181:76,1,180,2|4,0:0|0:3,0:0:0:0:
333,163,65875,2,0,L|514:91,1,180,2|0,1:3|0:0,0:0:0:0:
217,324,66581,6,0,P|173:255|240:185,1,180,4|2,0:3|0:0,0:0:0:0:
414,185,67287,1,2,1:3:0:0:
412,96,67463,2,0,L|308:80,1,90,0|4,0:0|0:3,0:0:0:0:
142,294,67992,2,0,P|144:213|232:142,1,180,2|4,0:0|0:3,0:0:0:0:
376,158,68698,2,0,L|463:128,2,90,8|0|0,1:2|0:0|3:0,3:3:0:0:
98,316,69404,5,4,1:0:0:0:
248,318,69757,2,0,L|249:132,1,180,0|0,0:0|1:0,0:0:0:0:
79,166,70463,1,4,0:3:0:0:
252,206,70816,2,0,L|349:188,1,90,0|4,0:0|0:3,0:0:0:0:
249,128,71169,2,0,L|39:103,1,180,4|0,0:3|1:0,0:0:0:0:
89,231,71875,1,4,0:3:0:0:
384,313,72228,6,0,P|436:255|357:203,1,180,4|0,0:3|0:0,0:0:0:0:
283,255,72757,1,0,0:0:0:0:
199,204,72934,2,0,L|407:166,1,180,0|4,1:0|0:3,0:0:0:0:
449,102,73463,1,0,0:0:0:0:
372,48,73639,2,0,L|194:80,1,180,0|4,0:0|0:3,0:0:0:0:
360,312,74345,1,8,0:0:0:0:
441,277,74522,2,0,L|430:160,1,90
140,260,75051,5,4,0:3:0:0:
69,228,75228,2,0,P|54:185|166:89,1,180
212,163,75757,2,0,L|323:184,1,90,0|0,1:0|0:0,0:0:0:0:
206,340,76110,2,0,L|206:132,1,180,4|0,0:3|0:0,0:0:0:0:
300,128,76639,2,4,L|407:107,1,90,4|4,0:3|0:3,0:3:0:0:
245,256,77169,2,0,L|59:232,1,180,8|0,0:0|1:0,0:0:0:0:
402,243,77875,6,0,P|458:191|372:125,1,180
317,118,78404,1,0,0:0:0:0:
208,288,78581,2,0,P|200:204|300:149,1,180
361,147,79110,1,0,0:0:0:0:
185,226,79463,6,0,L|84:192,2,90
287,233,79992,1,0,0:0:0:0:
365,189,80168,1,0,0:0:0:0:
444,146,80344,1,0,0:0:0:0:
132,303,80698,6,0,P|52:268|43:152,1,180
49,106,81228,2,0,L|159:96,1,90
329,233,81757,2,0,L|333:117,1,90
229,123,82110,2,0,L|67:85,2,135
340,317,82816,2,0,P|398:273|310:220,1,180
77,232,83522,6,0,L|102:125,1,90
189,101,83875,1,0,0:0:0:0:
392,304,84228,2,0,P|444:258|356:204,1,180
286,214,84757,1,0,0:0:0:0:
200,220,84934,2,0,L|82:176,2,90
298,289,85463,2,0,P|302:218|186:168,1,180
135,167,85993,1,0,0:0:0:0:
422,319,86345,6,0,P|467:278|389:203,1,180
313,203,86875,1,0,0:0:0:0:
220,308,87051,2,0,P|138:267|153:157,1,180
305,138,87757,2,0,L|399:116,2,90
209,261,88287,2,0,P|124:240|106:130,1,180
156,105,88816,1,0,0:0:0:0:
256,192,89169,12,0,91639,0:0:0:0:
395,308,91992,6,0,P|390:226|288:191,1,180
230,209,92522,2,0,L|21:151,1,180
234,124,93051,2,0,L|421:71,1,180
241,294,93757,1,0,0:0:0:0:
224,200,93934,2,0,L|408:168,1,180
230,251,94463,6,0,P|143:217|143:121,1,180
305,145,95169,2,0,L|400:125,2,90
130,79,95875,2,0,L|39:56,2,90
308,229,96581,1,0,0:0:0:0:
122,286,96934,1,0,0:0:0:0:
123,196,97110,1,0,0:0:0:0:
124,106,97286,1,0,0:0:0:0:
475,274,97640,6,0,P|465:201|349:146,1,180
297,265,98169,2,0,P|218:217|229:116,1,180
387,262,98698,2,0,P|444:201|363:169,1,180
206,311,99404,1,0,0:0:0:0:
171,266,99581,2,0,P|155:191|240:139,1,180
404,221,100110,6,0,P|406:157|293:95,1,180
163,233,100816,2,0,L|174:115,1,90
259,124,101169,2,0,L|437:85,1,180
119,344,101875,6,0,L|117:139,1,180
314,323,102581,1,0,0:0:0:0:
352,301,102669,1,0,0:0:0:0:
369,260,102757,1,0,0:0:0:0:
356,218,102845,1,0,0:0:0:0:
320,192,102933,1,0,0:0:0:0:
42,274,103287,6,0,P|36:168|118:131,1,180,4|2,1:2|0:0,0:0:0:0:
279,283,103993,1,2,1:3:0:0:
287,219,104169,2,0,L|295:112,1,90,0|4,0:0|0:3,0:0:0:0:
145,100,104699,2,0,L|49:79,2,90,2|4|4,0:0|0:3|0:3,0:0:0:0:
325,237,105404,2,0,L|507:181,1,180,2|4,1:3|0:3,0:0:0:0:
178,302,106111,6,0,P|122:265|193:193,1,180,4|2,0:3|0:0,0:0:0:0:
337,185,106816,1,2,1:3:0:0:
253,147,106993,2,0,L|159:104,1,90,0|4,0:0|0:3,0:0:0:0:
330,336,107522,2,0,P|388:289|325:199,1,180,2|4,0:0|0:3,0:0:0:0:
175,149,108228,2,4,L|-35:90,1,180,2|4,1:3|0:3,0:0:0:0:
308,282,108934,6,0,L|492:247,1,180,4|2,0:3|0:0,0:0:0:0:
289,334,109640,1,0,1:0:0:0:
202,302,109816,2,0,L|202:204,1,90,0|4,0:0|0:3,0:0:0:0:
390,210,110346,2,0,P|417:146|331:76,1,180,2|4,0:0|0:3,0:0:0:0:
179,163,111052,2,0,L|-2:91,1,180,2|0,1:3|0:0,0:0:0:0:
294,324,111758,6,0,P|338:255|271:185,1,180,4|2,0:3|0:0,0:0:0:0:
98,185,112464,1,2,1:3:0:0:
100,96,112640,2,0,L|204:80,1,90,0|4,0:0|0:3,0:0:0:0:
370,294,113169,2,0,P|368:213|280:142,1,180,2|4,0:0|0:3,0:0:0:0:
136,158,113875,2,0,L|49:128,2,90,8|0|0,1:2|0:0|3:0,3:3:0:0:
437,261,114581,1,0,0:0:0:0:
256,192,114934,12,0,121639,0:0:0:0:
