osu file format v14

[General]
AudioFilename: audio.mp3
AudioLeadIn: 0
PreviewTime: 44345
Countdown: 0
SampleSet: Soft
StackLeniency: 0.7
Mode: 2
LetterboxInBreaks: 0
WidescreenStoryboard: 1

[Editor]
Bookmarks: 12934,24228,35522,46816,58110,69404,80698,91992,103287,114531
DistanceSpacing: 1.5
BeatDivisor: 4
GridSize: 8
TimelineZoom: 2.3

[Metadata]
Title:Run The Track
TitleUnicode:Run The Track
Artist:Blue Stahli & Nyzzy Nyce
ArtistUnicode:Blue Stahli & Nyzzy Nyce
Creator:Sinnoh
Version:Rain
Source:
Tags:rock hip hop electronic rap racing car mbomb
BeatmapID:2242235
BeatmapSetID:1071229

[Difficulty]
HPDrainRate:5
CircleSize:4
OverallDifficulty:9
ApproachRate:9
SliderMultiplier:2
SliderTickRate:2

[Events]
//Background and Video events
0,0,"bg.jpg",0,0
//Break Periods
//Storyboard Layer 0 (Background)
//Storyboard Layer 1 (Fail)
//Storyboard Layer 2 (Pass)
//Storyboard Layer 3 (Foreground)
//Storyboard Sound Samples

[TimingPoints]
1640,352.941176470588,4,2,0,70,1,0
7287,-100,4,3,0,70,0,0
12934,-66.6666666666667,4,2,0,70,0,0
14698,-58.8235294117647,4,2,0,70,0,0
35522,-76.9230769230769,4,2,0,70,0,0
35875,-58.8235294117647,4,2,0,70,0,0
46816,-83.3333333333333,4,2,0,70,0,1
58110,-83.3333333333333,4,2,0,70,0,0
69404,-62.5,4,2,0,70,0,0
89169,-83.3333333333333,4,3,0,70,0,0
90581,-62.5,4,3,0,70,0,0
91992,-83.3333333333333,4,2,0,70,0,1
103287,-83.3333333333333,4,2,0,70,0,0
114404,-83.3333333333333,4,2,0,70,0,0
115992,-83.3333333333333,4,2,0,60,0,0
117404,-83.3333333333333,4,2,0,50,0,0
118816,-83.3333333333333,4,2,0,40,0,0
120228,-83.3333333333333,4,2,0,30,0,0
121639,-83.3333333333333,4,2,0,5,0,0

[Colours]
Combo1 : 0,128,192
Combo2 : 167,167,167

[HitObjects]
387,310,1640,5,4,0:1:0:0:
447,235,1816,1,0,0:0:0:0:
418,143,1992,1,0,3:0:0:0:
326,117,2169,1,0,0:0:0:0:
166,279,2522,1,0,0:0:0:0:
283,268,2698,2,0,L|287:169,1,100,0|0,3:0|0:0,0:0:0:0:
135,197,3051,6,0,P|88:126|172:60,1,200,0|0,3:0|3:0,0:0:0:0:
269,93,3581,1,0,0:0:0:0:
371,251,3757,2,0,L|375:127,1,100,0|0,3:0|0:0,0:0:0:0:
245,260,4110,2,0,L|240:136,1,100,0|0,3:0|3:0,3:3:0:0:
125,310,4463,5,0,3:0:0:0:
65,235,4639,1,0,0:0:0:0:
94,143,4815,1,0,3:0:0:0:
186,117,4992,1,0,0:0:0:0:
346,279,5345,1,0,0:0:0:0:
229,268,5521,2,0,L|225:169,1,100,0|0,3:0|0:0,0:0:0:0:
374,248,5875,6,0,P|477:197|474:78,1,200,0|0,3:0|3:0,0:0:0:0:
373,169,6404,1,0,0:0:0:0:
271,327,6580,2,0,L|267:203,1,100,0|0,3:0|0:0,0:0:0:0:
397,336,6933,2,0,L|402:212,1,100,0|0,3:0|0:0,0:0:0:0:
249,253,7287,6,0,L|108:235,1,100,0|0,0:0|0:0,0:0:0:0:
270,142,7639,2,0,L|397:128,1,100,0|0,0:0|0:0,0:0:0:0:
249,253,7992,2,0,L|108:235,1,100,0|0,0:0|0:0,0:0:0:0:
270,142,8345,2,0,L|397:128,1,100,0|0,0:0|0:0,0:0:0:0:
214,340,8698,5,0,0:0:0:0:
141,278,8874,1,0,0:0:0:0:
159,184,9050,1,0,0:0:0:0:
250,154,9227,1,0,0:0:0:0:
372,312,9404,1,0,0:0:0:0:
445,250,9580,1,0,0:0:0:0:
427,156,9757,1,0,0:0:0:0:
336,126,9933,1,0,0:0:0:0:
201,362,10110,5,0,0:0:0:0:
173,319,10198,1,0,0:0:0:0:
176,269,10286,1,0,0:0:0:0:
208,229,10374,1,0,0:0:0:0:
259,210,10463,1,0,0:0:0:0:
286,167,10551,1,0,0:0:0:0:
283,116,10639,1,0,0:0:0:0:
251,77,10727,1,0,0:0:0:0:
207,58,10816,6,0,L|134:52,1,50,0|0,0:0|0:0,0:0:0:0:
318,313,10992,2,0,L|391:307,1,50,0|0,0:0|0:0,0:0:0:0:
207,58,11169,2,0,L|134:52,1,50,0|0,0:0|0:0,0:0:0:0:
318,313,11345,2,0,L|391:307,1,50,0|0,0:0|0:0,0:0:0:0:
145,324,11522,6,0,P|93:289|183:197,1,200,4|0,0:0|0:0,0:0:0:0:
300,156,12051,2,0,L|361:146,1,50,0|0,1:0|1:0,1:1:0:0:
177,222,12228,1,0,1:0:0:0:
178,141,12404,1,4,0:3:0:0:
314,99,12581,1,0,1:0:0:0:
362,87,12669,1,0,1:0:0:0:
411,76,12757,1,4,0:3:0:0:
101,282,12934,6,0,B|97:130|97:130|244:127|244:127|245:284|245:284|77:285,1,600.000022888185,4|2,0:3|1:3,0:0:0:0:
433,269,13992,2,0,B|429:121|429:121|99:118,1,450.000017166138,4|4,0:3|0:3,0:0:0:0:
119,209,14698,2,0,L|467:205,2,340.000006484985,4|2|4,0:3|1:3|0:3,0:0:0:0:
392,276,15757,6,0,P|291:112|373:304,1,680.000012969971,4|2,0:3|1:3,0:0:0:0:
122,296,16816,2,4,P|122:159|438:127,1,510.000009727478,4|4,0:3|0:3,0:0:0:0:
292,229,17522,1,4,0:3:0:0:
429,239,17698,2,0,L|432:353,1,85.0000016212464,0|0,0:0|0:0,0:0:0:0:
221,343,17875,1,8,0:0:0:0:
101,192,18051,2,0,L|183:128,1,85.0000016212464,0|0,0:0|0:0,0:0:0:0:
235,119,18228,2,0,L|424:77,1,170.000003242493,4|0,0:3|0:0,0:0:0:0:
256,288,18581,6,0,L|88:216,1,170.000003242493,4|0,0:3|0:0,0:0:0:0:
277,338,18934,2,0,B|275:168|275:168|79:165,1,340.000006484985,0|2,0:0|1:3,0:0:0:0:
354,384,19639,6,0,B|184:366|184:366|309:315|315:121|156:112,1,510.000009727478,4|4,0:3|0:3,0:0:0:0:
50,325,20345,2,0,B|49:158|49:158|271:156,2,340.000006484985,4|0|4,0:3|1:0|0:3,0:0:0:0:
273,351,21404,2,0,L|273:134,1,170.000003242493,4|0,0:3|0:0,0:0:0:0:
433,335,21757,2,0,B|432:164|432:164|232:166,1,340.000006484985,0|2,0:0|1:3,0:0:0:0:
98,268,22463,6,0,P|238:226|72:34,1,510.000009727478,4|4,0:3|0:3,0:0:0:0:
93,251,23169,2,0,L|425:101,1,340.000006484985,4|8,0:3|0:0,0:0:0:0:
386,70,23610,1,0,0:0:0:0:
205,301,23698,2,8,L|198:185,1,85.0000016212464,8|8,0:3|0:3,0:0:0:0:
257,198,23875,2,4,L|335:128,1,85.0000016212464,4|4,0:3|0:3,0:0:0:0:
251,123,24051,2,4,L|173:53,1,85.0000016212464,4|4,0:3|0:3,0:0:0:0:
376,320,24228,6,0,P|458:264|328:123,1,340.000006484985,4|0,0:1|0:0,0:0:0:0:
208,152,24757,2,0,L|416:120,1,170.000003242493,0|2,0:0|1:3,0:0:0:0:
224,272,25110,1,0,0:0:0:0:
220,187,25198,1,0,0:0:0:0:
217,102,25287,2,0,P|320:80|264:264,1,340.000006484985,4|0,0:3|0:0,0:0:0:0:
184,288,25816,1,4,0:3:0:0:
448,320,25992,2,0,P|464:232|224:112,1,340.000006484985,6|2,0:3|1:3,0:0:0:0:
176,272,26522,1,0,0:0:0:0:
320,280,26698,2,0,L|472:160,1,170.000003242493,12|0,0:3|0:0,0:0:0:0:
165,302,27051,6,0,P|101:201|274:92,1,340.000006484985,12|0,0:3|0:0,0:0:0:0:
361,199,27581,2,0,L|166:179,1,170.000003242493,0|2,0:0|1:3,0:0:0:0:
75,217,27934,2,0,L|70:101,1,85.0000016212464,0|0,0:0|0:0,0:0:0:0:
83,274,28110,6,0,L|373:29,1,340.000006484985,4|0,0:3|0:0,0:0:0:0:
222,250,28639,1,4,0:3:0:0:
347,134,28815,1,4,0:3:0:0:
472,19,28991,1,0,0:0:0:0:
215,307,29169,1,8,0:0:0:0:
136,236,29345,2,0,L|156:145,1,85.0000016212464,0|0,0:0|0:0,0:0:0:0:
232,136,29522,2,0,L|441:52,1,170.000003242493,4|2,0:3|0:1,0:0:0:0:
122,265,29875,6,0,P|69:194|249:73,1,340.000006484985,12|0,0:3|0:0,0:0:0:0:
90,308,30404,2,0,L|91:111,1,170.000003242493,0|2,0:0|1:3,0:0:0:0:
356,284,30934,6,0,L|53:38,1,340.000006484985,4|0,0:3|0:0,0:0:0:0:
237,332,31463,1,0,0:3:0:0:
100,23,31639,2,0,L|97:381,1,340.000006484985,4|2,0:3|1:3,0:0:0:0:
234,323,32169,1,0,0:0:0:0:
52,265,32345,2,0,L|63:21,1,170.000003242493,12|0,0:3|0:0,0:0:0:0:
407,335,32698,6,0,P|502:231|345:110,1,340.000006484985,12|0,0:3|0:0,0:0:0:0:
253,236,33228,2,0,L|436:129,2,170.000003242493,0|2|0,0:0|1:3|0:0,0:0:0:0:
380,116,33757,6,0,L|95:322,1,340.000006484985,4|0,0:3|0:0,0:0:0:0:
66,274,34199,1,0,0:0:0:0:
70,215,34287,1,4,0:3:0:0:
123,183,34375,1,0,0:0:0:0:
184,169,34463,2,0,L|299:94,1,85.0000016212464,4|0,0:3|0:0,0:0:0:0:
169,101,34639,2,0,L|54:26,1,85.0000016212464,0|4,0:0|0:3,0:0:0:0:
310,325,34816,5,8,0:0:0:0:
364,261,34904,1,0,0:0:0:0:
371,177,34992,1,0,3:0:0:0:
330,105,35080,1,0,3:0:0:0:
252,74,35169,2,8,L|167:3,1,85.0000016212464,8|8,0:3|0:3,0:0:0:0:
345,225,35345,2,4,L|429:303,1,85.0000016212464,4|4,0:3|0:3,0:0:0:0:
134,353,35522,6,0,P|54:244|190:34,1,389.999982147218,4|0,1:0|0:0,0:0:0:0:
308,318,36228,6,0,B|266:156|266:156|69:84,2,340.000006484985,2|4|0,1:3|0:3|0:0,0:0:0:0:
149,298,37110,1,4,0:3:0:0:
307,262,37287,2,0,B|449:203|449:203|261:135,1,340.000006484985,4|2,0:3|1:3,0:0:0:0:
29,154,37992,1,12,0:3:0:0:
369,317,38345,6,0,B|445:260|531:63|354:60|354:60|205:95|205:95|193:319,1,680.000012969971,12|2,0:3|1:3,0:0:0:0:
467,301,39404,6,4,B|462:165|462:165|266:129|266:129|436:65,1,510.000009727478,4|4,0:3|0:3,0:0:0:0:
297,262,40110,2,0,L|157:155,1,170.000003242493,4|0,0:3|0:0,0:0:0:0:
464,209,40463,1,8,0:0:0:0:
330,246,40639,1,0,0:0:0:0:
330,161,40727,1,0,0:0:0:0:
331,76,40815,1,4,0:3:0:0:
459,116,40992,1,0,0:0:0:0:
156,299,41169,6,0,B|125:125|125:125|286:89|286:89|322:250|322:250|124:300,1,680.000012969971,12|0,0:3|1:3,0:0:0:0:
436,284,42228,1,4,0:3:0:0:
207,241,42581,2,2,L|201:187,4,42.5000008106232,2|0|0|0|6,0:0|0:0|0:0|0:0|0:3,0:0:0:0:
340,187,42934,2,0,L|385:156,8,42.5000008106232,6|2|2|2|2|0|0|0|2,0:3|0:0|0:0|0:0|0:0|0:0|0:0|0:0|1:3,0:0:0:0:
63,174,43639,2,0,L|222:62,1,170.000003242493,12|0,0:3|0:0,0:0:0:0:
479,317,43993,6,0,L|495:118,1,170.000003242493,12|0,3:3|3:0,3:3:0:0:
349,254,44345,2,0,L|349:45,1,170.000003242493,4|0,3:3|3:0,3:3:0:0:
166,242,44699,2,0,L|166:72,1,170.000003242493,6|0,3:3|3:0,3:3:0:0:
29,303,45051,2,0,L|15:133,1,170.000003242493,4|0,3:0|3:0,3:3:0:0:
165,133,45404,6,0,L|249:79,1,85.0000016212464,4|0,3:3|3:0,0:0:0:0:
306,227,45581,2,0,L|390:281,1,85.0000016212464,4|0,3:3|3:0,0:0:0:0:
449,210,45757,2,0,L|365:264,1,85.0000016212464,4|0,3:3|3:0,0:0:0:0:
308,116,45934,2,0,L|224:62,1,85.0000016212464,4|0,3:3|3:0,0:0:0:0:
151,251,46110,2,0,L|235:305,1,85.0000016212464,4|4,3:3|3:3,0:0:0:0:
308,116,46287,2,0,L|224:170,1,85.0000016212464,4|4,3:3|3:3,0:0:0:0:
82,323,46463,2,0,P|41:227|138:99,1,255.000004863739,6|0,0:3|0:0,0:0:0:0:
325,313,46816,6,0,P|414:240|388:157,1,179.999994506836,4|0,1:0|0:0,0:0:0:0:
343,193,47169,2,0,L|260:166,1,59.9999981689454,4|0,0:3|0:0,0:0:0:0:
360,206,47345,2,0,P|449:133|423:50,1,179.999994506836,0|0,1:0|0:0,0:0:0:0:
378,86,47698,2,0,L|295:59,1,59.9999981689454,4|0,0:3|0:0,0:0:0:0:
125,299,47875,2,0,L|118:148,1,119.999996337891,12|0,1:3|0:0,0:0:0:0:
417,252,48228,6,0,P|393:147|326:125,1,179.999994506836,12|0,1:3|0:0,0:0:0:0:
246,177,48581,2,0,L|173:182,1,59.9999981689454,4|0,0:3|0:0,0:0:0:0:
130,275,48757,2,0,P|154:170|221:148,1,179.999994506836,0|0,1:3|0:0,0:0:0:0:
274,130,49110,2,0,L|362:110,1,59.9999981689454,4|0,0:3|0:0,0:0:0:0:
492,280,49287,2,0,L|489:135,1,119.999996337891,12|0,1:3|0:0,0:0:0:0:
189,274,49639,6,0,P|126:245|156:120,1,179.999994506836,12|0,1:3|0:0,0:0:0:0:
177,113,49992,2,0,L|300:50,1,119.999996337891,0|0,1:0|0:0,0:0:0:0:
142,260,50345,2,0,L|131:116,1,119.999996337891,4|4,0:3|0:3,0:0:0:0:
441,143,50698,2,0,L|305:112,1,119.999996337891,12|0,1:3|0:0,0:0:0:0:
48,119,51051,6,0,L|189:78,1,119.999996337891,12|0,1:3|0:0,0:0:0:0:
304,257,51404,2,0,L|305:113,1,119.999996337891,0|0,1:0|0:0,0:0:0:0:
62,205,51757,2,0,L|200:172,2,119.999996337891,8|0|4,0:0|3:0|0:3,0:0:0:0:
486,261,52463,6,0,P|478:149|381:109,1,179.999994506836,4|0,1:0|0:0,0:0:0:0:
365,110,52816,2,0,L|305:109,1,59.9999981689454,4|0,0:3|0:0,0:0:0:0:
219,280,52993,2,0,P|227:168|324:128,1,179.999994506836,0|0,1:3|0:0,0:0:0:0:
340,129,53346,2,0,L|400:128,1,59.9999981689454,4|0,0:3|0:0,0:0:0:0:
245,315,53522,2,0,L|87:297,1,119.999996337891,12|0,1:3|0:0,0:0:0:0:
365,277,53875,6,0,P|447:234|451:142,1,179.999994506836,12|0,1:3|0:0,0:0:0:0:
419,104,54228,2,0,L|312:94,1,59.9999981689454,4|0,0:3|0:0,0:0:0:0:
273,262,54404,2,0,P|191:219|187:127,1,179.999994506836,0|0,1:3|0:0,0:0:0:0:
219,89,54757,2,0,L|326:79,1,59.9999981689454,4|0,0:3|0:0,0:0:0:0:
442,249,54934,2,0,L|449:128,1,119.999996337891,12|0,1:3|0:0,0:0:0:0:
197,245,55287,6,0,L|12:217,1,179.999994506836,12|0,1:3|0:0,0:0:0:0:
81,175,55639,2,0,L|240:146,1,119.999996337891,4|4,0:3|0:3,0:0:0:0:
327,93,55992,2,0,L|184:70,1,119.999996337891,0|0,1:0|0:0,0:0:0:0:
481,260,56345,2,0,L|465:129,1,119.999996337891,0|0,1:3|0:0,0:0:0:0:
215,188,56698,6,0,L|78:178,1,119.999996337891,12|0,1:3|0:0,0:0:0:0:
352,185,57051,2,0,L|489:175,1,119.999996337891,12|0,1:3|0:0,0:0:0:0:
335,305,57404,1,8,0:3:0:0:
309,274,57462,1,8,0:3:0:0:
302,235,57521,1,8,0:3:0:0:
316,198,57581,2,4,L|392:177,1,59.9999981689454,4|4,0:3|0:3,0:0:0:0:
436,170,57757,2,4,L|443:26,1,119.999996337891,4|4,0:3|0:3,0:0:0:0:
155,348,58110,5,4,1:2:0:0:
75,263,58286,1,2,0:0:0:0:
78,146,58462,1,2,0:0:0:0:
162,66,58639,1,2,0:0:0:0:
279,70,58815,1,2,1:3:0:0:
154,115,58992,2,0,L|9:100,2,119.999996337891,0|4|0,0:0|0:3|0:0,0:0:0:0:
391,100,59522,6,0,L|543:84,2,119.999996337891,2|4|4,0:0|0:3|0:3,0:0:0:0:
103,340,60228,2,0,L|101:69,1,239.999992675781,2|4,1:3|0:3,0:0:0:0:
385,11,60934,5,4,0:3:0:0:
271,40,61110,1,2,0:0:0:0:
200,134,61286,1,2,0:0:0:0:
204,252,61463,1,2,0:0:0:0:
280,341,61639,1,2,1:3:0:0:
396,364,61816,2,0,L|555:340,2,119.999996337891,0|4|0,0:0|0:3|0:0,0:0:0:0:
158,361,62345,6,0,L|0:336,2,119.999996337891,2|4|4,0:0|0:3|0:3,0:0:0:0:
300,365,62875,1,0,0:0:0:0:
47,217,63051,2,4,L|216:191,2,119.999996337891,2|0|4,1:3|0:0|0:3,0:0:0:0:
333,370,63757,5,4,0:3:0:0:
372,257,63933,1,2,0:0:0:0:
353,140,64109,1,2,0:0:0:0:
280,46,64286,1,2,0:0:0:0:
171,0,64462,1,0,1:0:0:0:
53,9,64639,2,0,L|190:4,2,119.999996337891,0|4|0,0:0|0:3|0:0,0:0:0:0:
343,282,65169,6,0,L|479:276,2,119.999996337891,2|4|4,0:0|0:3|0:3,0:0:0:0:
109,261,65875,2,0,L|378:234,1,239.999992675781,2|0,1:3|0:0,0:0:0:0:
89,376,66581,5,4,0:3:0:0:
50,263,66757,1,2,0:0:0:0:
69,146,66933,1,2,0:0:0:0:
142,52,67110,1,2,0:0:0:0:
251,6,67286,1,2,1:3:0:0:
379,21,67463,2,0,L|498:25,2,119.999996337891,0|4|0,0:0|0:3|0:0,0:0:0:0:
133,21,67992,6,0,L|13:25,2,119.999996337891,2|4|4,0:0|0:3|0:3,0:0:0:0:
272,126,68522,2,4,L|340:105,1,59.9999981689454,4|4,0:3|0:3,0:0:0:0:
132,287,68699,2,0,L|128:134,1,119.999996337891,8|0,1:2|0:0,0:0:0:0:
267,177,69051,1,0,3:0:0:0:
326,170,69139,1,0,3:0:0:0:
386,164,69227,1,2,0:1:0:0:
94,358,69404,6,0,B|82:196|82:196|241:193|241:193|246:37|246:37|48:45,1,640,4|0,1:0|1:0,0:0:0:0:
321,343,70463,2,0,P|351:195|37:119,1,480,4|4,0:3|0:3,0:0:0:0:
125,218,71169,2,0,L|458:148,2,320,4|2|12,0:3|1:3|1:3,0:0:0:0:
446,303,72228,6,0,B|438:145|438:145|112:139|112:139|106:306,1,640,12|2,1:3|1:3,0:0:0:0:
345,341,73287,2,0,P|194:274|316:43,1,480,4|4,0:3|0:3,0:0:0:0:
448,263,73992,2,0,L|432:61,1,160,4|0,0:3|0:0,0:0:0:0:
125,227,74345,1,8,1:2:0:0:
251,201,74522,2,0,L|265:101,2,80,0|0|0,0:0|0:0|0:0,0:0:0:0:
126,145,74875,1,2,0:1:0:0:
439,190,75051,6,0,B|436:27|436:27|303:23|185:134|265:299|480:262,1,640,12|2,1:3|1:3,0:0:0:0:
193,335,76110,2,0,P|53:273|234:95,1,480,4|4,0:3|0:3,0:0:0:0:
345,305,76816,2,0,B|469:208|469:208|333:87,2,320,4|2|12,0:3|1:3|1:3,0:0:0:0:
122,254,77875,6,0,P|120:114|143:274,1,640,12|2,1:3|1:3,0:0:0:0:
405,319,78934,2,0,P|426:207|118:93,1,480,4|4,0:3|0:3,0:0:0:0:
136,128,79551,1,0,0:0:0:0:
198,171,79639,2,0,L|287:228,2,80,4|0|0,0:3|0:0|3:0,3:3:0:0:
127,129,79904,1,0,3:0:0:0:
340,278,79992,2,0,L|354:186,5,80,8|0|0|0|2|0,0:0|0:0|3:0|3:0|0:3|0:0,0:0:0:0:
290,178,80522,2,0,L|200:136,1,80,4|0,0:3|0:0,0:0:0:0:
458,274,80698,6,0,P|480:159|365:-10,1,320,4|0,1:0|0:0,0:0:0:0:
246,212,81228,2,0,L|85:90,1,160,0|2,0:0|1:3,0:0:0:0:
398,206,81757,6,0,L|246:140,2,160,4|0|0,0:3|0:0|0:0,0:0:0:0:
239,303,82287,2,0,L|234:113,1,160,4|4,0:3|0:3,0:0:0:0:
372,129,82639,2,0,L|525:56,1,160,0|2,0:0|1:3,0:0:0:0:
374,285,82992,1,0,0:0:0:0:
370,205,83080,1,0,0:0:0:0:
362,133,83169,2,0,L|361:-38,1,160,12|0,1:3|0:0,0:0:0:0:
81,280,83522,6,0,P|38:194|194:59,1,320,12|0,1:3|0:0,0:0:0:0:
424,281,84228,2,0,L|124:141,2,320,2|4|0,1:3|0:3|0:0,0:0:0:0:
289,354,85110,2,0,L|280:195,1,160,4|4,0:3|0:3,0:0:0:0:
434,146,85463,1,0,0:0:0:0:
142,192,85639,1,8,1:2:0:0:
272,208,85816,2,0,L|275:117,1,80,0|0,3:0|3:0,3:3:0:0:
205,97,85992,2,0,L|110:41,1,80,0|0,3:0|3:0,3:3:0:0:
211,163,86169,2,0,L|306:107,1,80,2|0,0:1|0:0,0:0:0:0:
94,301,86345,6,0,P|43:204|203:81,1,320,12|0,1:3|0:0,0:0:0:0:
409,381,87051,2,0,L|400:61,1,320,2|4,1:3|3:3,0:0:0:0:
271,227,87581,1,0,3:0:0:0:
132,162,87757,2,0,L|294:71,1,160,0|4,3:0|0:3,0:0:0:0:
427,112,88110,2,0,L|106:283,2,320,4|2|12,0:3|1:3|1:3,0:0:0:0:
440,260,88992,1,0,3:0:0:0:
267,352,89169,5,12,1:3:0:0:
153,332,89345,1,0,0:0:0:0:
103,227,89521,1,0,0:0:0:0:
160,126,89698,1,0,0:0:0:0:
451,285,89875,1,8,0:2:0:0:
507,184,90052,1,0,0:0:0:0:
458,79,90228,1,4,0:0:0:0:
344,59,90404,1,0,0:0:0:0:
102,384,90581,5,0,0:0:0:0:
181,392,90669,1,0,0:0:0:0:
260,380,90757,1,0,0:0:0:0:
333,348,90845,1,0,0:0:0:0:
396,298,90933,1,0,0:0:0:0:
444,235,91022,1,0,0:0:0:0:
474,161,91110,1,0,0:0:0:0:
485,82,91198,1,0,0:0:0:0:
297,244,91287,2,0,L|293:288,6,40,0|0|0|0|0|0|0,0:0|0:0|0:0|0:0|0:0|0:0|0:0,0:0:0:0:
133,136,91639,2,0,L|24:82,1,80,0|0,0:0|0:0,0:0:0:0:
231,178,91816,2,0,L|340:232,1,80,0|0,0:0|0:0,0:0:0:0:
110,277,91992,6,0,P|74:214|160:119,1,179.999994506836,4|0,1:0|0:0,0:0:0:0:
192,120,92345,2,0,L|264:112,1,59.9999981689454,4|0,0:3|0:0,0:0:0:0:
192,264,92522,2,0,P|156:201|242:106,1,179.999994506836,0|0,1:3|0:0,0:0:0:0:
283,95,92875,2,0,L|390:79,1,59.9999981689454,4|0,0:3|0:0,0:0:0:0:
142,307,93051,2,0,L|129:165,1,119.999996337891,12|0,1:3|0:0,0:0:0:0:
417,252,93404,6,0,P|393:147|326:125,1,179.999994506836,12|0,1:3|0:0,0:0:0:0:
256,120,93757,2,0,L|320:104,1,59.9999981689454,12|0,0:3|0:0,0:0:0:0:
382,275,93933,2,0,P|358:170|291:148,1,179.999994506836,0|0,1:0|0:0,0:0:0:0:
224,144,94286,2,0,L|165:157,1,59.9999981689454,4|0,0:3|0:0,0:0:0:0:
371,321,94463,2,0,L|377:190,1,119.999996337891,12|0,1:3|0:0,0:0:0:0:
61,253,94816,6,0,L|56:96,1,119.999996337891,12|0,1:3|0:0,0:0:0:0:
195,134,95169,2,0,L|340:93,1,119.999996337891,4|0,0:3|0:0,0:0:0:0:
459,221,95522,2,0,L|293:178,1,119.999996337891,4|4,0:3|0:3,0:0:0:0:
51,138,95875,2,0,L|191:111,1,119.999996337891,12|0,1:3|0:0,0:0:0:0:
439,292,96228,6,0,L|442:134,1,119.999996337891,12|0,1:3|0:0,0:0:0:0:
269,230,96581,2,0,L|299:105,1,119.999996337891,4|0,0:3|0:0,0:0:0:0:
451,74,96934,2,0,L|326:66,2,119.999996337891,8|0|4,1:2|3:0|0:3,0:0:0:0:
28,216,97639,6,0,P|28:143|133:66,1,179.999994506836,4|0,1:0|0:0,0:0:0:0:
162,74,97993,2,0,L|241:76,1,59.9999981689454,4|0,0:3|0:0,0:0:0:0:
293,268,98169,2,0,P|366:218|365:113,1,179.999994506836,0|0,1:0|0:0,0:0:0:0:
317,109,98522,2,0,L|245:95,1,59.9999981689454,4|0,0:3|0:0,0:0:0:0:
462,201,98699,2,0,L|464:66,1,119.999996337891,12|0,1:3|0:0,0:0:0:0:
207,229,99051,6,0,P|113:178|132:98,1,179.999994506836,12|0,1:3|0:0,0:0:0:0:
174,103,99404,2,0,L|246:77,1,59.9999981689454,4|0,0:3|0:0,0:0:0:0:
175,267,99581,2,0,P|81:216|100:136,1,179.999994506836,0|0,1:0|0:0,0:0:0:0:
142,141,99934,2,0,L|214:115,1,59.9999981689454,4|0,0:3|0:0,0:0:0:0:
380,278,100110,2,0,L|384:130,1,119.999996337891,12|0,1:3|0:0,0:0:0:0:
99,239,100463,6,0,P|96:151|177:96,1,179.999994506836,12|0,1:3|0:0,0:0:0:0:
231,101,100816,2,0,L|383:63,1,119.999996337891,4|4,0:3|0:3,0:0:0:0:
232,222,101169,2,0,L|109:249,1,119.999996337891,8|0,1:2|0:0,0:0:0:0:
450,217,101522,2,0,L|305:254,1,119.999996337891,12|0,1:3|0:0,0:0:0:0:
87,252,101875,6,0,L|77:104,1,119.999996337891,12|0,1:3|0:0,0:0:0:0:
333,246,102228,2,0,L|343:98,1,119.999996337891,12|0,1:3|0:0,0:0:0:0:
189,222,102581,1,8,0:3:0:0:
163,191,102639,1,8,0:3:0:0:
156,152,102698,1,8,0:3:0:0:
170,115,102758,2,4,L|246:94,1,59.9999981689454,4|4,0:3|0:3,0:0:0:0:
267,80,102934,2,4,L|129:68,1,119.999996337891,4|4,0:3|0:3,0:0:0:0:
436,352,103287,5,4,1:2:0:0:
490,233,103463,1,2,0:0:0:0:
437,120,103639,1,2,0:0:0:0:
350,66,103816,1,2,0:0:0:0:
233,70,103992,1,2,1:3:0:0:
358,115,104169,2,0,L|503:100,2,119.999996337891,0|4|0,0:0|0:3|0:0,0:0:0:0:
121,100,104699,6,0,L|-31:84,2,119.999996337891,2|4|4,0:0|0:3|0:3,0:0:0:0:
409,340,105405,2,0,L|411:69,1,239.999992675781,0|4,1:0|0:3,0:0:0:0:
127,11,106111,5,4,0:3:0:0:
241,40,106287,1,2,0:0:0:0:
312,134,106463,1,2,0:0:0:0:
308,252,106640,1,2,0:0:0:0:
232,341,106816,1,2,1:3:0:0:
116,364,106993,2,0,L|-43:340,2,119.999996337891,0|4|0,0:0|0:3|0:0,0:0:0:0:
354,361,107522,6,0,L|512:336,2,119.999996337891,2|4|4,0:0|0:3|0:3,0:0:0:0:
212,365,108052,1,4,0:3:0:0:
465,217,108228,2,0,L|296:191,2,119.999996337891,8|0|0,1:2|0:0|0:0,0:0:0:0:
179,370,108934,5,4,0:3:0:0:
140,257,109110,1,2,0:0:0:0:
159,140,109286,1,2,0:0:0:0:
232,46,109463,1,2,0:0:0:0:
341,0,109639,1,2,1:3:0:0:
459,9,109816,2,0,L|322:4,2,119.999996337891,0|4|0,0:0|0:3|0:0,0:0:0:0:
169,282,110346,6,0,L|33:276,2,119.999996337891,0|4|4,0:0|0:3|0:3,0:0:0:0:
403,261,111052,2,0,L|134:234,1,239.999992675781,2|4,1:3|0:3,0:0:0:0:
423,376,111758,5,4,0:3:0:0:
462,263,111934,1,2,0:0:0:0:
443,146,112110,1,2,0:0:0:0:
370,52,112287,1,2,0:0:0:0:
261,6,112463,1,2,1:3:0:0:
133,21,112640,2,0,L|14:25,2,119.999996337891,0|4|0,0:0|0:3|0:0,0:0:0:0:
379,21,113169,6,0,L|499:25,2,119.999996337891,0|4|4,0:0|0:3|0:3,0:0:0:0:
240,126,113699,2,4,L|172:105,1,59.9999981689454,4|4,0:3|0:3,0:0:0:0:
380,287,113876,2,0,L|384:134,1,119.999996337891,8|0,1:2|3:0,0:0:0:0:
245,177,114228,1,0,3:0:0:0:
186,170,114316,1,0,3:0:0:0:
126,164,114404,1,2,0:1:0:0:
459,162,114581,1,4,1:0:0:0:
256,192,114757,12,0,121639,0:0:0:0:
