osu file format v5

[General]
AudioFilename: Don't Fear The Reaper.mp3
AudioLeadIn: 0
PreviewTime: -1
Countdown: 1
SampleSet: Normal
StackLeniency: 0.7
Mode: 0
LetterboxInBreaks: 1
EditorBookmarks: 7320,8102,8884,9666,10448,11230,12012,12794,14358,15140,15922,16704,17486,20615,21397,22179,22961,23743,24525,25307,26089,26871,32346,33128,33910,34692,35474,36256,37038,37820,39384,40166,40948,41730,42513,43295,44077,44859,45641,46423,47205,47987,50333,51897,52679,53461,54244,55026,55808,56590,57372,58154,58936,59718,61282,62064,62846,63628,64410,65192,65975,66757,70667,74577,75359,76141,76923,77706,78488,79270,80052,80834,81616,82398,83962,84744,85526,86308,87090,87872,89437,90219,91001,91783,92565,93347,94129,94911,95693,96475,102732,103514,104296,106642,107424,109770,110552,112899,113681,116027,116809,117591,118373,119155,120719,121501,130104,130886,131668,132450,133232,136361,137143,137925,138707,139489,143399,144181,144963,145745,146527,157476,158258,159041,159823,160605,161387,162169,162951,163733,164515,169989,173118,174682,179374,181720,185631,186413,187195,187977,197362,198144,198926,199708,200490,203618,205183,206747,208311,209093,209875,210657,211439,212221,213003,213785,215349,216914,217696,218478,219260,220042,220824,221606,222388,223170,223952,225516,226298,227080,227862,228645,229427,230209,235683,236465,241158,241940,242722,245850,246632,247414,253671,254453,255235,256017,256799,257581,259927,260709,261491,263838,264620,265402,266184,268530,269312,270094,270876,271658,272440,273222,274004,274786,275569,276351,277133,277915,278697,279479,280261,281043,281825,282607,283389,284171,284953,285735

[Metadata]
Title:Dont Fear the Reaper
Artist:Blue Oyster Cult
Creator:zazaleto
Version:Normal
Source:
Tags:Dont Fear the Reaper

[Difficulty]
HPDrainRate:3
CircleSize:6
OverallDifficulty:5
SliderMultiplier:1.4
SliderTickRate:1

[Events]
//Background and Video events
0,0,"blue flame.jpg"
//Break Periods
//Storyboard Layer 0 (Background)
//Storyboard Layer 1 (Failing)
//Storyboard Layer 2 (Passing)
//Storyboard Layer 3 (Foreground)
//Storyboard Sound Samples
//Background Colour Transformations
3,100,163,162,255

[TimingPoints]
7320,782.067234102191,4,1,0,100,1

[HitObjects]
256,192,7320,1,0
320,128,8102,1,0
224,96,8884,1,0
160,160,9666,1,0
224,192,10448,1,0
224,96,11230,1,0
320,96,12012,1,0
320,192,12794,1,0
128,160,14358,5,0
224,128,15140,1,0
320,256,15922,1,0
224,224,16704,1,0
96,224,17486,1,0
352,96,20615,5,0
160,96,21397,1,0
128,128,22179,1,0
224,192,22961,1,0
256,128,23743,1,0
224,32,24525,1,0
352,96,25307,1,0
288,128,26089,1,0
32,32,26871,2,0,B|32:256|128:320|352:384|448:256|480:32|416:0|160:64|160:224|224:384|448:320|480:128|224:0|224:64|64:192,1,980
288,192,33128,1,0
352,96,33910,1,0
192,96,34692,1,0
224,192,35474,1,0
288,128,36256,1,0
384,64,37038,1,0
384,192,37820,1,0
256,192,39384,5,0
224,96,40166,1,0
128,160,40948,1,0
224,224,41730,1,0
384,128,42513,1,0
288,96,43295,1,0
160,96,44077,1,0
224,192,44859,1,0
320,160,45641,1,0
256,96,46423,1,0
128,96,47205,1,0
192,160,47987,1,0
256,128,50333,5,0
256,160,51897,5,0
128,160,52679,1,0
224,64,53461,1,0
320,64,54244,1,0
384,128,55026,1,0
256,160,55808,1,0
160,160,56590,1,0
224,96,57372,1,0
320,96,58154,1,0
352,96,58936,1,0
416,192,59718,1,0
256,192,61282,1,0
352,160,62064,1,0
256,64,62846,1,0
128,128,63628,1,0
224,192,64410,1,0
288,96,65192,1,0
384,160,65975,1,0
256,192,66757,12,0,70667
64,64,75359,1,0
256,96,76141,1,0
448,32,76923,1,0
512,288,77706,1,0
256,384,78488,1,0
64,288,79270,1,0
32,128,80052,1,0
256,224,80834,1,0
352,128,81616,1,0
128,64,82398,1,0
352,96,83962,5,0
192,160,84744,1,0
96,64,85526,1,0
64,288,86308,1,0
256,384,87090,1,0
448,320,87872,1,0
384,160,89437,5,0
192,192,90219,1,0
256,64,91001,1,0
288,256,91783,1,0
416,128,92565,1,0
96,192,93347,1,0
128,96,94129,1,0
288,192,94911,1,0
448,288,95693,1,0
288,320,96475,2,0,B|32:288|32:96|384:32|480:256|224:256|0:96|64:0|352:32|320:96,1,560
256,192,102732,5,0
256,64,103514,1,0
352,192,104296,1,0
256,192,106642,5,0
256,64,107424,1,0
448,128,109770,5,0
96,160,110552,1,0
256,96,112899,5,0
256,224,113681,1,0
448,96,116027,5,0
288,96,116809,1,0
128,96,117591,1,0
64,96,118373,1,0
64,192,119155,1,0
352,160,120719,5,0
160,320,121501,6,0,B|64:96|320:32|480:64|480:320|224:352|32:128|64:64,1,700
256,192,130104,5,0
384,128,130886,1,0
160,96,131668,1,0
160,224,132450,1,0
288,192,133232,1,0
416,96,136361,5,0
320,192,137143,1,0
160,192,137925,1,0
224,64,138707,1,0
384,96,139489,1,0
256,128,143399,5,0
384,224,144181,1,0
96,256,144963,1,0
64,128,145745,1,0
256,192,146527,12,0,150438
256,192,157476,5,0
128,128,158258,1,0
352,96,159041,1,0
256,224,159823,1,0
224,64,160605,1,0
384,128,161387,1,0
224,192,162169,1,0
128,128,162951,1,0
384,96,163733,1,0
256,192,164515,6,0,B|64:288|96:64|288:64|192:352|32:32|448:32|384:352|96:320|32:160,1,560
256,192,169989,5,0
256,192,173118,1,0
320,160,174682,1,0
256,192,179374,1,0
352,128,181720,1,0
128,96,185631,1,0
224,96,186413,1,0
288,96,187195,1,0
352,96,187977,1,0
160,96,197362,1,0
256,96,198144,1,0
320,96,198926,1,0
384,96,199708,1,0
480,96,200490,1,0
256,192,203618,5,0
256,64,205183,1,0
256,192,206747,1,0
384,160,208311,1,0
96,128,209093,1,0
256,64,209875,1,0
416,64,210657,1,0
288,224,211439,1,0
128,128,212221,1,0
256,96,213003,1,0
384,96,213785,1,0
256,192,215349,5,0
32,32,216914,1,0
288,64,217696,1,0
480,64,218478,1,0
384,192,219260,1,0
96,160,220042,1,0
192,96,220824,1,0
288,192,221606,1,0
96,288,222388,1,0
320,320,223170,1,0
320,224,223952,1,0
64,96,225516,5,0
416,64,226298,1,0
224,160,227080,1,0
352,160,227862,1,0
192,320,228645,1,0
352,320,229427,1,0
192,160,230209,1,0
32,192,235683,5,0
480,192,236465,1,0
160,128,241158,5,0
320,128,241940,1,0
448,128,242722,1,0
32,160,245850,5,0
224,160,246632,1,0
416,160,247414,1,0
256,192,253671,5,0
256,128,254453,1,0
256,64,255235,1,0
256,0,256017,1,0
256,224,256799,1,0
256,288,257581,1,0
96,160,259927,5,0
160,160,260709,1,0
224,160,261491,1,0
480,192,263838,5,0
416,192,264620,1,0
352,192,265402,1,0
288,192,266184,1,0
256,192,268530,5,0
256,128,269312,1,0
256,256,270094,1,0
192,192,270876,1,0
320,192,271658,1,0
256,192,272440,1,0
256,128,273222,1,0
256,64,274004,1,0
256,0,274786,1,0
256,192,275569,1,0
256,256,276351,1,0
256,320,277133,1,0
256,352,277915,1,0
224,192,278697,1,0
192,192,279479,1,0
160,192,280261,1,0
288,192,281043,1,0
320,192,281825,1,0
352,192,282607,1,0
384,192,283389,1,0
256,192,284171,1,0
256,288,284953,1,0
256,96,285735,1,0
