osu file format v9

[General]
AudioFilename: Ring My Bell.mp3
AudioLeadIn: 2000
PreviewTime: 55341
Countdown: 0
SampleSet: Normal
StackLeniency: 0.7
Mode: 0
LetterboxInBreaks: 0

[Editor]
DistanceSpacing: 1
BeatDivisor: 4
GridSize: 8

[Metadata]
Title:Ring my Bell (TV Size)
Artist:Blue Drops
Creator:Darksonic
Version:Insane
Source:Sora no Otoshimono
Tags:opening -sekai- ignacio daxmasterix verdisphena

[Difficulty]
HPDrainRate:7
CircleSize:4
OverallDifficulty:7
ApproachRate:8
SliderMultiplier:1.6
SliderTickRate:1

[Events]
//Background and Video events
0,0,"BG.jpg"
Video,-200,"SnO OP.avi"
//Break Periods
//Storyboard Layer 0 (Background)
//Storyboard Layer 1 (Fail)
//Storyboard Layer 2 (Pass)
//Storyboard Layer 3 (Foreground)
//Storyboard Sound Samples
//Background Colour Transformations
3,100,163,162,255

[TimingPoints]
190,771.803447388732,4,2,0,60,1,0
9340,359.389038634322,4,2,0,60,1,0
19574,-100,4,1,0,50,0,0
21012,-100,4,2,0,60,0,0
25323,-100,4,1,0,50,0,0
26760,-100,4,2,0,60,0,0
38091,-100,4,1,0,50,0,0
40966,-100,4,2,0,60,0,0
43841,-100,4,1,0,50,0,0
46716,-100,4,2,0,60,0,0
54623,-100,4,1,0,50,0,0
55341,-100,4,1,0,50,0,1
61092,-100,4,1,0,50,0,0
66842,-100,4,1,0,50,0,1
78342,-100,4,2,0,60,0,0

[Colours]
Combo1 : 39,21,200
Combo2 : 249,168,134
Combo3 : 3,241,241
Combo4 : 200,205,5

[HitObjects]
40,156,189,1,2
84,156,575,1,0
128,156,961,1,2
172,156,1347,1,0
216,156,1733,2,0,B|344:156,1,120
472,156,3277,5,2
428,156,3663,1,0
384,156,4049,1,2
340,156,4434,1,0
296,156,4820,2,0,B|168:156,1,120
256,280,5785,5,2
256,236,5978,1,2
256,192,6171,1,0
256,148,6364,2,0,B|256:72,1,60
156,156,6943,1,2
356,156,7329,1,0
356,156,7522,1,2
256,192,7715,12,4,9340
332,84,9699,5,8
172,84,10058,1,2
172,164,10238,1,0
228,220,10418,1,8
308,236,10597,2,0,B|392:192|440:108,1,160
284,76,11136,5,8
204,76,11316,1,0
364,76,11676,2,0,B|368:116|328:144,1,80,0|8
248,144,12035,1,0
168,144,12215,1,4
180,300,12574,37,8
184,140,12933,1,2
252,180,13113,1,0
320,140,13293,1,8
252,96,13472,1,0
252,180,13652,5,6
332,180,13832,1,2
360,160,13922,1,2
392,144,14012,1,2
424,128,14101,1,2
456,108,14191,2,0,B|408:40|312:48,1,160,6|0
316,48,14730,1,8
384,192,15090,5,4
320,244,15269,1,0
252,288,15449,1,8
184,248,15629,1,0
128,192,15809,1,2
124,112,15988,1,0
204,112,16168,1,8
284,112,16348,2,0,B|329:191|300:236|271:257|281:155|390:184|414:226,1,240,0|8
204,260,17246,5,2
204,180,17426,1,0
204,100,17605,1,8
272,144,17785,1,0
272,224,17965,2,0,B|168:232|136:148,2,160,4|8|2
352,220,18863,1,0
352,140,19043,1,8
352,60,19223,1,0
128,188,19582,5,0
128,188,19762,1,4
384,188,20121,1,0
384,188,20301,1,4
256,284,20660,1,0
256,244,20750,1,0
256,204,20840,1,4
256,284,21020,5,0
400,288,21199,1,8
400,144,21379,1,0
256,144,21559,1,2
328,288,21738,1,0
452,216,21918,1,8
328,144,22098,2,0,B|228:96|184:168|184:168|108:144,1,240,0|8
88,60,22996,5,2
184,60,23176,1,0
184,156,23356,1,8
88,156,23535,1,0
140,236,23715,2,0,B|232:256|232:256|288:224,1,160,4|8
332,156,24254,2,0,B|336:76|456:64|456:64,1,160,2|0
448,144,24793,1,8
448,224,24973,1,0
256,64,25332,5,0
256,64,25512,1,4
256,320,25871,1,0
256,320,26051,1,4
256,188,26410,1,0
256,188,26500,1,0
256,188,26590,1,4
352,188,26770,5,0
312,120,26950,1,8
256,64,27129,1,0
196,116,27309,1,2
160,188,27489,1,0
160,268,27668,1,8
232,236,27848,2,0,B|328:224|312:120,1,160
352,56,28387,1,8
400,120,28567,1,0
412,200,28747,6,0,B|380:232|336:228,1,80
260,228,29106,2,0,B|214:228|186:194,1,80
188,116,29465,2,0,B|188:24,1,80,6|0
188,36,29825,1,8
188,36,30004,1,2
428,36,30364,2,0,B|428:120,2,80
192,184,31083,5,2
260,104,31262,1,2
320,188,31442,1,0
180,184,31622,1,2
260,92,31801,1,2
332,188,31981,1,2
256,280,32161,1,2
120,280,32340,6,0,B|120:200,1,80,4|0
120,40,32700,2,8,B|120:124,1,80,8|0
188,164,33059,2,0,B|348:164,1,160,2|8
428,168,33598,6,0,B|428:248|360:240,1,80,4|0
316,252,33958,1,0
272,188,34137,1,8
228,124,34317,1,0
256,284,34676,5,2
136,280,34856,1,10
256,284,35036,1,0
376,280,35216,1,6
136,72,35575,5,8
200,120,35755,1,0
260,172,35934,1,2
320,120,36114,1,0
384,72,36294,1,8
256,56,36473,1,0
256,248,36833,5,2
260,104,37012,1,10
256,248,37192,1,2
216,248,37282,1,0
176,248,37372,1,10
176,168,37552,1,8
176,88,37731,1,2
256,88,37911,1,8
476,188,38091,5,2
476,188,38450,1,10
256,188,39169,1,8
256,188,39348,1,0
256,188,39528,1,2
32,188,39888,1,2
344,276,40247,6,0,B|376:244|372:200,1,80
228,276,40606,2,0,B|196:244|200:200,1,80
292,128,40966,6,8,B|204:76|116:128|116:128,1,160,4|8
140,200,41505,1,0
204,252,41685,1,2
284,252,41864,1,0
344,200,42044,1,8
140,200,42224,1,4
256,56,42583,5,2
160,128,42763,1,8
256,200,42942,2,0,B|256:244,2,40,0|0|8
352,128,43302,1,8
256,56,43481,1,2
256,136,43661,1,0
36,192,43841,5,2
36,192,44200,1,2
256,192,44919,1,0
256,192,45099,1,0
256,192,45278,1,2
480,192,45638,1,2
152,60,45997,5,0
132,96,46087,1,0
120,136,46177,1,0
112,176,46267,1,0
120,216,46357,1,0
132,256,46446,1,0
152,292,46536,1,0
364,108,46716,6,0,B|332:76|288:80,1,80,4|0
212,80,47075,2,0,B|166:80|138:113,1,80,8|0
144,192,47435,2,0,B|224:236,1,80,2|0
296,216,47794,1,8
376,216,47974,2,0,B|376:300,1,80
296,296,48333,2,0,B|296:212,1,80,0|8
216,212,48693,2,0,B|216:300,1,80
136,292,49052,2,0,B|136:212,1,80,0|8
136,292,49411,1,0
256,320,49591,5,4
256,320,49771,1,2
256,68,50130,1,4
256,68,50310,1,2
64,192,50669,5,4
64,192,50849,1,2
444,192,51208,1,4
444,192,51388,1,2
256,352,51747,1,4
256,192,52107,1,4
256,192,52466,6,0,B|256:124|192:120,1,80,4|0
140,128,52826,2,0,B|81:162|109:219,1,80,2|0
108,272,53185,1,2
172,320,53365,1,0
252,320,53544,1,8
316,272,53724,1,4
316,112,54083,1,2
236,112,54263,1,8
156,112,54443,1,2
188,184,54623,5,0
220,212,54712,1,0
256,224,54802,1,0
296,232,54892,1,0
336,224,54982,1,0
376,212,55072,1,0
404,184,55162,1,0
412,144,55251,1,0
412,104,55341,6,0,B|392:68|332:68,1,80,4|0
264,72,55701,2,8,B|176:72,1,80,8|0
104,72,56060,2,0,B|64:72|32:123,1,80,4|0
36,192,56419,1,8
108,152,56599,1,0
180,120,56779,5,6
252,152,56959,1,0
324,188,57138,1,8
396,152,57318,2,0,B|384:88|336:88,1,80,6|0
188,88,57677,1,8
188,300,57857,1,8
348,304,58216,6,0,B|348:224,1,80,4|0
348,144,58576,2,0,B|348:64,1,80,8|0
268,68,58935,2,0,B|272:120|216:132,1,80,2|0
152,104,59295,1,8
152,104,59474,1,0
192,172,59654,5,6
256,272,59834,1,0
324,172,60013,1,8
256,72,60193,1,6
256,192,60552,5,8
256,192,60732,1,8
380,300,61092,6,0,B|336:300|336:244,1,80,4|0
292,180,61451,2,8,B|208:180,1,80,8|0
188,276,61810,1,2
80,232,61990,1,0
80,112,62170,1,8
188,60,62349,2,0,B|280:60,1,80,2|0
324,120,62709,1,2
380,180,62888,2,0,B|380:268|276:284,2,160,10|0|10
384,100,63787,1,0
304,100,63967,1,6
260,168,64146,6,8,B|176:168,1,80,0|8
180,88,64506,2,8,B|264:88,1,80,0|8
344,56,64865,1,0
432,192,65045,1,0
344,328,65224,5,4
256,44,65584,1,0
184,168,65764,1,12
328,168,65943,1,0
256,44,66123,5,0
260,84,66213,1,0
260,124,66303,1,0
256,164,66393,1,0
260,204,66482,1,0
264,244,66572,1,0
284,280,66662,1,0
324,288,66752,1,0
360,268,66842,6,0,B|396:248|396:188,1,80,4|0
396,120,67201,1,8
336,68,67381,1,0
260,68,67561,2,0,B|176:68,1,80,2|0
176,148,67920,1,8
176,228,68100,1,0
140,300,68279,2,0,B|48:300|20:172,2,160,6|12|6
220,300,69178,1,0
380,300,69357,1,8
196,168,69717,6,0,B|196:76|88:60,2,160,4|8|2
276,168,70615,1,0
300,92,70795,1,10
376,68,70975,1,0
452,88,71154,2,0,B|452:180|344:196,2,160,4|8|2
256,88,72053,5,0
256,88,72233,1,8
212,156,72412,1,0
176,240,72592,1,6
240,288,72772,1,0
260,212,72951,1,8
208,152,73131,1,0
176,84,73311,1,0
372,88,73490,5,0
336,160,73670,1,10
336,240,73850,1,0
280,296,74030,1,4
212,256,74209,1,0
272,204,74389,1,8
260,124,74569,2,8,B|180:124,1,80,0|0
60,68,74928,5,0
108,132,75108,1,2
60,196,75287,1,0
108,260,75467,1,0
184,288,75647,2,8,B|256:228|216:124,2,160,8|2|8
260,308,76545,5,4
332,272,76725,1,0
340,192,76905,1,0
280,140,77084,1,0
240,128,77174,1,0
204,140,77264,2,8,B|168:160|128:144,1,80,8|0
36,200,77623,5,2
476,200,77983,1,2
340,88,78342,6,0,B|256:104|256:104|196:156,1,160,4|8
148,216,78881,1,0
196,280,79061,1,0
276,280,79241,1,2
276,280,79600,2,0,B|276:180|368:164,2,160,6|0|0
96,40,80678,5,0
256,40,80858,1,0
416,40,81038,1,0
256,40,81217,5,4
256,40,81397,1,4
256,352,81756,1,4
256,352,81936,1,4
32,192,82295,5,4
32,192,82475,1,4
476,192,82835,1,4
476,192,83014,1,4
32,192,83374,1,6
476,192,83733,1,6
192,64,84092,6,0,B|160:100|164:140,1,80,6|0
164,216,84452,2,0,B|179:261|215:278,1,80,0|0
292,276,84811,1,2
372,208,84991,1,0
372,104,85171,1,8
292,36,85350,1,6
188,140,85530,5,0
308,140,85710,1,0
308,260,85889,1,8
188,260,86069,1,0
184,116,86249,5,2
340,144,86428,1,0
320,304,86608,1,8
160,276,86788,1,0
256,192,86968,5,4
256,192,87507,1,6
