osu file format v6

[General]
AudioFilename: Ring My Bell.mp3
AudioLeadIn: 1015
PreviewTime: -1
Countdown: 0
SampleSet: None
StackLeniency: 0.7
Mode: 0
LetterboxInBreaks: 1

[Editor]
Bookmarks: 14638,22465,38387,55310,71175,86945,96396,127837,141671,171944,185328,210930
DistanceSpacing: 0.800000011920929
BeatDivisor: 4
GridSize: 8

[Metadata]
Title:Ring My Bell(Full ver.)
Artist:Blue Drops
Creator:sfgpeng
Version:Normal
Source:Sora no Otoshimono(OP)
Tags:sora no otoshimono opening full version

[Difficulty]
HPDrainRate:5
CircleSize:4
OverallDifficulty:5
SliderMultiplier:1.4
SliderTickRate:2

[Events]
//Background and Video events
0,0,"Background.png"
//Break Periods
2,8772,15105
2,86304,95594
2,137058,141408
2,173260,184706
2,208922,210398
//Storyboard Layer 0 (Background)
//Storyboard Layer 1 (Fail)
//Storyboard Layer 2 (Pass)
//Storyboard Layer 3 (Foreground)
Sprite,Foreground,Centre,"With.png",320,240 M,0,52738,53456,217,159,217,143 F,0,52738,53456,0,1 M,0,53456,54714,217,143 F,0,53456,54714,1 M,0,54714,55882,217,143,219,155 F,0,54714,55882,1,0
Sprite,Foreground,Centre,"Your.png",320,240 M,0,53456,54175,282,217,283,189 F,0,53456,54175,0,1 M,0,54175,55433,283,189 F,0,54175,55433,1 M,0,55433,56331,283,189,283,216 F,0,55433,56331,1,0
Sprite,Foreground,Centre,"Wings.png",320,240 M,0,53995,54714,363,264,361,238 F,0,53995,54714,0,1 M,0,54714,55882,361,238 F,0,54714,55882,1 M,0,55882,56690,361,238,361,259 F,0,55882,56690,1,0
Sprite,Foreground,Centre,"Frontpicture.png",320,240 F,0,85671,90912,0,1 M,0,85671,90916,-158,255,322,256 F,0,90912,91814,1 M,0,90916,91814,322,256 M,0,91814,96126,322,256,795,256 F,0,91814,96126,1,0.02400009
Sprite,Foreground,Centre,"With.png",320,240 M,0,138257,139694,440,124,440,108 F,0,138257,139694,0,1 M,0,139694,141132,440,108 F,0,139694,141132,1 M,0,141132,142120,440,108,440,121 F,0,141132,142120,1,0
Sprite,Foreground,Centre,"Your.png",320,240 M,0,138976,140413,386,175,387,157 F,0,138976,140413,0,1 M,0,140413,141850,387,157,386,160 F,0,140413,141850,1 M,0,141850,142838,386,160,386,175 F,0,141850,142838,1,0
Sprite,Foreground,Centre,"Smile.png",320,240 M,0,139515,140952,337,229,336,207 F,0,139515,140952,0,1 M,0,140952,142389,336,207,337,215 F,0,140952,142389,1 M,0,142389,143377,337,215,337,231 F,0,142389,143377,1,0
Sprite,Foreground,Centre,"Someone Says.png",320,240 F,0,187664,187934,0,1 F,0,187934,188473,1 M,0,187664,188742,204,161,251,161 F,0,188473,188742,1,0
Sprite,Foreground,Centre,"I Love You.png",320,240 F,0,190539,190808,0,1 F,0,190808,191167,1 M,0,190539,191437,410,190,363,190 F,0,191167,191437,1,0
Sprite,Foreground,Centre,"It Must Be.png",320,240 F,0,193952,194581,0,1 M,0,193952,195300,231,216,277,216 F,0,194581,195300,1 M,0,195300,196827,277,216 F,0,195300,196827,1 M,0,196827,197366,277,216,326,216 F,0,196827,197366,1,0
Sprite,Foreground,Centre,"A Beautiful.png",320,240 M,0,195569,196108,416,245,368,245 F,0,195569,196108,0,1 M,0,196108,196827,368,245 F,0,196108,196827,1 M,0,196827,197366,368,245,320,245 F,0,196827,197366,1,0
Sprite,Foreground,Centre,"World.png",320,240 M,0,196108,196468,261,285,310,285 F,0,196108,196468,0,1 M,0,196468,196827,310,285 F,0,196468,196827,1 M,0,196827,197366,310,285,357,285 F,0,196827,197366,1,0
Sprite,Foreground,Centre,"No One Stops.png",320,240 F,0,199162,199432,0,1 F,0,199432,199971,1 M,0,199162,200240,435,116,385,115 F,0,199971,200240,1,0
Sprite,Foreground,Centre,"I Love You.png",320,240 F,0,202037,202307,0,1 F,0,202307,202666,1 M,0,202037,202935,228,150,277,150 F,0,202666,202935,1,0
Sprite,Foreground,Centre,"It Must Be.png",320,240 M,0,206169,206529,408,197,361,197 F,0,206169,206529,0,1 M,0,206529,208685,361,197 F,0,206529,208685,1 M,0,208685,208954,361,197,359,197 F,0,208685,208954,1 M,0,208954,209673,359,197,312,197 F,0,208954,209673,1,0
Sprite,Foreground,Centre,"A Wonderful.png",320,240 M,0,207337,207607,204,246,251,246 F,0,207337,207607,0,1 M,0,207607,208685,251,246 F,0,207607,208685,1 M,0,208685,208954,251,246,254,246 F,0,208685,208954,1 M,0,208954,209673,254,246,299,246 F,0,208954,209673,1,0.02
Sprite,Foreground,Centre,"Gift.png",320,240 M,0,207966,208325,388,285,338,284 F,0,207966,208325,0.03199997,1 M,0,208325,208685,338,284 F,0,208325,208685,1 M,0,208685,208954,338,284,337,284 F,0,208685,208954,1 M,0,208954,209403,337,284,291,284 F,0,208954,209403,1,0 F,0,209403,,0,0.1403118
Sprite,Foreground,Centre,"Ring.png",320,240 M,0,211110,211649,234,243,235,261 F,0,211110,211649,0,1 M,0,211649,212817,235,261 F,0,211649,212817,1 M,0,212817,213266,235,261,235,277 F,0,212817,213266,1,0
Sprite,Foreground,Centre,"My.png",320,240 M,0,211649,212278,319,285,320,263 F,0,211649,212278,0,1 M,0,212278,213266,320,263 F,0,212278,213266,1 M,0,213266,213805,320,263,320,242 F,0,213266,213805,1,0
Sprite,Foreground,Centre,"Bell.png",320,240 M,0,212278,212817,387,244,387,263 F,0,212278,212817,0,1 M,0,212817,213715,387,263 F,0,212817,213715,1 M,0,213715,214434,387,263,387,285 F,0,213715,214434,1,0
Sprite,Foreground,Centre,"Frontpicture2.png",320,240 M,0,173740,178052,799,271,317,271 F,0,173740,178052,0,1 M,0,178052,181645,317,271 F,0,178052,181645,1 M,0,181645,185239,317,271,-157,271 F,0,181645,185239,1,0
//Storyboard Sound Samples
//Background Colour Transformations
3,100,163,162,255

[TimingPoints]
1218,774.193548387097,4,0,0,100,1,0
10736,718.648939992814,4,0,0,100,1,0

[Colours]
Combo1 : 10,210,245
Combo2 : 255,0,0
Combo3 : 228,40,238
Combo4 : 0,0,255

[HitObjects]
120,104,1218,2,0,B|192:104,1,70
190,104,1992,2,0,B|264:104,1,70
260,104,2766,2,0,B|368:104,1,105
368,272,4314,2,0,B|296:272,1,70
296,272,5088,2,0,B|224:272,1,70
228,272,5863,2,0,B|120:272,1,105
104,192,6830,1,0
128,192,7024,1,0
152,192,7218,1,0
176,192,7411,2,0,B|240:192,1,52.5
288,192,8088,1,0
344,192,8379,1,0
344,192,8572,1,0
96,96,16305,6,0,B|176:96,1,70
192,96,16844,1,0
216,96,17024,2,0,B|288:96,1,70
424,96,18281,1,0
424,152,18641,1,0
368,152,19000,1,0
288,152,19539,1,0
120,152,20617,2,0,B|72:232|120:304,1,157.5
216,296,22054,2,0,B|296:296,1,70
312,296,22593,1,0
336,296,22773,2,0,B|336:224,1,70
336,88,24031,1,0
280,88,24390,1,0
280,144,24749,1,0
200,144,25288,1,0
72,256,26366,2,0,B|144:304|224:264,1,157.5
320,256,27803,6,0,B|320:168,1,70
320,160,28342,1,0
320,136,28522,2,0,B|248:136,1,70
112,128,29780,1,0
112,184,30139,1,0
112,240,30498,1,0
168,240,30858,1,0
168,240,31037,1,0
224,240,31397,1,0
224,184,31756,1,0
424,184,33014,5,0
424,184,33193,1,0
424,184,33373,2,0,B|424:112|424:112|352:112,1,140
272,112,34631,2,0,B|152:112,1,105
168,112,35349,1,0
168,184,35888,1,0
224,184,36248,1,0
280,184,36607,1,0
280,240,36966,2,0,B|240:240,1,35
192,240,37505,1,0
328,104,38763,6,0,B|280:104,1,35
293,104,39122,2,0,B|208:104,1,70
224,216,40200,2,0,B|264:216,1,35
259,216,40559,2,0,B|336:216,1,70
160,216,41997,1,0
168,104,42715,1,0
168,104,42895,2,0,B|240:104,1,70
184,288,44512,6,0,B|224:288,1,35
219,288,44871,2,0,B|304:288,1,70
288,176,45949,2,0,B|240:176,1,35
253,176,46309,2,0,B|176:176,1,70
72,184,47387,2,0,B|72:232,2,35
72,128,48105,1,0
128,128,48465,1,0
128,128,48644,2,0,B|208:128,1,70
360,88,50082,6,0,B|360:168,1,70
360,158,50621,2,0,B|360:304,1,140
360,298,51698,2,0,B|208:296,1,140
224,240,52776,1,0
224,184,53136,1,0
224,128,53495,1,0
336,128,54214,1,0
336,208,54753,1,0
112,320,56370,6,0,B|112:248,1,70
112,250,57088,2,0,B|112:168,1,70
112,180,57807,2,0,B|112:72,1,105
256,72,59244,2,0,B|256:144,1,70
256,142,59963,2,0,B|256:216,1,70
256,212,60682,2,0,B|256:320,1,105
424,304,62299,5,0
424,248,62658,2,0,B|424:200,2,35
368,248,63377,1,0
312,248,63736,2,0,B|264:248,1,35
224,248,64275,1,0
88,248,65173,1,0
88,192,65532,2,0,B|128:192,2,35
88,136,66251,1,0
144,136,66610,2,0,B|192:136,1,35
179,136,66970,2,0,B|224:136,1,35
304,68,67868,6,0,B|304:140,1,70
304,138,68587,2,0,B|304:212,1,70
304,208,69305,2,0,B|304:316,1,105
160,312,70743,2,0,B|160:240,1,70
160,242,71461,2,0,B|160:160,1,70
160,172,72180,2,0,B|160:56,1,105
216,64,73078,6,0,B|264:64,4,35
216,120,74156,2,0,B|216:200|216:200|248:200,1,105
424,192,75953,2,0,B|376:192,4,35
424,136,77031,2,0,B|336:136|336:136|336:104,1,105
168,104,78648,2,0,B|120:168,1,70
88,200,79366,1,0
208,240,80085,1,0
208,240,80265,2,0,B|280:240,1,70
432,240,81702,2,0,B|432:152,1,70
432,170,82241,2,0,B|432:88|432:88|368:88,1,140
373,88,83319,2,0,B|224:88,1,140
176,88,84397,1,0
136,128,84756,1,0
256,192,85116,12,0,86104
128,96,96794,6,0,B|200:96,1,70
224,96,97333,1,0
256,96,97512,2,0,B|336:96,1,70
464,104,98770,1,0
464,160,99129,1,0
408,160,99489,1,0
328,160,100028,1,0
160,160,101106,2,0,B|104:216|160:288,1,140
272,296,102543,6,0,B|344:296,1,70
368,296,103082,1,0
400,296,103262,2,0,B|400:216,1,70
408,88,104519,1,0
352,88,104879,1,0
296,88,105238,1,0
296,176,105777,1,0
184,296,106855,2,0,B|112:256|128:176,1,140
144,72,108292,6,0,B|144:152,1,70
144,168,108831,1,0
144,192,109011,2,0,B|144:264,1,70
288,256,110268,1,0
344,256,110628,1,0
344,200,110987,1,0
344,144,111346,1,0
344,144,111526,2,0,B|256:144,1,70
216,144,112245,1,0
80,280,113502,5,0
104,280,113682,1,0
136,280,113862,2,0,B|208:280,2,70
184,216,115119,1,0
184,160,115479,2,0,B|232:160,2,35
184,80,116377,1,0
240,80,116736,1,0
296,80,117096,1,0
352,80,117455,2,0,B|352:200,1,105
160,267,119251,6,0,B|160:219,1,35
160,232,119611,2,0,B|160:147,1,70
272,160,120689,2,0,B|272:208,1,35
272,195,121048,2,0,B|272:272,1,70
440,280,122485,1,0
440,224,122845,1,0
440,168,123204,1,0
440,168,123384,2,0,B|360:168,1,70
192,96,125001,6,0,B|192:136,1,35
192,131,125360,2,0,B|192:216,1,70
304,200,126438,2,0,B|304:160,1,35
304,165,126797,2,0,B|304:88,1,70
192,80,127875,2,0,B|144:80,2,35
192,136,128594,1,0
192,192,128953,1,0
192,192,129133,2,0,B|192:272,1,70
360,272,130570,6,0,B|360:184,1,70
360,202,131109,2,0,B|360:128|360:128|280:128,1,140
293,128,132187,2,0,B|208:128|208:128|208:192,1,140
80,296,133984,2,0,B|224:296,1,140
280,296,135062,2,0,B|432:296,1,140
416,240,136140,1,0
416,184,136499,1,0
360,184,136858,1,0
384,80,142608,6,0,B|296:80,1,70
314,80,143326,2,0,B|232:80,1,70
244,80,144045,2,0,B|128:80,1,105
136,216,145482,2,0,B|216:216,1,70
206,216,146201,2,0,B|280:216,1,70
276,216,146919,2,0,B|392:216,1,105
224,272,148536,6,0,B|176:272,3,35,0|0|0|0
189,272,149255,2,0,B|192:192,1,70
191,202,149974,2,0,B|232:200,3,35
368,192,151411,2,0,B|328:192,3,35
333,192,152130,2,0,B|336:104,1,70
335,122,152848,2,0,B|288:120,3,35
192,120,154106,6,0,B|192:192,1,70
192,190,154825,2,0,B|192:272,1,70
192,260,155543,2,0,B|192:320|192:304|192:328|192:328|240:328,1,105
368,328,156981,2,0,B|368:256,1,70
368,258,157699,2,0,B|368:184,1,70
368,188,158418,2,0,B|368:120|368:120|320:120,1,105
312,72,159316,6,0,B|264:72,4,35
368,72,160394,2,0,B|368:136|312:160,1,105
120,160,162191,2,0,B|120:208,4,35
120,160,163269,2,0,B|240:160,1,105
392,192,164886,2,0,B|344:128,1,70
312,96,165604,1,0
200,96,166323,1,0
200,96,166503,2,0,B|144:160,1,70
72,296,167940,2,0,B|144:296,1,70
142,296,168479,2,0,B|296:296,1,140
282,296,169557,2,0,B|280:152,1,140
336,152,170635,1,0
392,152,170994,1,0
256,192,171354,12,0,173060
400,96,185906,6,0,B|360:96,4,35
400,96,186984,2,0,B|400:144,2,35
400,96,187703,2,0,B|320:160,1,87.5
240,192,188781,2,0,B|240:240,3,35
240,227,189679,2,0,B|192:232,3,35
205,230,190577,2,0,B|144:160,1,87.5
144,96,191476,6,0,B|192:96,1,35
179,96,191835,2,0,B|256:96,1,70
336,96,192733,1,0
336,176,193272,2,0,B|248:176,3,70
72,160,195608,1,0
72,240,196147,1,0
128,240,196506,1,0
184,240,196866,1,0
128,304,197405,6,0,B|176:304,4,35
128,304,198483,2,0,B|128:256,2,35
128,304,199201,2,0,B|192:232,1,87.5
272,192,200279,2,0,B|320:192,3,35
307,192,201177,2,0,B|360:192,3,35
342,192,202076,2,0,B|408:192|408:136,1,87.5
336,128,202974,6,0,B|336:88,2,35
280,128,203693,1,0
200,128,204232,1,0
120,128,204771,2,0,B|120:208,2,70
64,128,205849,2,0,B|64:208,1,70
64,198,206567,2,0,B|64:280|168:288,1,140
208,280,207645,2,0,B|288:280,3,70
144,104,211598,6,0,B|248:24|360:112,1,227.5
208,312,214472,6,0,B|280:312,1,70
278,312,215191,2,0,B|360:312,1,70
348,312,215910,2,0,B|344:200,1,105
344,64,217347,2,0,B|272:64,1,70
274,64,218066,2,0,B|192:64,1,70
204,64,218784,2,0,B|208:176,1,105
80,280,220401,5,0
80,224,220761,2,0,B|80:176,2,35
136,224,221479,1,0
192,224,221839,2,0,B|240:224,1,35
227,224,222378,2,0,B|328:224,1,87.5
336,160,223186,1,0
336,104,223545,2,0,B|384:104,2,35
280,104,224264,1,0
224,104,224623,2,0,B|224:152,3,35
120,104,225971,6,0,B|120:192,1,70
120,174,226690,2,0,B|120:256,1,70
120,244,227408,2,0,B|240:248,1,105
368,256,228845,2,0,B|368:176,1,70
368,186,229564,2,0,B|368:112,1,70
368,116,230283,2,0,B|256:112,1,105
208,112,231181,6,0,B|208:160,4,35
208,112,232259,2,0,B|96:112,1,105
104,312,234056,2,0,B|56:312,4,35
104,312,235134,2,0,B|224:312,1,105
376,304,236751,2,0,B|456:304,2,70
376,192,238188,1,0
376,192,238368,2,0,B|288:192,1,70
136,192,239805,6,0,B|136:272,1,70
136,262,240344,2,0,B|288:264,1,140
275,263,241422,2,0,B|272:120,1,140
216,128,242500,1,0
160,128,242859,1,0
104,128,243218,1,0
