osu file format v14

[General]
AudioFilename: BlueAllrise.mp3
AudioLeadIn: 0
PreviewTime: 20417
Countdown: 0
SampleSet: Soft
StackLeniency: 0.3
Mode: 0
LetterboxInBreaks: 0
EpilepsyWarning: 1
WidescreenStoryboard: 0

[Editor]
Bookmarks: 2050,11845,21641,31437,41233,51029,60825,70621,80417
DistanceSpacing: 1.5
BeatDivisor: 4
GridSize: 4
TimelineZoom: 1

[Metadata]
Title:All Rise
TitleUnicode:All Rise
Artist:Blue
ArtistUnicode:Blue
Creator:Mako Sakata
Version:Normal
Source:
Tags:Boyband Boy Band Lee Ryan Antony Costa Duncan James Simon Webbe Innocent Virgin EMI Sony Music
BeatmapID:1103097
BeatmapSetID:470265

[Difficulty]
HPDrainRate:3
CircleSize:3
OverallDifficulty:3
ApproachRate:4
SliderMultiplier:1.2
SliderTickRate:1

[Events]
//Background and Video events
0,0,"It's meeeeeee.jpg",0,0
//Break Periods
//Storyboard Layer 0 (Background)
//Storyboard Layer 1 (Fail)
//Storyboard Layer 2 (Pass)
//Storyboard Layer 3 (Foreground)
//Storyboard Sound Samples

[TimingPoints]
2050,612.244897959184,4,2,1,40,1,0
10621,-100,4,2,1,40,0,0
10927,-100,4,2,1,45,0,0
11233,-100,4,2,1,50,0,0
11539,-100,4,2,1,55,0,0
11845,-100,4,2,1,60,0,0
60825,-100,4,2,1,70,0,1
70009,-100,4,2,1,70,0,0
70621,-100,4,2,1,70,0,1
80417,-100,4,2,1,60,0,0
84090,-100,4,2,1,55,0,0
84396,-100,4,2,1,50,0,0
84703,-100,4,2,1,45,0,0
85009,-100,4,2,1,40,0,0
85315,-100,4,2,1,60,0,0

[Colours]
Combo1 : 145,229,103
Combo2 : 255,213,128
Combo3 : 242,121,97
Combo4 : 255,140,179
Combo5 : 187,103,229
Combo6 : 140,236,255

[HitObjects]
256,192,6947,12,2,9396,0:0:0:0:
344,264,10621,6,0,L|284:253,1,60,0|0,1:0|1:0,0:0:0:0:
301,341,11233,2,0,L|360:351,1,60,0|0,1:0|1:0,0:0:0:0:
448,364,11845,6,0,L|460:244,1,120,4|8,1:3|0:0,0:0:0:0:
412,168,12764,1,0,0:0:0:0:
462,93,13070,2,0,P|405:77|351:101,1,120,0|8,1:0|0:0,0:0:0:0:
168,96,14294,6,0,L|176:216,1,120,0|8,1:0|0:0,0:0:0:0:
108,276,15213,1,0,0:0:0:0:
28,236,15519,2,0,L|20:116,1,120,0|8,1:0|0:0,0:0:0:0:
196,88,16743,6,0,B|252:104|252:80|314:87,1,120,0|8,1:0|0:0,0:0:0:0:
404,108,17662,1,0,0:0:0:0:
492,88,17968,2,0,L|484:208,1,120,0|8,1:0|0:0,0:0:0:0:
364,340,19192,6,0,L|244:348,1,120,0|8,1:0|0:0,0:0:0:0:
164,304,20111,1,0,0:0:0:0:
196,220,20417,2,0,P|206:161|178:110,1,120,0|8,1:0|0:0,0:0:0:0:
21,197,21641,6,0,P|10:255|38:306,1,120,4|8,1:3|0:0,0:0:0:0:
100,240,22560,1,0,0:0:0:0:
96,151,22866,2,0,L|84:92,1,60,0|0,1:0|0:0,0:0:0:0:
132,16,23478,1,8,0:0:0:0:
296,88,24090,6,0,L|415:73,1,120,0|8,1:0|0:0,0:0:0:0:
500,104,25009,1,0,0:0:0:0:
468,188,25315,2,0,L|348:173,1,120,0|8,1:0|0:0,0:0:0:0:
176,224,26539,6,0,P|165:282|193:333,1,120,0|8,1:0|0:0,0:0:0:0:
256,268,27458,1,0,0:0:0:0:
252,180,27764,2,0,L|240:121,2,60,0|0|8,1:0|0:0|0:0,0:0:0:0:
420,116,28988,6,0,P|391:64|402:6,1,120,0|8,1:0|0:0,0:0:0:0:
480,51,29907,1,2,0:0:0:0:
512,135,30213,2,0,L|504:199,1,60,2|2,1:2|0:3,0:0:0:0:
424,235,30825,2,0,L|432:299,1,60,8|2,0:0|0:3,0:0:0:0:
352,336,31437,6,0,L|337:216,1,120,4|8,1:3|0:0,0:0:0:0:
280,148,32356,1,0,0:0:0:0:
300,60,32662,2,0,P|270:56|241:65,1,60,0|0,1:0|0:0,0:0:0:0:
192,140,33274,1,8,0:0:0:0:
368,112,33886,6,0,P|426:123|478:94,1,120,0|8,1:0|0:0,0:0:0:0:
412,32,34805,1,0,0:0:0:0:
368,112,35111,2,0,L|383:231,1,120,0|8,1:0|0:0,0:0:0:0:
260,100,36335,6,0,L|275:219,1,120,0|8,1:0|0:0,0:0:0:0:
288,308,37254,1,0,0:0:0:0:
372,276,37560,2,0,P|401:272|430:281,2,60,0|0|8,1:0|0:0|0:0,0:0:0:0:
204,340,38784,6,0,P|146:353|94:326,1,120,0|8,1:0|0:0,0:0:0:0:
160,264,39703,1,2,0:0:0:0:
108,188,40009,2,0,L|115:128,1,60,2|2,1:2|0:3,0:0:0:0:
204,128,40621,2,0,L|211:187,1,60,8|2,0:0|0:3,0:0:0:0:
280,244,41233,6,0,L|399:259,1,120,4|8,1:3|0:0,0:0:0:0:
472,208,42152,1,0,0:0:0:0:
412,140,42458,2,0,P|405:81|429:27,1,120,0|8,1:0|0:0,0:0:0:0:
252,60,43682,6,0,L|133:75,1,120,0|8,1:0|0:0,0:0:0:0:
44,84,44601,1,0,0:0:0:0:
56,172,44907,2,0,L|71:291,1,120,0|8,1:0|0:0,0:0:0:0:
220,192,46131,6,0,P|273:165|330:178,1,120,0|8,1:0|0:0,0:0:0:0:
392,242,47050,1,0,0:0:0:0:
348,320,47356,2,0,P|296:346|239:333,1,120,0|8,1:0|0:0,0:0:0:0:
59,359,48580,6,0,P|44:302|52:243,1,120,0|8,1:0|0:0,0:0:0:0:
84,160,49498,1,0,0:0:0:0:
32,88,49805,2,0,L|40:29,1,60,0|2,1:0|0:3,0:0:0:0:
130,29,50417,2,0,L|138:89,1,60,8|2,0:0|0:3,0:0:0:0:
228,84,51029,6,0,L|345:113,1,120,4|8,1:3|0:0,0:0:0:0:
428,84,51947,1,0,0:0:0:0:
420,172,52254,2,0,L|450:288,1,120,0|8,1:0|0:0,0:0:0:0:
272,292,53478,6,0,L|153:307,1,120,0|8,1:0|0:0,0:0:0:0:
65,325,54396,1,0,0:0:0:0:
96,240,54703,2,0,P|109:182|82:130,1,120,0|8,1:0|0:0,0:0:0:0:
236,36,55927,6,0,P|224:93|251:145,1,120,0|8,1:0|0:0,0:0:0:0:
314,80,56845,1,0,0:0:0:0:
388,132,57152,2,0,L|373:251,1,120,0|8,1:0|0:0,0:0:0:0:
196,212,58376,6,0,L|211:331,1,120,0|10,1:0|0:0,0:0:0:0:
296,360,59294,1,2,0:0:0:0:
380,332,59601,2,0,L|388:268,1,60,0|2,1:0|0:3,0:0:0:0:
468,232,60213,2,0,L|461:172,1,60,8|2,0:0|0:3,0:0:0:0:
508,96,60825,6,0,P|450:82|398:109,1,120,4|10,1:3|0:0,0:0:0:0:
344,180,61743,1,2,0:0:0:0:
287,109,62050,2,0,P|235:83|178:97,1,120,0|10,1:0|0:0,0:0:0:0:
132,272,63274,6,0,L|13:257,1,120,4|10,1:3|0:0,0:0:0:0:
12,168,64192,1,0,0:0:0:0:
100,180,64498,2,0,L|219:195,1,120,0|10,1:0|0:0,0:0:0:0:
360,308,65723,6,0,P|418:321|470:294,1,120,0|8,1:0|0:0,0:0:0:0:
296,244,66947,2,0,P|269:297|283:354,1,120,0|8,1:0|0:0,0:0:0:0:
370,196,68172,6,0,P|323:160|265:163,1,120,0|8,1:0|0:0,0:0:0:0:
329,331,69396,2,0,P|270:334|223:298,1,120,0|8,1:0|0:0,0:0:0:0:
80,188,70621,6,0,L|95:69,1,120,4|10,1:3|0:0,0:0:0:0:
184,80,71539,1,0,0:0:0:0:
172,168,71845,2,0,L|157:287,1,120,0|10,1:0|0:0,0:0:0:0:
336,267,73070,6,0,P|393:253|446:279,1,120,4|10,1:3|0:0,0:0:0:0:
384,344,73988,1,0,0:0:0:0:
296,348,74294,2,0,L|177:333,1,120,0|10,1:0|0:0,0:0:0:0:
88,176,75519,6,0,L|103:57,1,120,0|8,1:0|0:0,0:0:0:0:
180,220,76743,2,0,L|195:101,1,120,0|8,1:0|0:0,0:0:0:0:
248,272,77968,6,0,P|199:304|140:297,1,120,0|8,1:0|0:0,0:0:0:0:
216,136,79192,2,0,P|157:129|108:161,1,120,0|8,1:0|0:0,0:0:0:0:
292,184,80417,6,0,P|307:127|280:75,1,120,4|8,1:3|0:0,0:0:0:0:
216,136,81335,1,0,0:0:0:0:
212,224,81641,2,0,L|227:343,1,120,0|8,1:0|0:0,0:0:0:0:
400,292,82866,6,0,L|392:232,1,60,0|0,1:0|1:0,0:0:0:0:
435,155,83478,2,0,P|449:97|422:45,1,120,8|0,0:0|1:0,0:0:0:0:
359,108,84396,1,0,0:0:0:0:
275,143,84703,2,0,L|216:136,1,60,0|0,0:0|0:0,0:0:0:0:
163,63,85315,5,4,1:3:0:0:
