osu file format v5

[General]
AudioFilename: Bloodparade - Queen Of The Darkness (Remix).mp3
AudioLeadIn: 0
PreviewTime: -1
Countdown: 1
SampleSet: Normal
StackLeniency: 0.7
Mode: 0
LetterboxInBreaks: 1
EditorBookmarks: 40394,55287,68573,97287,109715,133287,150858,166501,181287,224037,229715,251144,264001,287787,337072
EditorDistanceSpacing: 0.800000011920929

[Metadata]
Title:Queen of the Darkness Remix
Artist:Bloodparade
Creator:Zanma
Version:Vampire
Source:
Tags:

[Difficulty]
HPDrainRate:8
CircleSize:5
OverallDifficulty:7
SliderMultiplier:1
SliderTickRate:2

[Events]
//Background and Video events
0,0,"vampire.jpg"
//Break Periods
2,55067,67802
2,97487,109394
2,166487,180515
2,223915,229372
2,233771,236229
2,250915,263229
2,281236,284679
//Storyboard Layer 0 (Background)
//Storyboard Layer 1 (Failing)
//Storyboard Layer 2 (Passing)
//Storyboard Layer 3 (Foreground)
//Storyboard Sound Samples
//Background Colour Transformations
3,100,163,162,255

[TimingPoints]
27471,428.571428571429,4,1,0,100,1,0
68573,428.571428571429,4,2,0,100,1,0
90430,428.571428571429,4,1,0,100,1,0
150858,428.571428571429,4,2,0,100,1,1
166500,428.571428571429,4,2,0,100,1,0
251144,428.571428571429,4,2,0,100,1,1
264001,428.571428571429,4,2,0,100,1,0
322394,428.571428571429,4,1,0,100,1,1

[Colours]
Combo1 : 192,192,192
Combo2 : 198,0,5
Combo3 : 2,2,106
Combo4 : 244,0,0
Combo5 : 155,72,183

[HitObjects]
72,192,41185,1,0
152,192,41613,1,0
232,192,42042,1,0
312,192,42471,1,4
392,192,42899,1,0
256,192,43328,5,4
312,248,43756,1,0
232,248,44185,1,4
152,248,44613,1,0
96,192,45042,5,4
176,192,45470,1,0
256,192,45899,1,4
336,192,46328,1,0
280,136,46756,5,4
200,136,47185,1,0
144,192,47613,1,4
144,192,47828,1,4
144,192,48042,1,4
136,112,48470,5,4
200,72,48899,1,0
280,72,49328,1,4
344,120,49756,1,0
344,200,50185,5,4
288,256,50613,1,0
208,256,51042,1,4
152,192,51470,1,0
200,128,51899,5,4
152,192,52328,1,0
232,192,52756,1,4
312,192,53185,1,0
232,112,53613,5,4
232,272,54042,1,0
232,192,54470,1,4
232,192,54685,1,4
232,192,54899,1,4
240,208,69001,6,0,B|456:112|440:112,1,200
448,152,70072,1,6
408,160,70287,1,6
328,160,70715,5,14
248,160,71144,1,14
168,144,71572,2,14,B|24:296,1,200,14|14
72,296,72644,1,14
112,296,72858,1,14
216,304,73501,5,0
248,304,73715,2,14,B|368:320|432:208,1,200
400,176,74787,1,14
368,152,75001,1,14
256,328,75858,5,4
256,280,76072,1,4
256,240,76287,2,4,B|256:120|400:96,1,200,4|4
248,240,77572,2,4,B|128:240|104:384,1,200,4|4
256,328,79287,5,4
256,256,79501,1,4
256,184,79715,2,4,B|472:184,2,200
256,192,82287,5,14
72,192,82715,5,8
112,192,82930,1,8
152,200,83144,1,8
192,208,83358,2,8,B|248:120|424:72|416:304|192:352|160:336,1,450
152,344,85501,1,8
144,344,85715,6,8,B|56:264,1,100
48,232,86358,2,14,B|80:112,1,100
104,88,87215,2,8,B|200:104|272:136|264:136,1,150
296,144,88072,2,14,B|360:176,1,50
360,200,88501,1,14
376,280,88930,1,14
256,120,90001,6,4,B|256:232,1,100
336,224,90858,2,4,B|336:120,1,100
256,104,91715,1,4
256,208,92144,1,4
256,304,92572,1,4
168,208,93001,2,4,B|264:24|464:336,1,400
416,256,95144,2,4,B|328:312,1,100
256,192,96001,1,4
256,192,96108,12,4,97287
96,96,110144,6,0,B|200:136|112:280,1,200
160,264,111215,1,6
200,264,111429,1,6
272,304,111858,5,14
336,264,112287,1,12
392,208,112715,2,14,B|224:80,1,200
200,112,113787,1,12
176,144,114001,1,12
104,240,114644,5,4
112,288,114858,2,14,B|312:248,1,200
328,216,115929,1,14
344,176,116144,1,14
248,48,117001,5,4
208,64,117215,1,4
184,96,117429,2,4,B|176:304,1,200,4|4
256,296,118715,2,4,B|152:256|312:24,1,300,4|4
256,96,120429,5,4
256,136,120644,1,4
256,176,120858,2,4,B|472:176,1,200,4|4
256,176,122144,6,4,B|472:176,1,200
32,264,123429,5,8
48,224,123644,1,8
64,192,123858,1,8
80,152,124072,1,8
96,112,124287,1,8
152,40,124715,5,0
232,40,125144,1,0
312,40,125572,1,4
360,112,126001,5,12
376,144,126215,5,12
392,176,126429,5,12
392,288,126858,5,4
256,288,127287,1,4
128,288,127715,5,12
136,248,127929,5,8
144,208,128144,5,8
384,192,128572,5,4
128,192,129001,1,4
256,192,129429,5,12
256,192,129644,5,12
256,192,129858,5,12
256,64,130287,5,4
256,312,130715,1,4
256,192,131144,5,12
256,192,131358,5,12
256,192,131572,5,12
176,192,132001,5,4
336,192,132429,1,12
256,192,132858,5,4
256,192,133072,5,4
256,192,133287,5,4
424,88,133715,1,4
360,136,134144,1,4
304,192,134572,1,4
328,256,134787,1,4
256,240,135001,1,4
296,232,135215,1,4
256,192,135429,1,12
256,192,135537,12,12,137144
232,168,137572,5,14
280,216,138001,1,14
312,176,138430,2,14,B|224:232,1,100
256,72,139287,5,12
256,136,139715,1,12
256,200,140144,2,12,B|256:288|256:312|256:304,1,100
120,304,141001,5,14
160,304,141215,1,14
256,304,141644,5,14
256,128,142072,2,4,B|256:192,1,50,4|4
256,56,142930,5,12
256,192,143358,2,4,B|328:48,1,150
256,40,144430,5,4
272,48,144644,2,4,B|376:184|248:264,1,250
320,224,146144,5,4
280,224,146358,1,4
200,224,146787,1,4
160,224,147001,2,6,B|56:224,1,100
8,160,147858,6,14,B|8:56,1,100
80,40,148715,1,14
272,40,149144,1,14
312,40,149358,1,14
352,40,149572,2,14,B|352:152,1,100
256,192,150001,12,14,151072
232,168,151286,5,14
280,216,151500,1,14
288,168,152143,1,14
240,216,152358,1,14
256,72,153000,5,12
256,136,153215,1,12
256,200,153429,2,12,B|256:288|256:312|256:304,1,100
192,304,154715,5,14
320,304,154929,1,14
256,304,155358,5,14
256,184,155786,2,4,B|256:288|256:296,1,100,4|4
256,192,156643,5,12
256,192,157072,1,4
256,192,157286,1,4
256,192,157500,1,4
256,40,158143,5,4
272,48,158358,2,4,B|376:184|256:264,1,225
320,224,159858,5,4
280,224,160072,1,4
200,224,160500,1,4
120,224,160929,1,6
80,224,161572,6,14,B|80:120,1,100
80,40,162429,1,14
272,40,162858,1,14
312,40,163072,1,14
352,40,163286,2,14,B|352:152,1,100
256,192,164143,5,6
256,192,164358,1,6
256,192,164572,12,12,166286
40,192,181714,5,2
80,192,181928,1,2
120,192,182142,1,2
160,192,182357,1,2
200,192,182571,5,2
240,192,182785,1,2
280,192,183000,1,2
320,192,183214,1,2
360,192,183428,6,2,B|440:232|400:344|248:288|144:184,1,350
160,232,185142,5,2
160,272,185357,1,2
160,312,185571,1,2
160,352,185785,1,2
200,352,186000,5,2
240,352,186214,1,2
280,352,186428,1,2
320,352,186642,1,2
360,352,186857,6,0,B|456:248|320:80|192:120,1,350
176,120,188571,5,2
136,120,188785,1,2
96,120,189000,1,2
56,120,189214,1,2
56,160,189428,5,2
56,200,189642,1,2
56,240,189857,1,2
56,280,190071,1,2
80,304,190285,6,0,B|272:312|360:120,1,350,0|0
368,88,192000,5,2
328,88,192214,1,2
288,88,192428,1,2
248,88,192642,1,2
208,88,192857,5,2
168,88,193071,1,2
128,88,193285,1,2
88,88,193500,1,2
48,88,193714,6,2,B|-16:192|80:312|280:312,1,375
288,312,195428,1,2
256,32,195857,5,2
256,112,196285,1,2
256,192,196714,1,2
256,272,197142,1,10
384,192,197571,5,2
304,192,198000,1,2
224,192,198428,1,2
144,192,198857,1,10
384,64,199285,5,2
328,120,199714,1,2
272,176,200142,1,2
216,232,200571,1,10
104,56,201000,5,2
160,112,201428,1,2
216,168,201857,1,2
272,224,202285,1,10
256,336,202714,5,2
256,256,203142,1,2
200,184,203571,2,2,B|200:112,1,50
264,136,204000,2,2,B|336:136,1,50
320,200,204428,2,2,B|320:264,1,50
248,248,204857,2,2,B|176:248,1,50
256,184,205285,6,2,B|256:120,1,50,2|2
256,192,206142,5,2
256,192,206357,1,2
256,264,206785,1,2
256,264,207000,2,2,B|328:264,1,50
352,264,207428,2,2,B|352:192,1,50,2|2
352,168,207857,2,2,B|280:168,1,50,2|2
256,192,208285,12,10,208928
160,152,209571,6,10,B|248:208,1,100
328,152,210428,6,10,B|240:216,1,100
256,216,211285,6,10,B|256:32,1,175
280,16,212142,2,10,B|280:128,1,100
256,272,213000,5,10
256,192,213428,1,10
256,112,213857,1,10
256,32,214285,2,10,B|256:72,16,25
384,192,216428,5,2
344,192,216642,1,2
304,192,216857,1,2
264,192,217071,1,2
224,192,217285,1,2
184,192,217500,1,10
160,224,217714,5,4
200,224,217928,1,4
240,224,218142,1,4
280,224,218357,2,4,B|424:224,2,125
264,264,219642,5,8
224,264,219857,1,8
184,264,220071,1,8
144,264,220285,1,8
272,136,220928,5,2
272,176,221142,1,2
272,216,221357,1,2
272,248,221571,2,2,B|208:248,1,50
224,216,222000,1,2
224,176,222214,1,2
224,136,222428,2,2,B|320:120|320:208,1,125
256,192,223071,12,14,223714
424,56,230571,6,2,B|208:56|-16:216|144:344|488:288,1,725
64,320,237428,6,2,B|312:336|432:232|320:64|152:88|80:96,1,600
256,112,241071,5,0
256,152,241285,1,0
256,192,241500,1,0
256,232,241714,2,0,B|160:288,1,100
144,248,242357,2,0,B|144:136,1,100
144,104,243000,2,0,B|224:56|392:112,1,250
256,88,244500,5,2
256,168,244928,1,2
256,248,245357,1,2
256,328,245785,1,2
256,248,246214,5,0
256,176,246642,1,4
256,136,246857,1,4
256,96,247071,1,4
256,56,247285,2,4,B|368:56,1,100,4|4
376,176,248142,5,0
296,176,248571,2,0,B|232:176,1,50,0|0
246,176,249000,2,8,B|184:176,1,50
168,176,249428,1,8
128,176,249642,1,8
168,176,249857,1,14
256,192,250285,12,14,250714
256,192,264429,6,8,B|376:192,3,100
272,192,266143,5,4
192,192,266572,1,4
112,192,267000,1,4
256,200,267858,6,8,B|256:96,3,100
256,256,269572,5,4
256,336,270000,1,4
256,256,270429,1,4
304,232,271286,6,8,B|376:312,3,100
256,192,273000,5,4
320,144,273429,1,4
384,96,273858,1,4
312,232,274715,6,8,B|408:160,3,100
272,192,276429,5,4
192,192,276858,1,4
192,112,277286,1,4
152,40,277715,1,8
104,104,278143,1,8
112,192,278572,2,0,B|280:400|312:392|472:88|192:48,1,600
400,192,285429,6,0,B|232:-16|200:-8|40:296|320:336,1,600
256,192,288429,6,8,B|376:192,3,100
272,192,290143,5,4
192,192,290572,1,4
112,192,291000,1,4
192,192,291429,1,4
232,120,291858,1,4
256,48,292286,2,0,B|48:216|56:248|360:408|400:128,1,600
256,192,295286,5,8
272,232,295500,1,8
240,272,295715,1,8
272,312,295929,1,8
304,272,296143,1,8
256,192,296572,5,4
312,248,297000,1,4
256,192,297429,1,4
200,136,297858,1,4
256,192,298715,5,8
272,152,298929,1,8
240,112,299143,1,8
272,72,299358,1,8
296,112,299572,1,8
256,192,300000,5,4
312,136,300429,1,4
256,192,300858,1,4
200,248,301286,1,4
256,192,302143,5,8
216,176,302358,1,8
176,208,302572,1,8
136,176,302786,1,8
176,144,303000,1,8
256,192,303429,5,4
200,248,303858,1,4
144,304,304286,1,4
200,352,304715,1,4
224,272,305143,5,0
304,272,305572,1,8
256,336,306000,2,4,B|464:168|456:136|152:-24|112:256,1,600
256,192,309000,5,8
272,232,309215,1,8
240,272,309429,1,8
272,312,309643,1,8
304,272,309858,1,8
256,192,310286,5,4
312,248,310715,1,4
336,168,311143,1,4
384,104,311572,1,4
424,168,312000,5,8
456,240,312429,1,8
472,352,312858,2,0,B|472:48|32:48,1,600
256,192,315858,5,8
216,176,316072,1,8
176,208,316286,1,8
136,176,316500,1,8
176,144,316715,1,8
256,192,317143,5,4
200,248,317572,1,4
200,168,318000,1,4
200,88,318429,1,4
160,16,318858,1,8
104,72,319286,1,8
40,32,319715,2,0,B|40:336|480:336,1,600
256,168,322715,6,4,B|256:96,5,50
312,248,324429,5,4
192,136,324858,1,4
248,192,325286,1,4
256,192,325715,12,12,334501
