osu file format v5

[General]
AudioFilename: Bloodhound Gang Uhn Tiss Uhn Tiss Uhn Tiss.mp3
AudioLeadIn: 0
PreviewTime: -1
Countdown: 1
SampleSet: Normal
StackLeniency: 0.7
Mode: 0
LetterboxInBreaks: 1
EditorBookmarks: 44888,115999,168888

[Metadata]
Title:Uhn Tiss Uhn Tiss Uhn Tiss
Artist:Bloodhound Gang
Creator:osuplayer111
Version:Normal
Source:
Tags:

[Difficulty]
HPDrainRate:5
CircleSize:4
OverallDifficulty:4
SliderMultiplier:1.4
SliderTickRate:2

[Events]
//Background and Video events
1,0,"Bloodhound Gang Uhn Tiss Uhn Tiss Uhn Tiss.avi"
0,0,"71788346_cca925a06a_m.jpg"
//Break Periods
2,101088,114949
2,154865,156901
//Storyboard Layer 0 (Background)
//Storyboard Layer 1 (Failing)
//Storyboard Layer 2 (Passing)
//Storyboard Layer 3 (Foreground)
//Storyboard Sound Samples
//Background Colour Transformations
3,100,163,162,255

[TimingPoints]
1819,444.444444444444,4,1,0,60,1,0

[Colours]
Combo1 : 255,150,0
Combo2 : 40,205,31
Combo3 : 45,88,228
Combo4 : 200,38,38

[HitObjects]
96,120,44930,1,0
208,120,45374,2,0,B|272:64|336:64,1,140
336,176,46263,1,0
432,240,46707,2,0,B|472:160|440:104,2,140
320,240,48041,5,8
320,296,48263,1,8
224,232,48707,1,0
224,120,49152,2,0,B|160:64|32:48|120:184,1,210
104,264,50263,5,0
184,184,50707,1,8
240,184,50930,2,8,L|280:184|312:184,1,70
480,40,52041,5,0
368,40,52485,1,0
368,152,52930,1,0
368,152,53374,2,0,B|480:152,2,105
296,64,54485,1,0
256,24,54707,1,4
216,64,54930,1,0
160,64,55152,5,0
112,200,55818,1,0
224,200,56263,1,4
344,88,56930,5,0
288,88,57152,2,8,L|288:48|256:48,1,70
216,88,57596,2,8,L|176:88|176:48,1,70
120,56,58041,1,0
120,112,58263,1,0
120,224,58707,5,4
232,224,59152,5,0
344,224,59596,2,0,L|344:176|368:104|400:104,1,140
432,136,60263,1,8
432,192,60485,1,8
432,304,60930,1,0
320,304,61374,5,0
264,304,61596,1,0
264,248,61818,2,0,B|368:256|408:320|368:392,1,210
264,360,62930,1,0
152,328,63374,1,8
152,272,63596,1,8
152,216,63818,1,0
152,160,64041,2,0,B|184:104|240:96|272:184,1,140
256,152,64707,1,8
320,64,65152,1,8
328,120,65374,6,0,B|384:120|416:64|416:24,3,140
360,24,66930,1,0
248,24,67374,1,0
248,136,67818,1,4
192,136,68041,5,0
240,240,68485,2,0,B|304:240|392:224|448:192|480:152|448:104|368:88|320:120|272:168|320:184|312:200|320:240|432:320|424:312,1,490
288,320,70485,5,0
232,320,70707,1,0
176,320,70930,2,0,B|128:320|104:320,1,70
104,264,71374,1,0
104,152,71818,1,8
104,40,72263,1,4
272,40,72930,5,8
272,152,73374,1,0
160,152,73818,1,8
216,160,74041,2,0,B|224:72|208:-8,3,140
320,56,75818,5,0
320,112,76041,1,0
320,224,76485,1,8
256,320,76930,5,0
200,224,77374,1,8
256,128,77818,1,0
320,224,78263,1,8
256,320,78707,1,0
184,104,79596,5,0
144,64,79818,1,0
104,104,80041,2,0,B|88:40|32:16|0:128|32:184,1,210
248,168,81596,5,8
304,168,81818,2,8,B|280:80|208:96|208:248|216:296|128:272,1,280
144,160,83152,1,0
256,160,83596,1,4
256,192,84041,12,0,86707
112,216,87152,5,8
112,104,87596,1,8
208,152,88041,1,0
264,152,88263,2,0,B|296:112|328:112,2,70
208,152,88930,5,8
208,208,89152,1,8
208,320,89596,1,0
320,320,90041,1,8
320,264,90263,1,8
432,264,90707,1,4
256,192,91152,12,4,93374
296,88,93818,5,0
296,144,94041,1,0
352,144,94263,6,0,B|408:120|408:72|408:16|328:32|280:32,1,210
80,104,95818,5,0
80,104,96041,1,0
80,104,96263,2,0,L|40:104|40:176|80:176,1,140
64,176,96930,1,0
176,184,97374,1,0
256,104,97818,1,4
368,104,98263,6,0,L|464:104|464:56,3,140,0|0|0|4
368,32,100041,5,6
256,32,100485,5,6
144,32,100930,5,6
88,144,116041,5,8
176,72,116485,1,8
256,152,116930,2,0,L|312:152|384:152|384:176,1,140
383,163,117596,1,0
384,280,118041,1,0
272,280,118485,1,4
104,280,119152,5,8
104,112,119818,1,0
104,224,120263,1,4
256,128,120930,5,8
256,184,121152,1,8
160,128,121596,1,0
256,128,122041,1,0
312,128,122263,2,0,L|360:32|400:32,2,140
200,120,123596,5,0
200,232,124041,2,0,L|344:224|344:256|344:296,1,210
344,344,124930,1,8
416,264,125374,1,8
248,264,126041,5,8
136,264,126485,1,0
96,160,126930,1,8
184,88,127374,1,8
240,88,127596,1,8
208,192,128041,5,0
96,192,128485,1,0
96,248,128707,1,0
152,248,128930,1,8
152,304,129152,1,8
208,304,129374,1,8
248,192,129818,6,4,L|320:232|320:272|320:296,2,140
80,192,131374,1,8
248,193,132041,6,4,B|248:105|248:81|192:81,1,140
184,144,132707,1,0
184,256,133152,1,8
352,256,133818,5,8
248,194,134263,1,0
168,120,134707,1,8
168,232,135152,1,0
240,320,135596,1,8
296,320,135818,1,8
408,320,136263,1,0
408,264,136485,2,0,L|408:160|344:160,2,140
296,264,137818,5,4
144,192,138485,1,0
144,80,138930,1,0
200,80,139152,1,0
312,80,139596,1,0
312,192,140041,2,0,L|312:264|240:264,1,140
184,264,140707,1,12
128,264,140930,1,12
120,152,141374,6,0,L|120:88|120:32|88:32,2,140
232,160,142707,1,0
232,104,142930,1,0
344,104,143374,1,4
176,104,144041,5,0
64,104,144485,1,0
64,216,144930,1,0
64,216,145152,1,0
232,216,145819,6,0,L|232:136|296:136|296:64,1,210
416,192,147152,1,0
416,304,147596,1,4
256,192,148041,12,4,150263
64,104,150707,5,8
64,216,151152,1,8
184,104,151819,2,0,L|296:104|296:136|296:184|384:184,1,280
384,184,152930,5,8
384,184,153152,1,8
384,296,153596,1,8
328,296,153819,1,8
216,296,154263,1,0
216,184,154707,1,4
128,56,158263,5,8
128,168,158707,1,8
240,168,159152,1,0
296,168,159374,2,0,L|344:168|344:104|400:104|416:112|416:152,1,210,0|4
424,304,160707,5,0
312,304,161152,1,0
312,248,161374,2,0,B|304:200|192:208|176:216,1,140,0|4
256,192,162263,12,4,164485
88,88,164930,5,8
88,144,165152,1,8
88,200,165374,2,0,B|184:200|232:248|280:200|304:208,1,210,0|4
440,40,166930,5,0
384,40,167152,1,0
328,40,167374,2,0,B|344:88|392:104|432:96|456:104,1,140,0|4
256,192,168041,12,4,168930
