osu file format v5

[General]
AudioFilename: Bloodhound Gang Uhn Tiss Uhn Tiss Uhn Tiss.mp3
AudioLeadIn: 0
PreviewTime: -1
Countdown: 1
SampleSet: Normal
StackLeniency: 0.7
Mode: 0
LetterboxInBreaks: 1
EditorBookmarks: 44888,115999,200221,207554,225776

[Metadata]
Title:Uhn Tiss Uhn Tiss Uhn Tiss
Artist:Bloodhound Gang
Creator:osuplayer111
Version:Hard
Source:
Tags:

[Difficulty]
HPDrainRate:10
CircleSize:5
OverallDifficulty:6
SliderMultiplier:1.4
SliderTickRate:2

[Events]
//Background and Video events
1,0,"Bloodhound Gang Uhn Tiss Uhn Tiss Uhn Tiss.avi"
0,0,"71788346_cca925a06a_m.jpg"
//Break Periods
2,101088,114949
2,156643,157171
2,200420,206504
//Storyboard Layer 0 (Background)
//Storyboard Layer 1 (Failing)
//Storyboard Layer 2 (Passing)
//Storyboard Layer 3 (Foreground)
//Storyboard Sound Samples
//Background Colour Transformations
3,100,163,162,255

[TimingPoints]
1819,444.444444444444,4,1,0,60,1,0

[Colours]
Combo1 : 255,150,0
Combo2 : 40,205,31
Combo3 : 45,88,228
Combo4 : 200,38,38

[HitObjects]
104,80,44930,1,8
104,136,45152,1,8
104,192,45374,2,8,B|160:184|248:264,1,140
232,304,46041,5,0
288,304,46263,1,0
296,248,46485,2,0,B|256:312|280:376|352:328|344:288,2,140
296,136,47818,1,8
240,120,48041,2,0,B|248:208|208:240|240:264,2,140
112,112,49374,5,0
152,152,49596,2,8,B|208:152|232:144,1,70
256,96,50041,2,8,B|200:96|168:104,1,70
296,96,50707,1,0
296,152,50930,1,0
296,208,51152,2,0,B|192:208|144:120|144:40|192:8,1,280
224,48,52263,5,0
280,48,52485,1,0
280,160,52930,1,0
280,216,53152,1,0
336,216,53374,2,0,B|384:216|416:224|440:192|392:136,1,140
400,88,54041,1,0
288,88,54485,5,0
232,88,54707,1,0
176,88,54930,1,8
200,136,55152,2,0,B|312:112|384:232|312:328|192:312|128:240|32:216|-16:296|0:360|72:368,1,560,0|8
64,368,57152,5,8
64,368,57374,1,8
64,368,57596,1,8
120,368,57818,1,0
152,320,58041,2,0,C|176:272|152:248,2,70
104,288,58707,1,0
104,232,58930,5,0
104,176,59152,1,8
104,120,59374,2,8,L|152:80|208:56|248:72|248:128,1,210
304,112,60263,1,0
360,112,60485,1,0
360,168,60707,1,0
416,168,60930,2,0,L|416:120|448:120,2,70
416,224,61596,1,0
360,224,61818,1,0
304,224,62041,2,8,L|256:224|256:192,2,70
256,40,62930,5,4
40,40,63374,5,0
40,96,63596,1,0
40,152,63818,1,0
40,208,64041,2,0,L|96:216|120:208,1,70
232,224,64485,2,0,L|184:224|152:208,1,70
168,104,65152,1,0
224,112,65374,2,8,B|216:208|320:200|344:152|344:128|320:56|280:32,1,280
232,40,66485,5,0
184,72,66707,1,0
136,96,66930,1,0
128,208,67374,1,0
128,320,67818,1,0
184,320,68041,1,0
240,320,68263,1,0
296,320,68485,2,0,B|328:296|256:192,4,140,0|2|0|2|0
352,320,70485,5,0
400,288,70707,1,0
400,232,70930,1,0
344,232,71152,1,8
288,232,71374,2,8,B|384:176|408:24|288:24,1,280
240,24,72485,1,0
240,80,72707,1,0
184,80,72930,5,4
40,192,73374,5,0
40,344,73818,1,0
96,344,74041,1,0
208,344,74485,5,0
208,288,74707,1,0
264,288,74930,1,0
376,288,75374,1,8
304,200,75818,1,0
304,144,76041,2,8,B|360:144|384:136|424:136|448:152,1,140,8|4
440,32,76930,5,8
440,32,77041,1,8
440,32,77152,1,0
440,32,77263,1,8
440,32,77374,1,0
384,32,77596,1,0
384,88,77818,6,0,B|328:80|264:184,1,140
40,40,78707,5,8
40,40,78818,1,8
40,40,78930,1,0
40,40,79041,1,8
40,40,79152,1,0
40,96,79374,1,0
40,152,79596,5,0
96,152,79818,1,0
152,152,80041,2,0,C|216:152|288:136|280:144,1,140
290,135,80707,2,0,C|258:63|58:63,1,280
63,64,81818,1,8
75,113,82041,1,8
104,160,82263,1,0
128,208,82485,2,0,B|232:192|344:80|240:24|192:48|184:88|176:120|216:208|288:248,1,420
320,240,84041,5,8
344,240,84152,1,0
368,240,84263,1,8
392,240,84374,1,0
416,240,84485,1,0
464,240,84707,1,0
416,208,84930,5,0
376,168,85152,6,0,B|480:112|464:-8|360:-24|312:32|264:96,1,350
208,184,86707,6,0,L|256:168|280:168,1,70
272,224,87152,1,0
48,192,87596,5,8
48,80,88041,5,0
104,80,88263,1,0
216,80,88707,5,0
256,112,88930,1,0
208,136,89152,1,0
208,192,89374,2,0,L|264:192|296:176,2,70
152,192,90041,1,0
152,248,90263,1,0
96,248,90485,2,2,L|88:208|96:176,2,70
104,304,91152,5,8
128,304,91263,1,0
152,304,91374,1,8
176,304,91485,1,0
200,304,91596,1,8
256,304,91818,1,0
312,304,92041,1,0
368,304,92263,1,0
360,192,92707,1,8
360,160,92818,1,8
360,128,92930,1,8
304,120,93152,6,0,L|304:24|184:24,1,210
136,24,94041,1,2
136,80,94263,2,2,L|184:152|256:48,1,210
254,51,95152,1,8
64,336,95818,5,0
64,280,96041,1,0
120,280,96263,1,0
120,168,96707,1,0
120,112,96930,1,0
232,112,97374,1,8
120,112,97818,1,8
120,224,98263,5,8
144,224,98374,1,0
168,224,98485,1,8
192,224,98596,1,0
216,224,98707,1,8
272,224,98930,2,0,L|368:224|360:152|312:152,1,210,0|2
48,192,100041,5,6
256,32,100485,5,6
472,192,100930,5,6
64,129,116041,5,0
62,226,116485,2,0,B|86:266|198:250|254:218|262:194|294:138,1,280
293,140,117596,1,0
321,91,117818,1,0
349,140,118041,1,0
352,248,118485,5,8
240,248,118930,5,0
184,248,119152,1,0
184,304,119374,2,0,B|120:304|88:304,1,70
56,304,119818,1,0
56,192,120263,1,8
352,40,120930,5,0
296,40,121152,1,0
296,96,121374,1,0
240,96,121596,2,0,B|224:64|192:136,3,70
352,280,123152,5,0
296,280,123374,1,0
352,280,123596,1,0
296,280,123818,1,0
184,280,124263,1,8
184,168,124707,1,0
184,112,124930,6,0,B|232:40|304:32,1,140
295,35,125596,1,0
352,32,125818,1,0
352,88,126041,1,0
352,200,126485,5,8
352,312,126930,5,8
240,312,127374,5,8
184,312,127596,1,8
184,200,128041,2,0,B|192:152|160:112|128:104|104:176,2,140
128,200,129152,1,0
128,256,129374,1,0
216,320,129818,5,8
328,320,130263,5,0
360,272,130485,1,0
320,232,130707,1,0
360,192,130930,1,0
272,120,131374,6,8,B|464:120|496:96,1,210
384,48,132485,5,8
328,48,132707,1,8
296,152,133152,6,0,B|352:72|456:48|488:56,1,210
472,168,134263,5,8
360,168,134707,5,8
248,168,135152,5,0
192,168,135374,1,0
136,168,135596,2,0,B|136:128|112:80,1,70
176,80,136041,1,0
232,72,136263,2,0,B|272:72|304:104,1,70
408,96,136930,5,8
408,208,137374,5,0
352,208,137596,1,0
296,208,137818,1,0
296,264,138041,1,0
184,280,138485,6,0,B|168:248|112:272|128:336|192:336|240:336|296:336,1,210
392,336,139596,5,8
280,336,140041,5,8
168,336,140485,5,0
168,280,140707,1,0
168,224,140930,2,0,B|208:224|208:176|168:160|128:168|104:208|104:256|152:296|208:288|256:280,1,280
256,224,142041,5,0
256,168,142263,1,0
256,112,142485,1,0
200,112,142707,1,0
144,112,142930,1,0
256,112,143374,2,8,B|232:72|176:48|160:72|168:136|168:168|200:200,1,210
80,192,144485,5,0
80,304,144930,1,0
136,304,145152,1,0
200,208,145596,5,0
200,152,145819,1,0
248,176,146041,2,0,B|304:152|368:144|400:160,2,140
248,176,147152,1,0
248,288,147596,1,4
136,288,148041,5,8
136,256,148152,1,0
136,224,148263,1,8
136,192,148374,1,0
136,160,148485,1,8
136,96,148707,1,8
256,56,149152,5,0
256,56,149374,1,0
368,96,149819,5,8
368,128,149930,1,0
368,160,150041,1,8
368,192,150152,1,0
368,224,150263,1,8
368,288,150485,1,8
320,272,150707,5,0
200,224,151152,6,0,B|256:152|384:176|392:216,2,210
144,224,152707,1,0
144,168,152930,1,0
144,112,153152,2,0,B|184:112|184:64,1,70
240,64,153596,2,0,B|224:24|296:40,1,70
448,192,154263,5,8
256,328,154707,5,4
256,192,155152,12,4,156485
88,72,158263,5,8
88,184,158707,1,8
168,264,159152,1,0
224,264,159374,2,0,B|224:216|296:136,1,140
288,144,160041,5,0
344,144,160263,1,0
344,32,160707,1,0
232,32,161152,1,0
232,88,161374,2,0,B|288:56|384:80,2,140
232,144,162485,1,0
232,200,162707,1,0
232,256,162930,1,0
320,192,163374,5,8
256,192,163596,12,0,164930
272,232,165374,6,0,B|296:160|232:96|136:112,2,210
216,232,166930,5,0
160,232,167152,1,0
160,288,167374,1,0
160,176,167819,5,0
160,120,168041,1,0
272,144,168485,6,0,B|216:160|224:232|304:216,2,140
328,144,169596,1,0
328,88,169819,1,0
328,144,170041,1,0
432,192,170485,5,8
376,192,170707,1,8
48,192,171152,5,6
256,40,171596,5,6
256,336,172041,5,6
144,336,172485,5,0
144,280,172707,1,0
200,272,172930,2,2,B|256:256|256:232,1,70
224,192,173374,2,0,B|192:208|144:184,1,70
168,136,173819,1,0
224,128,174041,2,2,B|208:80|184:48,1,70
280,120,174485,2,0,B|256:80|272:40,1,70
320,56,174930,1,0
376,48,175152,2,0,B|352:8|432:88,1,70
272,160,176041,5,0
216,160,176263,1,0
216,216,176485,2,8,B|272:200|288:264,1,70
232,272,176930,2,8,B|200:288|184:328,1,70
138,290,177374,1,0
138,290,177596,2,0,B|122:242|90:218,1,70
104,230,178041,2,0,B|80:190|96:150,1,70
142,138,178485,1,0
142,138,178707,2,8,B|118:98|214:114,1,70
252,85,179596,5,0
250,144,179819,1,0
192,144,180041,1,0
192,200,180263,1,0
248,200,180485,1,0
248,256,180707,1,0
248,312,180930,1,0
248,256,181152,1,4
248,200,181374,5,0
248,144,181596,1,0
192,144,181819,1,0
192,88,182041,2,8,B|232:88|264:64,1,70
448,192,183152,5,0
400,160,183374,1,0
352,192,183596,1,0
304,160,183819,1,0
256,192,184041,1,0
208,160,184263,1,0
160,192,184485,1,0
112,160,184707,1,0
64,192,184930,5,0
48,136,185152,2,0,B|64:96|104:72,1,70
144,80,185596,2,0,B|144:32|192:40,1,70
408,88,186707,5,0
352,88,186930,1,0
352,144,187152,1,0
408,144,187374,1,0
352,144,187596,1,0
296,144,187819,1,0
296,200,188041,1,0
296,144,188263,1,0
240,144,188485,1,0
184,144,188707,5,0
184,200,188930,1,0
184,144,189152,1,0
184,200,189374,1,0
32,32,190263,5,0
32,88,190485,1,0
88,88,190707,1,0
88,144,190930,1,0
32,144,191152,1,0
88,144,191374,1,0
88,200,191596,1,0
88,256,191819,1,8
144,256,192041,6,8,B|136:208|216:208,1,70
240,208,192485,2,0,B|248:192|280:280,1,70
328,264,192930,1,8
320,40,193819,5,0
264,40,194041,1,0
264,96,194263,1,0
264,40,194485,1,0
208,40,194707,1,0
208,96,194930,1,0
208,40,195152,1,0
152,40,195374,1,0
152,96,195596,1,0
152,152,195819,5,0
152,208,196041,1,0
208,208,196263,1,0
208,264,196485,2,8,B|288:224|384:216|496:264,1,280
480,312,197596,5,0
424,312,197819,1,0
368,312,198041,1,0
368,256,198263,1,0
312,256,198485,1,0
256,256,198707,1,0
200,256,198930,1,0
200,200,199152,1,0
200,144,199374,2,8,B|280:120|368:120|416:152|448:176|464:208,1,280,8|8
96,88,207596,5,8
96,144,207819,1,8
96,200,208041,2,0,L|96:312|200:312,1,210
312,120,209596,5,8
368,120,209819,1,8
368,176,210041,2,0,L|280:176,2,70
368,176,210707,1,8
256,48,211152,5,8
256,336,211596,5,4
256,192,212041,12,0,214707
48,72,215152,5,0
48,184,215596,1,0
160,184,216041,1,0
160,240,216263,2,0,L|200:240|200:136,1,140
201,141,216930,5,0
256,141,217152,1,0
344,72,217596,1,0
344,184,218041,1,0
400,184,218263,1,0
416,72,218707,1,4
472,168,219152,5,8
440,168,219263,1,0
408,168,219374,1,8
376,168,219485,1,0
344,168,219596,1,8
288,168,219819,6,0,B|280:224|344:264|240:304,2,140
232,168,220930,5,8
200,168,221041,1,0
168,168,221152,1,8
136,168,221263,1,0
104,168,221374,1,8
48,168,221596,5,0
48,112,221819,5,0
80,64,222041,1,0
136,56,222263,2,0,L|248:56|248:96|248:120|248:160,2,210
136,56,223819,1,0
136,56,224041,1,0
136,56,224263,1,0
80,344,224707,5,8
136,344,224930,1,8
256,192,225041,12,4,225818
