osu file format v5

[General]
AudioFilename: Bloodhound Gang - Three Point One Four.mp3
AudioLeadIn: 1533
AudioHash: a4aab80440501d57fea17b7cf3ea969e
PreviewTime: -1
Countdown: 1
SampleSet: Soft

[Metadata]
Title:Three Point One Four
Artist:Bloodhound Gang
Creator:Rolled
Version:Normal

[Difficulty]
HPDrainRate:5
CircleSize:5
OverallDifficulty:5
SliderMultiplier:1.5
SliderTickRate:1

[Events]
//Background and Video events
//Break Periods
2,64223,74487
2,96217,106144
2,170868,188799
//Storyboard Layer 0 (Background)
//Storyboard Layer 1 (Failing)
//Storyboard Layer 2 (Passing)
//Storyboard Layer 3 (Foreground)
//Storyboard Sound Samples
//Background Colour Transformations
3,148,192,192,192

[TimingPoints]
704,666.592600822131,4,2,0,100
21364,666.592600822131,4,1,0,100
32694,666.592600822131,4,2,0,100
75354,666.592600822131,4,1,0,100
107344,666.592600822131,4,2,0,100
150004,666.592600822131,4,1,0,100

[Colours]
Combo1 : 90,55,7
Combo2 : 235,192,95
Combo3 : 168,84,0

[HitObjects]
256,328,704,1,2
256,176,1370,1,2
184,40,2037,1,2
256,16,2370,1,0
328,40,2703,1,0
256,168,3370,1,2
256,320,4036,1,2
184,184,4703,1,2
256,160,5036,1,0
328,184,5370,1,0
256,56,6036,5,2
328,184,6703,1,2
176,184,7369,1,2
128,240,7703,1,0
176,296,8036,1,0
232,240,8369,1,2
304,240,8703,1,2
408,128,9369,1,2
280,48,10036,1,2
208,48,10369,1,0
152,104,10702,1,0
208,152,11036,1,2
280,152,11369,6,2,B|280:152|344:160|376:208,1,75
348,178,12036,1,0
416,312,12702,2,2,B|416:312|384:352|336:344,1,75
352,344,13369,1,0
200,336,14035,2,2,B|200:336|160:320|144:272,1,75
148,285,14702,1,0
120,136,15369,2,2,B|120:136|136:88|176:72,1,75
168,72,16035,2,2,B|168:72|216:48|256:56,1,75
248,56,16702,2,2,B|248:56|296:56|320:88,1,75
319,83,17368,1,0
408,192,18035,6,0,B|408:192|480:192,2,75
312,312,19368,2,2,B|312:312|216:312,3,75
256,240,20701,2,0,B|256:240|256:192,8,37.5
72,104,23030,6,4,B|72:104|128:32|152:40,1,75
344,64,24363,2,4,B|344:64|408:96|424:136,1,75
256,304,25696,1,4
256,224,26030,1,4
256,152,26363,1,4
256,80,26696,1,4
216,16,27030,2,4,B|216:16|264:-16|328:40,1,75
424,192,28363,5,4
424,192,28696,1,4
256,344,29696,1,4
256,344,30029,1,4
88,192,31029,1,4
88,192,31362,1,4
88,192,31696,1,4
88,192,32029,1,4
88,192,32362,1,4
136,136,32694,5,2
184,192,33027,1,2
232,136,33360,1,0
280,192,33693,1,0
320,128,34027,2,2,B|320:128|368:160|360:208,1,75
344,256,34693,5,0
384,320,35027,2,2,B|384:320|432:288|416:208,1,75
392,184,35693,2,0,B|392:184|400:152|384:128|400:112,1,75
408,32,36360,2,2,B|408:32|376:48|360:32|328:40,1,75
280,88,37026,2,2,B|280:88|304:120|280:144|296:176,1,75
216,176,37693,1,0
216,176,38026,1,0
216,176,38360,1,2
144,176,38693,6,2,B|144:176|112:176,2,37.5
144,248,39359,1,0
200,296,39693,1,0
256,248,40026,1,0
328,248,40359,1,2
360,184,40693,1,2
320,120,41026,1,2
368,64,41359,1,2
312,16,41693,5,4
256,64,42026,1,4
304,120,42359,1,4
256,176,42692,1,4
176,176,43026,5,0
176,176,43359,1,2
104,176,43692,1,0
104,176,44026,1,2
144,240,44359,1,0
144,240,44692,1,2
144,312,45025,1,0
144,312,45359,1,2
216,312,45692,2,0,B|216:312|248:336|304:304,3,75
320,248,47025,2,4,B|320:248|344:216|312:144,3,75
320,96,48358,5,0
320,96,48692,2,2,B|320:96|248:96,1,75
245,96,49358,2,2,B|245:96|245:176,1,75
244,170,50025,2,2,B|244:170|156:170,1,75
168,171,50692,2,2,B|168:171|168:243,1,75
240,272,51358,5,0
288,328,51691,1,0
336,272,52025,1,0
288,216,52358,1,4
232,168,52691,1,4
288,120,53025,1,4
344,168,53358,1,4
400,112,53691,6,0,B|400:112|400:72,2,37.5
400,184,54358,2,0,B|400:184|400:240,2,37.5
464,144,55024,2,0,B|464:144|488:144,6,37.5
256,56,56691,5,2
256,128,57024,1,2
256,200,57357,1,0
256,272,57691,1,0
224,336,58024,2,2,B|224:336|280:336,2,75
256,192,59357,5,0
312,136,59691,1,0
368,80,60024,1,2
312,24,60357,1,0
256,80,60690,1,0
312,136,61024,1,2
368,184,61357,1,2
312,320,62024,5,0
256,264,62357,1,0
200,320,62690,1,2
152,256,63023,1,2
112,320,63357,1,0
64,256,63690,1,0
104,192,64023,1,2
256,40,75687,5,4
256,112,76020,1,4
256,184,76353,2,4,B|256:184|256:256,1,75
392,192,77353,1,4
312,320,78020,1,4
312,320,78353,1,4
312,320,78686,2,4,B|312:320|272:336|224:312,1,75
184,264,79353,1,4
184,264,80020,1,4
256,136,80686,5,4
256,136,81020,1,4
256,136,81353,2,4,B|256:136|256:56,1,75
328,56,82019,2,4,B|328:56|376:96|400:208,1,150
256,248,83353,1,4
256,248,83686,1,4
256,248,84019,2,4,B|256:248|208:320|120:280,2,150
256,96,86019,5,4
256,96,86352,1,4
256,96,86686,1,4
256,96,87019,1,4
256,96,87352,1,4
256,96,88019,1,4
256,248,88685,5,4
256,248,89019,1,4
256,248,89352,1,4
256,248,89685,1,4
256,248,90019,1,4
256,248,90685,1,4
216,104,91352,6,4,B|216:104|304:104,6,75
296,232,94018,2,4,B|296:232|160:232,6,75
80,192,107344,5,0
232,192,108010,1,0
360,272,108677,1,2
416,224,109010,1,2
472,176,109343,1,2
416,128,109677,1,2
360,80,110010,1,4
256,192,110676,1,0
152,272,111343,1,2
96,224,111676,1,2
40,176,112009,1,2
96,128,112343,1,4
152,80,112676,1,4
256,192,113343,5,0
176,320,114009,2,0,B|176:320|176:360,2,37.5
248,320,114676,2,0,B|248:320|248:272,3,37.5
248,282,115343,1,2
248,128,116009,1,2
256,192,116343,12,0,118009
160,72,118676,6,2,B|160:72|272:72,1,75
312,72,119342,2,2,B|312:72|392:72,1,75
392,144,120009,2,2,B|392:144|296:144,1,75
240,144,120675,1,4
88,152,121342,2,2,B|88:152|88:248,1,75
160,208,122009,2,2,B|160:208|160:288,1,75
232,256,122675,2,2,B|232:256|232:336,1,75
304,312,123342,1,4
256,168,124008,5,0
256,16,124675,1,0
256,16,124842,1,0
256,16,125008,1,0
328,16,125342,1,4
336,168,126008,5,2
384,224,126341,1,2
328,272,126675,1,0
272,320,127008,1,0
216,272,127341,1,2
160,224,127675,1,2
216,168,128008,1,2
272,216,128341,1,2
272,144,128674,2,0,B|272:144|272:112,2,37.5
416,96,129674,5,0
456,160,130008,1,0
408,216,130341,1,2
360,160,130674,1,2
208,160,131341,1,0
152,112,131674,1,0
96,160,132007,1,0
152,208,132341,1,2
200,264,132674,1,0
152,320,133007,1,2
96,264,133341,1,2
176,136,134007,5,0
176,136,134341,2,0,B|176:136|200:80|272:64,1,75
296,72,135007,1,2
296,72,135340,1,2
296,72,135674,2,0,B|296:72|368:96|360:176,1,75
256,184,136674,5,2
256,184,137007,1,2
256,184,137340,1,2
256,336,138007,1,0
256,336,138340,1,0
256,336,138673,1,4
256,184,139340,5,0
320,144,139673,1,0
392,144,140007,1,2
456,184,140340,1,2
408,240,140673,1,4
336,240,141006,1,4
264,208,141340,1,4
152,136,142006,5,0
72,136,142340,1,0
16,184,142673,1,2
72,232,143006,1,2
144,232,143340,1,4
200,184,143673,1,4
144,136,144006,1,4
256,40,144673,6,0,B|256:40|256:120,2,75
328,40,145673,2,0,B|328:40|376:40,2,37.5
328,112,146339,2,0,B|328:112|328:232,1,75
256,160,147006,5,0
184,160,147339,1,0
224,224,147672,1,0
264,288,148006,1,0
192,288,148339,1,0
256,72,149339,5,4
440,192,150337,6,4,B|440:192|456:280|368:328,1,150
368,240,151337,1,4
368,240,152003,1,4
224,184,152670,6,4,B|224:184|160:184,2,75
296,184,153670,1,4
328,248,154003,2,4,B|328:248|405:199|336:112,1,150
48,192,156003,1,4
120,192,156336,1,4
192,192,156669,2,4,B|192:192|264:240|368:168,1,150
256,64,158003,6,4,B|256:64|256:136,1,75
256,216,158669,2,4,B|256:216|256:304,2,75
256,64,160002,1,4
144,168,160669,5,4
192,224,161002,1,4
264,224,161336,1,4
320,168,161669,1,4
232,160,162002,2,4,B|232:160|232:8,1,150
128,120,163335,5,4
176,64,163669,1,4
248,64,164002,1,4
296,120,164335,1,4
216,120,164669,2,4,B|216:120|216:280,1,150
256,320,166335,6,0,B|256:320|232:280|256:256,1,75
256,176,167002,2,4,B|256:176|288:144|256:104,1,75
168,224,168002,1,4
392,216,169001,6,4,B|392:216|464:216,3,75
464,216,170668,1,4
208,80,189999,6,0,B|208:80|248:80,7,37.5
280,80,191332,2,4,B|280:80|312:80,8,37.5
80,112,193332,6,2,C|80:112|200:312|344:88,1,450
328,104,195998,6,2,C|328:104|272:46|199:97|249:184|320:116|344:216,1,450
384,160,198665,6,2,C|384:160|312:128|272:200|344:240|378:225|344:336|264:312,1,450
232,152,201331,6,2,C|232:152|200:304,2,150
264,56,203331,1,6
160,248,203998,6,6,C|160:248|200:112|264:264|304:128,1,450
400,104,206664,6,6,C|400:104|344:46|271:97|321:184|392:116|416:216,1,450
232,240,209330,6,6,C|232:240|228:89|279:88|264:264,1,375
248,312,211330,1,6
256,192,211997,12,6,213996
