osu file format v5

[General]
AudioFilename: Bloodhound Gang - Three Point One Four.mp3
AudioLeadIn: 1533
AudioHash: a4aab80440501d57fea17b7cf3ea969e
PreviewTime: -1
Countdown: 1
SampleSet: Soft
EditorBookmarks: 170979

[Metadata]
Title:Three Point One Four
Artist:Bloodhound Gang
Creator:Rolled
Version:Hard

[Difficulty]
HPDrainRate:7
CircleSize:6
OverallDifficulty:6
SliderMultiplier:1.5
SliderTickRate:2

[Events]
//Background and Video events
//Break Periods
2,64223,74487
2,96218,106294
2,170867,188944
//Storyboard Layer 0 (Background)
//Storyboard Layer 1 (Failing)
//Storyboard Layer 2 (Passing)
//Storyboard Layer 3 (Foreground)
//Storyboard Sound Samples
//Background Colour Transformations
3,148,163,162,255

[TimingPoints]
704,666.592600822131,4,2,0,100
21364,666.592600822131,4,1,0,100
32344,666.592600822131,4,2,0,100
75354,666.592600822131,4,1,0,100
107344,666.592600822131,4,2,0,100
150004,666.592600822131,4,1,0,100
189994,333.296300411065,4,1,0,100

[HitObjects]
256,328,704,1,2
256,256,1037,1,2
216,192,1370,1,2
288,192,1703,1,0
256,120,2037,1,0
304,64,2370,1,0
256,8,2703,1,2
200,64,3037,1,2
256,120,3370,5,2
296,184,3703,1,2
232,232,4036,1,2
176,280,4370,1,2
232,328,4703,1,0
288,280,5036,1,0
232,232,5370,1,2
176,176,5703,1,2
248,176,6036,5,2
320,152,6370,1,2
384,192,6703,1,2
448,152,7036,1,2
384,112,7369,1,0
320,152,7703,1,0
256,192,8036,1,2
192,152,8369,1,2
256,120,8703,5,0
256,48,9036,1,0
256,120,9369,1,0
256,192,9703,1,0
256,264,10036,1,2
256,336,10369,1,2
256,264,10702,1,2
256,184,11036,1,2
320,152,11369,6,2,B|320:152|376:160|408:208,1,75
385,185,12036,2,2,B|385:185|433:209|447:273,1,75
434,240,12702,2,2,B|434:240|418:288|354:296,1,75
380,290,13369,2,2,B|380:290|332:306|292:266,1,75
240,256,14035,6,2,B|240:256|240:168,1,75
176,216,14702,2,2,B|176:216|176:144,1,75
112,176,15369,2,2,B|112:176|112:96,2,75
112,248,16368,2,2,B|112:248|112:304|176:328,1,75
216,296,17035,1,0
216,296,17368,1,2
368,296,18035,5,0
408,232,18368,1,0
344,192,18702,1,2
400,144,19035,1,2
336,96,19368,2,0,B|336:96|232:96,3,75
256,168,20701,2,0,B|256:168|256:232,8,37.5
256,96,22363,5,4
256,16,22697,1,4
184,24,23030,2,4,B|184:24|128:40|104:112,1,75
104,136,23697,1,0
104,176,23863,1,4
104,208,24030,1,0
168,176,24363,2,4,B|168:176|200:152|240:176,1,75
312,176,25030,1,0
312,176,25363,1,0
384,176,25696,2,4,B|384:176|424:192|464:168,5,75
432,96,27696,5,0
408,72,27863,1,4
384,48,28029,1,0
320,96,28363,2,4,B|320:96|352:128|312:176,1,75
248,144,29029,1,4
248,144,29196,1,4
248,144,29363,1,4
248,216,29696,5,0
184,256,30029,2,4,B|184:256|256:313|328:240,3,150
256,48,32529,5,2
256,48,32694,1,2
184,48,33027,1,0
136,96,33343,1,0
144,168,33677,1,2
160,200,33843,1,0
144,232,34010,1,2
144,304,34343,1,0
216,304,34677,5,2
248,280,34843,1,0
280,304,35010,1,2
248,232,35343,1,0
248,160,35676,1,0
248,80,36010,1,2
312,120,36343,1,2
336,152,36510,1,0
360,184,36676,1,2
328,248,37010,5,2
304,280,37176,1,0
264,280,37343,1,2
224,280,37510,1,0
200,248,37676,1,2
264,208,38010,1,2
264,208,38343,1,2
264,40,38676,5,0
280,72,38843,1,2
256,96,39009,1,2
280,120,39176,1,0
256,144,39343,1,0
280,168,39509,1,0
256,192,39676,1,2
264,264,40009,1,2
360,336,40343,5,2
328,312,40509,1,2
296,336,40676,1,2
264,312,40843,1,2
232,336,41009,1,2
200,312,41176,1,2
168,336,41343,1,0
200,312,41509,5,0
232,336,41676,1,4
264,312,41842,1,4
296,336,42009,1,4
328,312,42176,1,4
352,336,42342,1,4
408,280,42676,1,4
352,232,43009,6,0,B|352:232|304:248|264:224,1,75
200,232,43676,1,0
200,232,44009,1,0
200,160,44342,1,2
240,160,44509,1,0
224,128,44675,1,2
264,128,44842,1,0
248,96,45009,1,2
288,96,45175,1,0
272,64,45342,1,2
344,64,45675,5,0
400,112,46009,1,0
416,144,46175,1,0
400,176,46342,1,0
328,144,46675,1,4
248,144,47009,1,0
248,184,47175,1,0
248,224,47342,1,0
248,264,47508,1,0
248,304,47675,1,2
208,304,47842,1,2
168,304,48008,1,2
168,224,48342,5,2
168,224,48508,2,0,B|168:224|168:152,1,37.5
168,112,49008,1,2
168,112,49175,2,0,B|168:112|216:112,1,37.5
280,112,49675,1,0
312,88,49842,1,0
336,112,50008,1,0
368,88,50175,1,2
392,112,50342,1,2
392,112,50508,2,2,B|392:112|392:160,1,37.5
392,224,51008,5,4
344,280,51341,1,4
296,224,51675,1,4
248,280,52008,1,4
192,224,52341,5,2
192,184,52508,1,2
192,144,52675,1,0
192,104,52841,1,0
192,144,53008,1,0
192,184,53175,1,0
192,224,53341,1,4
288,272,53674,6,0,B|288:272|288:232,2,37.5
336,216,54341,2,0,B|336:216|312:216,2,37.5
288,160,55008,2,0,B|288:160|288:136,6,37.5
168,56,56507,5,2
168,96,56673,1,2
200,80,56840,1,0
240,80,57007,1,0
312,80,57340,1,0
352,80,57507,2,2,B|352:80|384:80,2,37.5
352,120,58007,1,0
352,160,58174,1,4
312,160,58341,1,4
312,200,58507,1,4
272,200,58674,1,4
128,160,59341,6,2,B|128:160|128:64,2,75
128,232,60340,1,0
128,304,60674,1,0
168,304,60840,1,2
208,304,61007,1,0
248,304,61174,1,2
288,304,61340,1,0
256,152,62007,5,4
280,128,62174,1,4
304,152,62340,1,4
280,176,62507,1,4
280,216,62673,1,4
352,216,63007,1,2
400,160,63340,1,4
424,128,63507,1,4
448,96,63673,1,4
424,64,63840,1,4
392,40,64007,1,4
216,72,75687,5,4
216,144,76020,1,4
280,112,76353,1,4
280,112,76687,2,4,B|280:112|344:112|424:168,1,150
384,232,78020,1,4
312,232,78353,1,4
312,232,78520,1,4
312,232,78686,2,4,B|312:232|272:264|208:272|160:224,2,150
256,40,80686,5,4
256,40,80853,1,4
256,40,81020,1,4
256,40,81186,1,4
256,40,81353,2,4,B|256:40|312:80|336:184|328:272|232:344,1,300
208,264,83019,5,0
152,208,83353,1,0
96,152,83686,1,4
96,152,83853,1,4
96,152,84019,2,4,B|96:152|128:72|224:56,2,150
216,152,86019,5,0
216,152,86186,1,4
216,152,86352,1,0
216,152,86519,1,4
216,152,86686,1,0
216,152,86852,1,4
216,152,87019,1,0
288,152,87352,1,4
288,152,88019,1,4
288,304,88685,5,0
288,304,88852,1,4
288,304,89018,1,0
288,304,89185,1,4
288,304,89352,1,0
288,304,89518,1,4
288,304,89685,1,0
216,304,90018,1,4
216,304,90685,1,4
216,232,91018,5,0
216,152,91352,1,0
272,104,91685,1,4
272,104,91852,1,4
272,104,92018,1,0
344,104,92352,1,0
304,168,92685,2,4,B|304:168|304:320,1,150
184,232,94018,5,4
120,192,94351,2,4,B|120:192|55:183|24:120|80:48,2,150
128,120,96018,1,4
256,72,107344,5,2
408,72,108010,1,2
336,200,108677,1,0
264,200,109010,1,0
296,264,109343,1,0
216,264,109677,1,2
176,264,109843,1,0
136,264,110010,1,2
176,120,110676,1,0
296,32,111343,5,2
296,72,111510,1,0
296,112,111676,1,2
368,112,112010,1,2
368,72,112176,1,0
368,32,112343,1,2
368,72,112510,1,0
368,112,112676,1,2
368,264,113343,5,4
296,264,113676,1,0
328,200,114009,1,4
296,128,114343,1,0
368,128,114676,1,4
328,200,115009,1,0
328,200,115176,1,0
328,200,115343,2,2,B|328:200|246:247|136:184,1,150
112,192,116343,6,2,B|112:192|72:136|162:86|96:40,1,150
184,48,117342,1,0
240,96,117676,2,2,B|240:96|256:120|232:128|248:152,2,37.5
392,96,118676,5,4
392,248,119342,2,0,B|392:248|296:288|232:208|144:256,1,225
169,245,120675,1,0
208,184,121009,1,0
168,120,121342,1,0
240,120,121675,1,2
264,88,121842,1,0
296,104,122009,1,2
320,72,122175,1,0
352,88,122342,1,2
376,56,122508,1,0
392,128,122842,6,0,B|392:128|392:192,1,37.5
392,200,123175,1,0
352,200,123342,1,0
312,200,123508,1,0
312,240,123675,2,2,B|312:240|318:284|240:296,1,75
224,288,124175,1,0
152,288,124508,5,0
152,248,124676,1,0
152,208,124842,1,0
152,168,125009,1,2
152,128,125176,1,2
152,88,125342,1,0
152,48,125509,1,0
272,48,125841,6,2,B|272:48|328:32,1,37.5
336,64,126175,2,2,B|336:64|360:88,1,37.5
352,128,126508,2,2,B|352:128|312:160,1,37.5
296,176,126841,1,0
296,216,127008,1,0
336,216,127175,2,2,B|336:216|376:216,7,37.5
360,288,128674,5,4
360,288,128841,1,4
360,288,129008,1,4
248,288,129508,5,0
248,248,129674,1,0
248,208,129841,1,0
248,168,130008,1,0
248,128,130174,1,2
248,88,130341,1,2
248,48,130508,1,2
248,8,130674,1,2
112,64,131341,5,0
112,104,131507,1,0
112,144,131674,1,0
112,184,131841,1,0
112,224,132007,1,0
176,184,132341,5,2
240,224,132674,5,0
240,184,132841,1,0
240,144,133007,1,0
240,104,133174,1,0
240,64,133341,1,4
368,144,134007,5,0
416,200,134341,1,0
368,256,134674,1,0
312,200,135007,2,2,B|312:200|264:224|224:192,1,75
160,200,135674,1,0
160,200,136007,1,0
232,72,136674,5,0
272,72,136840,1,2
256,104,137007,1,0
256,176,137340,1,0
328,176,137673,1,0
328,248,138007,1,0
352,280,138173,1,2
312,280,138340,1,0
328,352,138673,1,0
184,320,139340,5,2
216,296,139507,1,2
176,280,139673,1,0
168,240,139840,1,0
136,264,140007,1,0
136,224,140173,2,4,B|136:224|104:192|80:88,1,112.5
80,88,140840,1,0
112,72,141006,1,0
144,88,141173,1,2
176,72,141340,1,2
328,80,142006,5,2
352,104,142173,1,2
376,128,142340,1,0
352,152,142506,1,0
320,168,142673,1,0
280,168,142840,1,2
248,152,143006,1,2
216,128,143173,1,0
248,104,143340,1,0
280,80,143506,1,0
296,112,143673,1,0
296,152,143839,1,0
296,192,144006,1,2
296,232,144173,1,2
296,272,144339,1,6
216,272,144673,5,0
144,272,145006,1,0
176,208,145339,2,0,B|176:208|216:152|152:120|192:56,1,150
256,96,146339,1,0
256,192,146672,1,0
256,192,147339,12,4,149339
152,88,150337,6,4,B|152:88|137:188|272:208,1,150
232,120,151337,1,0
240,48,151670,2,4,B|240:48|280:56|296:104,1,75
288,168,152337,1,0
288,168,152670,1,4
344,216,153003,5,4
368,240,153170,1,0
392,264,153336,1,4
312,264,153670,1,4
240,272,154003,2,4,B|240:272|224:216|160:232|152:152,1,150
184,88,155003,5,0
240,40,155336,1,0
264,112,155670,1,4
264,112,155836,1,4
264,112,156003,2,4,B|264:112|336:192,2,75
264,112,157336,1,4
264,264,158003,5,0
288,288,158169,1,4
312,312,158336,1,0
288,336,158503,1,4
248,336,158669,2,4,B|248:336|153:340|41:249|48:128,1,300
256,88,160669,5,4
360,192,161002,1,4
256,296,161336,1,4
152,192,161669,1,4
256,88,162002,2,4,B|256:88|256:256,1,150
176,280,163335,5,4
176,128,163669,1,4
328,128,164002,1,4
328,280,164335,1,4
256,144,164669,2,0,B|256:144|256:296,1,150
88,48,166002,5,4
240,48,166335,1,4
392,48,166668,1,4
400,200,167002,1,4
248,200,167335,2,4,B|248:200|72:200,1,150
368,328,168668,5,4
216,328,169001,1,4
96,232,169335,1,4
216,144,169668,1,4
368,144,170001,2,4,B|368:144|368:304,1,150
160,32,189994,6,0,B|160:32|240:32,7,75
312,32,191327,2,4,B|312:32|384:32,8,75
40,24,193326,6,6,C|40:24|110:372|520:-16,1,900
96,312,195993,6,2,C|96:312|248:32|280:368|256:216|168:192,1,900
352,112,198659,6,2,C|352:112|190:36|103:120|104:274|225:313|272:216|225:174|352:216,1,900
136,40,201326,6,2,C|136:40|352:40|264:72|264:280|147:300|392:320,1,900
72,336,203992,6,6,C|72:336|168:40|288:352|384:80,1,900
240,296,206658,6,6,C|240:296|392:16|424:352|400:200|312:176,1,900
224,248,209325,6,6,C|224:248|216:8|288:8|256:264,1,600
232,344,211324,1,6
256,192,211991,12,6,213991
