osu file format v5

[General]
AudioFilename: 01 I Hope You Die.mp3
AudioLeadIn: 0
PreviewTime: -1
Countdown: 1
SampleSet: Normal
StackLeniency: 0.7
Mode: 0
LetterboxInBreaks: 1
EditorBookmarks: 32771,194771

[Metadata]
Title:I Hope You Die
Artist:Bloodhound Gang
Creator:Seibei4211
Version:Rolled
Source:
Tags:

[Difficulty]
HPDrainRate:6
CircleSize:5
OverallDifficulty:6
SliderMultiplier:2
SliderTickRate:2

[Events]
//Background and Video events
0,0,"I Hope You Die - Bloodhound Gang.jpg"
//Break Periods
2,92814,94901
2,98810,100898
2,122967,134243
//Storyboard Layer 0 (Background)
//Storyboard Layer 1 (Failing)
//Storyboard Layer 2 (Passing)
//Storyboard Layer 3 (Foreground)
//Storyboard Sound Samples
//Background Colour Transformations
3,100,138,137,216

[TimingPoints]
2773,375,4,1,0,100,1

[HitObjects]
96,64,33335,1,0
88,264,33710,1,0
264,168,34085,1,0
360,168,34273,1,6
496,24,34648,2,2,L|408:104|464:168,1,200
464,264,35210,1,4
264,264,35585,1,4
104,40,36335,5,4
104,240,36710,1,0
280,152,37085,1,0
336,72,37273,1,4
408,256,37648,1,0
408,352,37835,1,0
304,352,38023,1,0
304,256,38210,1,6
112,304,38585,1,6
424,56,39335,5,0
488,128,39523,1,0
424,200,39710,1,0
488,272,39898,1,0
424,352,40085,1,0
352,280,40273,2,4,L|240:280|240:128,2,200
352,176,41210,1,0
208,40,41585,1,6
64,304,42148,6,0,L|212:305|256:200,1,200,2|6
328,264,42710,1,0
328,64,43085,1,4
448,304,43648,6,0,L|300:305|256:200,1,200,2|6
184,264,44210,1,0
184,64,44585,1,4
392,192,45335,5,4
392,192,45710,1,0
288,192,45898,1,0
288,88,46085,1,0
184,80,46273,1,6
168,280,46648,2,4,L|168:344|240:344,2,100
168,176,47210,2,0,L|40:176,1,100
64,72,47585,1,4
360,72,48148,6,4,L|480:72|480:160,1,200
376,152,48710,1,0
376,352,49085,1,0
152,72,49648,6,4,L|32:72|32:160,1,200
136,152,50210,1,0
136,352,50585,1,0
256,32,51148,5,4
256,232,51523,1,0
440,144,51898,1,0
440,240,52085,1,0
368,304,52273,1,4
168,304,52648,1,0
48,144,53023,2,4,L|48:112|88:112|88:64,1,100
288,88,53585,1,0
464,328,54148,6,0,L|304:328|304:264|160:264,1,300
40,192,55085,2,0,L|144:192|142:88,1,200
208,24,55648,2,0,L|416:24,1,200
408,120,56210,2,0,L|408:176|480:176|480:328,1,200
376,248,56773,5,0
376,248,56960,1,0
224,248,57148,1,12
304,64,57523,5,0
304,64,57710,1,0
152,64,57898,1,12
32,224,58273,5,0
32,224,58460,1,0
128,336,58648,1,12
312,256,59023,5,0
312,256,59210,1,0
312,104,59398,1,12
112,104,59773,5,0
112,104,59960,1,0
112,256,60148,1,12
304,192,60523,5,0
304,192,60710,1,0
456,192,60898,1,12
376,80,61273,6,0,L|376:152,8,50
224,80,62210,5,12
224,80,62398,1,12
96,240,62773,5,12
248,240,62960,1,0
248,240,63148,1,0
384,88,63523,5,12
424,232,63710,1,0
424,232,63898,1,0
256,120,64273,5,12
112,72,64460,1,0
112,72,64648,1,0
144,272,65023,5,12
256,368,65210,1,0
256,368,65398,1,0
344,192,65773,5,12
416,64,65960,1,0
416,64,66148,1,0
216,64,66523,5,12
112,176,66710,1,0
112,176,66898,1,0
216,344,67273,6,0,B|336:320,1,100
368,240,67648,2,0,B|376:112,1,100
288,88,68023,2,0,B|240:72,2,50
240,176,68398,1,12
80,336,69335,6,0,B|8:256|88:128,1,200
152,216,69898,1,0
224,152,70085,1,0
136,96,70273,2,0,B|232:16|376:56,1,200
416,16,70835,2,0,B|448:56|384:120,1,100
296,104,71210,2,0,B|256:136|328:216,1,100
400,160,71585,1,4
160,344,72148,5,0
256,312,72335,2,0,B|272:248|192:224,1,100
112,256,72710,2,0,B|56:224|96:160,1,100
192,160,73085,1,0
288,152,73273,2,0,B|314:178|373:117|416:168,1,100
360,248,73648,1,0
456,232,73835,1,0
416,328,74023,2,4,B|520:376,3,100
160,32,75335,5,0
360,32,75710,1,0
256,208,76085,1,0
224,304,76273,2,0,B|224:368|152:368,1,100
288,304,76648,2,0,B|288:368|360:368,1,100
256,248,77023,2,4,B|116:172|453:151|256:24,1,300
64,248,78148,5,0
120,168,78335,1,0
176,248,78523,2,2,B|288:248,1,100
336,168,78898,1,0
280,88,79085,1,0
224,168,79273,2,2,B|224:272,1,100
320,296,79648,1,2
408,256,79835,1,2
440,160,80023,2,4,B|400:192|368:104,1,100
72,160,80585,2,4,B|112:192|144:104,1,100
352,352,81335,5,0
416,280,81523,2,4,B|152:280,1,200
280,200,82085,1,0
216,128,82273,2,4,B|480:128,1,200
360,40,82835,1,0
256,40,83023,2,4,B|144:40|96:88|120:272|80:304|0:288,1,400
0,184,83960,5,2
0,80,84148,1,0
0,184,84335,1,0
0,280,84523,2,0,B|112:280,1,100
96,176,84898,2,0,B|224:176,1,100
192,72,85273,2,4,B|304:72,1,100
352,152,85648,2,0,B|264:216,1,100
360,256,86023,1,0
416,336,86210,2,4,B|168:336,1,200
48,304,87148,5,0
48,200,87335,1,0
48,96,87523,1,8
48,96,87710,1,8
48,96,88085,1,8
464,96,88648,1,0
464,296,89023,1,8
464,296,89210,1,8
464,296,89585,1,8
304,40,90148,5,2
208,72,90335,1,2
304,104,90523,1,2
208,136,90710,1,2
304,168,90898,1,2
208,200,91085,1,2
208,344,91648,5,6
304,312,91835,1,6
208,280,92023,1,6
304,248,92210,1,6
256,56,92585,1,6
48,32,95773,5,2
48,344,96148,1,2
176,192,96523,2,2,B|280:192,2,100
72,192,97085,1,0
176,192,97273,2,6,B|408:192,1,200
480,48,98023,5,6
480,144,98210,1,4
480,240,98398,1,6
480,336,98585,1,4
56,24,101773,5,2
456,24,102148,1,2
256,144,102523,2,2,B|256:248,2,100
256,40,103085,1,0
256,144,103273,2,6,B|256:352,1,200
56,192,104023,5,6
256,32,104398,1,4
464,192,104773,2,0,B|360:280,1,100
328,176,105148,1,0
368,88,105335,1,0
272,104,105523,2,0,B|144:112,1,100
96,176,105898,2,0,B|96:320,1,100,0|0
184,232,106273,1,0
272,280,106460,1,0
352,224,106648,2,0,B|432:152|280:88,2,100
448,192,107210,1,0
448,288,107398,1,0
448,288,107585,1,0
344,296,107773,6,0,B|264:200,1,100
376,192,108148,2,0,B|296:104,1,100
232,48,108523,2,0,B|152:112,1,100
248,144,108898,2,0,B|168:208,1,100
96,272,109273,2,0,B|184:352|184:352|256:264|256:264|336:320|464:240,1,400
416,168,110210,1,0
416,64,110398,1,0
328,112,110585,1,0
224,112,110773,6,0,B|112:112,1,100
24,112,111148,2,0,B|136:112,1,100
123,13,111523,2,0,B|123:133,1,100
123,213,111898,2,0,B|123:101,1,100
283,109,112273,6,0,B|383:109,1,100
483,109,112648,2,0,B|383:109,1,100
384,208,113023,2,0,B|384:108,1,100
384,8,113398,2,0,B|384:108,1,100
256,344,113773,6,0,B|256:232,1,100
200,168,114148,2,0,B|256:80,1,100
313,165,114523,2,0,B|249:77,1,100
256,184,114898,1,0
256,184,115085,1,0
232,32,115273,6,0,B|96:32|55:192|96:352|256:352|416:352|446:188|416:32|264:32,1,800,0|4
136,248,117710,5,2
136,248,118085,1,2
136,248,118273,2,4,B|192:128|192:128|376:367|336:8,1,500,4|6
337,23,119585,1,2
337,23,119773,2,4,B|184:24|56:24|56:192|56:344|192:312,1,500,4|6
142,313,121085,1,2
143,313,121273,2,4,B|269:340|136:160|335:121,1,300
432,128,122023,1,0
368,200,122210,2,0,B|264:136,1,100,0|0
192,96,122585,1,0
256,24,122773,5,4
160,128,135148,5,0
224,208,135335,1,0
288,128,135523,2,4,B|411:121|456:304,1,200
360,304,136085,1,0
160,312,136460,1,0
72,256,136648,2,2,B|96:160|192:216|216:56,1,200
104,112,137210,2,6,B|114:216|210:160|234:256,1,200
440,80,137960,5,0
360,144,138148,1,0
360,240,138335,1,0
432,312,138523,1,0
496,240,138710,1,0
496,144,138898,1,2
432,192,139085,1,2
432,192,139273,2,4,B|184:192,1,200
128,192,139835,5,0
24,192,140023,2,4,B|288:192,1,200
256,96,140585,1,12
416,336,141148,5,0
416,48,141523,1,0
352,128,141710,1,0
416,200,141898,1,0
344,272,142085,1,0
248,304,142273,2,0,B|152:368|40:216,1,200
168,248,142835,1,0
248,184,143023,2,0,B|152:120|40:272,1,200
168,248,143585,1,0
256,32,144148,5,0
208,336,144523,2,0,B|312:336,1,100
304,328,144898,2,0,B|204:328,1,100
208,320,145273,2,0,B|312:320,1,100
304,312,145648,2,0,B|204:312,1,100
208,304,146023,2,0,B|312:304,1,100
256,112,146585,1,0
256,208,146773,6,0,B|256:288,2,50
352,208,147148,1,0
424,144,147335,1,0
352,72,147523,2,0,B|352:16,2,50
248,72,147898,1,0
160,120,148085,1,0
88,192,148273,2,0,B|48:232,2,50
136,280,148648,1,0
224,328,148835,1,0
320,288,149023,2,0,B|264:232,2,50
408,240,149398,1,0
320,192,149585,1,0
232,136,149773,2,0,B|256:72,2,50
320,96,150148,1,0
416,96,150335,1,0
456,184,150523,2,0,B|488:248,2,50
352,192,150898,1,0
288,264,151085,1,0
200,296,151273,6,4,B|136:296,2,50
200,192,151648,2,4,B|136:192,2,50,4|0|0
200,88,152023,2,4,B|136:88,2,50
328,192,152398,5,0
328,192,152585,1,0
328,88,152773,6,2,B|256:24|144:72,1,150
187,57,153148,1,0
96,96,153335,1,0
96,192,153523,6,2,B|168:256|280:208,1,150
237,223,153898,1,0
328,184,154085,1,0
392,104,154273,6,2,B|456:176|408:288,1,150
423,245,154648,1,0
384,336,154835,1,0
280,336,155023,6,2,B|216:264|264:152,1,150
249,195,155398,1,0
288,104,155585,1,0
184,104,155773,6,2,B|104:160|176:264|80:232,1,150
122,235,156148,1,0
24,240,156335,1,0
40,144,156523,2,2,B|88:56|184:40,1,150
150,48,156898,1,0
248,48,157085,1,0
336,96,157273,6,4,B|336:240,1,100
256,352,157648,2,4,B|256:248,1,100
176,96,158023,2,4,B|176:240,1,100
256,24,158398,1,4
424,200,159335,5,2
288,344,159710,1,2
136,128,160085,1,4
208,192,160273,1,4
304,192,160460,1,4
384,128,160648,1,4
208,40,161023,6,12,B|336:12|320:196|456:188,1,300
176,160,161960,5,0
176,248,162148,1,0
272,248,162335,1,0
368,248,162523,1,8
456,208,162710,1,0
464,104,162898,1,0
376,152,163085,1,0
272,152,163273,1,12
272,152,163648,1,4
80,200,164023,2,4,B|32:296|64:336|133:336|134:264|134:264|134:336|192:336|234:282|184:192,1,400
376,128,165148,5,0
456,184,165335,1,0
376,240,165523,2,2,B|104:240,1,200
128,328,166085,1,0
232,320,166273,2,4,B|232:88,1,200
136,80,166835,1,0
160,176,167023,2,2,B|400:176,1,200
464,216,167585,1,14
256,40,168148,5,0
256,240,168523,2,0,B|280:312|392:304,2,100
160,208,169085,1,0
56,208,169273,2,4,B|48:96|256:24,1,200
200,152,169835,1,0
296,176,170023,1,0
392,136,170210,2,0,B|488:200|424:360,1,200,0|12
136,312,171148,6,0,B|176:224|280:312|280:144,1,200
184,160,171710,1,0
272,112,171898,1,0
184,72,172085,1,0
96,120,172273,2,0,B|-48:266|336:328,1,400
408,272,173210,1,0
336,80,173585,1,0
34,157,174148,6,2,B|170:117|266:221,1,200
224,184,174710,1,4
224,184,175085,1,4
480,152,175648,6,2,B|344:112|248:216,1,200
290,179,176210,1,4
290,179,176585,1,4
432,344,177148,5,0
368,272,177335,1,0
464,240,177523,2,0,B|464:136,1,100
376,104,177898,1,0
408,24,178085,2,0,B|264:0|104:16|48:24,1,300
56,104,178835,1,0
120,184,179023,1,0
152,280,179210,2,0,B|272:328|360:208,1,200
256,192,179960,12,4,182585
152,56,183148,1,4
360,128,183523,1,4
152,200,183898,1,4
360,272,184273,1,4
152,336,184648,1,4
256,136,185023,1,4
256,136,185210,1,4
256,352,185585,2,0,B|256:248,1,100,0|2
256,32,186148,1,2
176,248,186523,6,2,B|288:152,2,100
96,320,187085,1,2
176,248,187273,2,2,B|368:80,1,200
456,224,188023,1,2
344,224,188210,1,2
344,336,188398,1,2
456,336,188585,1,2
360,56,189148,5,4
152,128,189523,1,4
360,200,189898,1,4
152,272,190273,1,4
360,336,190648,1,4
256,136,191023,1,4
256,136,191210,1,4
256,352,191585,2,4,B|256:248,1,100,0|2
256,32,192148,1,6
336,248,192523,6,2,B|224:152,2,100
416,320,193085,1,2
336,248,193273,2,2,B|144:80,1,200
56,224,194023,1,6
256,192,194398,1,6
456,224,194773,1,6
