osu file format v5

[General]
AudioFilename: 01 I Hope You Die.mp3
AudioLeadIn: 0
PreviewTime: -1
Countdown: 0
SampleSet: Normal
StackLeniency: 0.5
Mode: 0
LetterboxInBreaks: 1
EditorBookmarks: 33327,194765

[Metadata]
Title:I Hope You Die
Artist:Bloodhound Gang
Creator:Seibei4211
Version:Normal
Source:
Tags:

[Difficulty]
HPDrainRate:5
CircleSize:5
OverallDifficulty:5
SliderMultiplier:1.1
SliderTickRate:1

[Events]
//Background and Video events
0,0,"I Hope You Die - Bloodhound Gang.jpg"
//Break Periods
2,62590,68127
2,86777,92090
2,110402,122127
2,140777,146090
//Storyboard Layer 0 (Background)
//Storyboard Layer 1 (Failing)
//Storyboard Layer 2 (Passing)
//Storyboard Layer 3 (Foreground)
//Storyboard Sound Samples
//Background Colour Transformations
3,100,163,162,255

[TimingPoints]
2773,375,4,1,0,70,1
56765,375,4,2,0,80,1
62765,375,4,1,0,70,1
146765,375,4,2,0,80,1
158765,375,4,1,0,70,1

[HitObjects]
345,128,33335,1,0
235,128,33710,1,0
234,237,34085,2,0,B|171:237,1,55
99,160,34648,1,0
206,182,35023,2,0,B|273:182,1,55
370,180,35585,1,4
182,65,36335,6,0,B|144:90|131:121|125:170,1,110
237,157,37085,2,0,B|305:157,1,55
384,96,37648,2,0,B|336:47,3,55
235,65,38585,1,4
83,224,39335,6,0,B|134:281|188:287,1,110
282,289,40085,2,0,B|339:232,1,55
255,161,40648,1,0
165,96,41023,2,0,B|223:96,1,55
308,161,41585,1,4
155,225,42148,5,0
244,289,42523,1,0
279,247,42710,2,0,B|181:172,1,110,0|4
355,161,43648,5,0
245,160,44023,1,0
190,160,44210,2,0,B|190:103|190:103|266:103,1,110,0|4
60,225,45335,6,0,B|87:164|127:116,1,110
142,81,45898,2,0,B|142:16,2,55,0|0|4
217,161,46648,2,0,B|295:161,1,55
272,216,47023,2,4,B|202:216,1,55
161,216,47398,2,4,B|161:141,1,55
121,321,48148,6,4,B|192:312|228:278,1,110
266,250,48710,1,4
158,224,49085,1,4
122,62,49648,5,4
232,62,50023,2,4,B|299:62,1,55
376,126,50585,1,4
244,225,51148,5,0
134,225,51523,1,0
186,321,51898,2,0,B|186:256,2,55,0|0|4
296,321,52648,1,4
384,255,53023,2,0,B|408:308|416:348|455:170,1,165,0|4
299,127,54148,5,0
210,192,54523,2,0,B|154:248,1,55,0|4
278,256,55085,1,0
247,150,55460,2,0,B|201:104,1,55,0|4
291,182,56023,2,0,B|339:229,1,55,0|4
309,112,56585,1,4
144,127,57140,5,4
95,225,57515,2,0,B|50:225,2,27.5
150,225,57890,1,4
360,289,58640,5,4
270,225,59015,2,0,B|269:176,2,27.5
270,280,59390,1,4
391,96,60140,5,4
302,160,60515,2,0,B|352:160,2,27.5
246,160,60890,1,4
156,224,61265,6,0,B|105:224,10,27.5
211,224,62390,5,4
416,96,69327,5,0
327,161,69702,1,0
217,161,70077,2,0,B|157:161,1,55
107,256,70640,1,0
106,201,70827,2,0,B|40:201,2,55
216,202,71577,1,4
408,96,72327,5,0
302,128,72702,2,0,B|231:128,1,55
202,160,73077,2,0,B|123:160,2,55,0|4|0
246,192,73640,2,0,B|316:192,2,55,4|0|4
201,223,74202,2,0,B|135:223,2,55,4|4|4
410,289,75327,5,0
355,193,75702,2,0,B|316:213|303:237|299:285,1,110
244,282,76265,2,0,B|242:231|221:208|184:188,1,110
137,95,77015,2,4,B|212:95,1,55
137,190,77577,2,4,B|214:190,1,55
283,128,78140,6,0,B|320:151|342:179|351:214,1,110,0|4
351,266,78702,2,0,B|274:266,1,55,0|0
240,266,79077,2,0,B|188:214,1,55,0|4
161,188,79452,2,0,B|210:139,1,55
239,110,79827,2,0,B|290:161,2,55,0|4|4
346,86,80577,2,4,B|390:130,1,55
234,192,81327,6,4,B|234:257,1,55
178,248,81702,2,4,B|116:248,1,55
124,192,82077,1,0
124,136,82265,2,4,B|186:136,1,55
179,191,82640,2,0,B|256:191,1,55
289,192,83015,1,4
322,148,83202,2,0,B|348:164|367:192|349:228|307:245,1,110,0|4
181,321,84140,6,4,B|132:272,1,55
104,322,84515,2,4,B|152:274,1,55
142,227,84890,1,0
142,172,85077,2,0,B|142:102,2,55,0|4|4
187,202,85640,2,0,B|262:202,1,55,4|0
297,202,86015,1,4
323,249,86202,2,0,B|341:233|353:198|350:175|318:146,1,110,0|4
352,96,93140,5,4
242,96,93515,1,4
153,160,93890,1,4
241,225,94265,1,4
350,225,94640,1,4
260,160,95015,2,0,B|320:160,1,55
205,160,95577,2,0,B|139:160,1,55,0|4
97,256,96140,5,4
202,224,96515,2,0,B|268:224,2,55
200,278,97077,2,0,B|268:278,1,55,0|4
351,224,97640,5,4
295,128,98015,2,0,B|361:128,2,55
240,128,98577,2,0,B|177:128,1,55,0|4
95,192,99140,5,4
183,256,99515,1,4
272,192,99890,1,4
162,192,100265,1,4
214,95,100640,1,4
323,96,101015,2,0,B|374:147,1,55
441,211,101577,2,0,B|395:257,1,55,0|4
292,257,102140,5,4
238,161,102515,2,0,B|238:102,2,55
193,192,103077,2,0,B|124:192,1,55,0|4
193,96,103640,5,4
303,96,104015,1,4
303,206,104390,1,4
193,207,104765,1,4
94,256,105140,5,4
199,288,105515,2,0,B|267:288,1,55,0|4
359,256,106077,2,0,B|359:185,2,55
414,257,106640,5,4
416,147,107015,2,0,B|416:90,1,55,0|4
306,95,107577,2,0,B|366:95,2,55
250,96,108140,1,4
144,127,108515,2,0,B|144:192,1,55,0|4
245,224,109077,2,0,B|317:224,2,55
189,224,109640,5,4
244,128,110015,2,0,B|304:128,1,55,0|4
128,128,123327,5,0
232,161,123702,1,0
337,128,124077,2,0,B|401:128,1,55
281,128,124640,1,4
171,128,125015,2,0,B|96:128,1,55
225,129,125577,1,4
170,224,125952,5,0
225,225,126140,2,0,B|292:225,2,55,0|0|4
195,271,126702,2,0,B|128:271,1,55
96,237,127077,2,0,B|96:173,1,55,0|4
138,147,127452,1,0
193,147,127640,2,0,B|268:147,3,55,0|0|4|4
320,64,128577,1,4
422,193,129140,6,0,B|340:193,1,55
322,160,129515,2,4,B|255:160,1,55,4|4
162,193,130077,1,4
314,256,130640,6,0,B|244:256,1,55
257,200,131015,2,0,B|195:200,1,55,4|4
203,255,131390,2,4,B|131:255,1,55
101,96,132140,6,0,B|178:96,1,55
211,96,132515,2,0,B|285:97|312:109|333:120|334:122,1,110,0|4
364,144,133077,2,0,B|439:144,3,55,4|4|0|4
343,224,134015,2,0,B|270:224,1,55
182,191,134577,1,4
283,321,135140,6,0,B|350:321,2,55
227,320,135702,2,0,B|182:308|155:282|144:248,1,110,4|4
111,148,136452,1,4
108,92,136640,2,4,B|139:76|169:69,1,55
213,60,137015,1,4
267,57,137202,2,0,B|321:54|390:84,1,110,0|4
301,160,137952,6,0,B|244:217,1,55,0|4
214,227,138327,1,0
158,224,138515,2,0,B|80:224,1,55,4|0
103,168,138890,2,0,B|103:107,1,55,0|4
103,57,139265,2,0,B|151:62|175:97|181:134,1,110,4|4
220,162,139827,1,0
266,132,140015,2,4,B|314:84,1,55
391,160,140577,1,4
97,192,147140,5,4
187,129,147515,2,0,B|223:93,2,27.5
140,159,147890,1,4
359,160,148640,5,4
307,257,149015,2,0,B|356:257,2,27.5
251,257,149390,1,4
356,64,150140,5,4
266,128,150515,2,0,B|266:78,2,27.5
321,128,150890,1,4
267,224,151265,6,0,B|222:224,10,27.5
322,224,152390,5,4
111,160,153140,5,4
166,64,153515,2,0,B|121:64,2,27.5
110,63,153890,1,4
287,192,154640,5,4
177,192,155015,2,0,B|228:192,2,27.5
232,192,155390,1,4
52,319,156140,5,4
108,224,156515,2,0,B|108:268,2,27.5
107,168,156890,1,4
209,128,157265,6,0,B|209:88,10,27.5
210,183,158390,5,4
448,320,159327,5,0
391,225,159702,1,0
448,130,160077,2,0,B|448:53,2,55
448,185,160640,1,4
338,187,161015,1,0
283,187,161202,2,0,B|222:199|160:168,1,110,4|4
75,128,161952,5,0
130,128,162140,2,0,B|130:206,1,55,4|0
74,183,162515,2,0,B|74:248,1,55,4|0
129,237,162890,2,0,B|197:237,1,55
239,236,163265,1,4
318,160,163640,1,4
227,96,164015,2,4,B|305:96,1,55
391,95,164577,1,4
257,192,165140,5,0
212,224,165327,2,0,B|144:224,2,55,0|4|0
257,254,165890,2,0,B|325:254,1,55,4|0
359,225,166265,1,4
448,160,166640,1,4
342,128,167015,2,4,B|264:128,1,55
177,128,167577,1,4
141,289,168140,5,4
246,257,168515,1,0
290,224,168702,2,0,B|340:274,2,55,0|4|0
248,186,169265,1,4
153,128,169640,1,4
242,64,170015,2,4,B|313:64,1,55
386,128,170577,1,4
425,288,171140,6,0,B|360:296|316:276|304:269,1,110,0|4
265,256,171702,1,0
214,232,171890,2,0,B|192:261|163:281,2,55,0|0|4
251,192,172452,2,0,B|295:147,1,55,0|4
194,96,173015,2,4,B|124:96,1,55
85,192,173577,1,4
236,256,174140,5,4
180,161,174515,2,4,B|261:161,1,55
324,96,175077,1,4
428,223,175640,2,4,B|351:223,2,55
474,193,176202,2,4,B|465:160|432:139|373:143,1,110
240,63,177140,6,4,B|186:117,1,55
158,136,177515,1,0
119,175,177702,2,0,B|169:205|169:205|211:163,1,110,0|4
353,93,178640,2,0,B|405:145,2,55,4|0|4
306,62,179202,2,4,B|272:79|255:117|257:160,1,110
172,224,179952,6,0,B|238:224,1,55,0|4
282,224,180327,2,0,B|308:240|312:271|308:276,1,55,0|4
288,320,180702,2,0,B|213:320,2,55,0|4|0
343,320,181265,1,4
433,256,181640,1,4
342,193,182015,2,4,B|263:193,1,55
198,127,182577,1,4
97,257,183140,5,4
206,256,183515,1,4
115,193,183890,1,4
224,192,184265,1,4
129,135,184640,1,4
238,129,185015,2,0,B|299:129,1,55
403,129,185577,2,0,B|403:200,1,55,0|4
300,225,186140,5,4
195,191,186515,2,0,B|124:191,2,55
241,160,187077,2,4,B|311:160,1,55,0|4
207,94,187640,5,4
119,160,188015,2,0,B|83:173|101:223,2,55
170,179,188577,2,4,B|180:221|128:228,1,55,0|4
236,289,189140,5,4
325,224,189515,1,4
234,161,189890,1,4
144,224,190265,1,4
254,224,190640,1,4
343,160,191015,2,0,B|384:119,1,55
274,96,191577,2,0,B|199:96,1,55,0|4
113,128,192140,5,4
165,224,192515,2,0,B|93:224,2,55
209,256,193077,2,0,B|209:325,1,55,0|4
317,288,193640,5,4
374,194,194015,1,4
264,192,194390,1,4
320,97,194765,1,4
