osu file format v5

[General]
AudioFilename: 01 I Hope You Die.mp3
AudioLeadIn: 0
PreviewTime: -1
Countdown: 0
SampleSet: Normal
StackLeniency: 0.5
Mode: 0
LetterboxInBreaks: 1
EditorBookmarks: 14773,194765

[Metadata]
Title:I Hope You Die
Artist:Bloodhound Gang
Creator:Seibei4211
Version:Hard
Source:
Tags:

[Difficulty]
HPDrainRate:5
CircleSize:5
OverallDifficulty:6
SliderMultiplier:1.4
SliderTickRate:1

[Events]
//Background and Video events
0,0,"I Hope You Die - Bloodhound Gang.jpg"
//Break Periods
2,26964,32277
2,62590,68277
2,86777,92090
2,110589,122277
2,140777,146090
//Storyboard Layer 0 (Background)
//Storyboard Layer 1 (Failing)
//Storyboard Layer 2 (Passing)
//Storyboard Layer 3 (Foreground)
//Storyboard Sound Samples
//Background Colour Transformations
3,100,163,162,255

[TimingPoints]
2773,375,4,1,0,70,1
56765,375,4,2,0,80,1
62765,375,4,1,0,70,1
146765,375,4,2,0,80,1
158765,375,4,1,0,70,1

[HitObjects]
97,96,14773,5,4
152,96,14960,1,4
208,96,15148,2,0,B|292:96,2,70
206,151,15710,2,0,B|128:151,2,70,0|0|4
262,151,16273,5,4
317,151,16460,1,4
373,151,16648,2,0,B|373:79,2,70
371,206,17210,2,4,B|371:292,2,70,4|0|4
316,205,17773,5,4
260,205,17960,1,4
203,206,18148,2,0,B|169:177|128:179,1,70
83,180,18523,1,0
107,230,18710,2,0,B|138:251|183:256,1,70,0|0
228,255,19085,1,4
284,255,19273,5,4
339,255,19460,1,4
395,255,19648,2,0,B|419:288|393:321,2,70
396,199,20210,2,0,B|417:163|393:131,2,70,0|0|4
339,199,20773,5,4
283,200,20960,1,4
226,200,21148,2,0,B|152:200,1,70
99,200,21523,1,0
99,144,21710,2,0,B|175:144,1,70
225,144,22085,1,4
281,144,22273,5,4
323,108,22460,1,4
366,143,22648,2,0,B|426:83,2,70
364,199,23210,2,0,B|419:254,2,70,0|0|4
307,200,23773,5,4
251,200,23960,1,4
252,143,24148,2,0,B|160:143,1,70
133,171,24523,1,0
181,199,24710,2,0,B|255:199,1,70
307,199,25085,1,4
363,199,25273,5,4
401,158,25460,1,4
364,115,25648,2,4,B|284:115,1,70
248,82,26023,1,4
293,49,26210,2,4,B|368:49,1,70
419,48,26585,1,4
420,104,26773,5,0
352,93,33335,6,0,B|380:127|376:173,1,70
321,143,33710,2,0,B|324:184|351:226,1,70
396,202,34085,1,0
385,257,34273,1,0
273,242,34648,1,0
209,150,35023,1,0
153,155,35210,1,0
190,260,35585,2,4,B|225:295|263:307,1,70,4|4
414,307,36335,6,0,B|425:272|417:232,1,70
369,266,36710,2,0,B|356:225|376:182,1,70
418,168,37085,1,0
437,115,37273,2,0,B|407:92|352:109,1,70
313,107,37648,1,0
259,124,37835,1,0
302,159,38023,1,0
247,171,38210,2,0,B|195:223,1,70
168,172,38585,2,4,B|131:177|188:229|118:233,1,70,4|0
309,224,39335,6,0,B|366:167,1,70
399,212,39710,2,0,B|343:268,1,70
295,277,40085,1,0
312,223,40273,2,0,B|376:159,1,70
416,161,40648,1,0
331,87,41023,5,0
292,127,41210,1,0
207,53,41585,2,4,B|264:109,1,70,4|0
144,101,42148,5,0
117,209,42523,1,0
172,209,42710,1,0
143,317,43085,1,4
311,319,43648,5,0
422,320,44023,1,0
366,320,44210,1,0
366,208,44585,1,4
141,208,45335,6,0,B|124:164|124:128|161:99|216:99,1,140
247,101,45898,1,0
290,136,46085,1,0
334,101,46273,1,0
445,99,46648,5,0
412,144,46835,1,0
450,184,47023,1,4
414,226,47210,1,4
371,188,47398,1,4
336,232,47585,1,4
336,63,48148,6,0,B|280:68|230:83|191:106,1,140
151,123,48710,1,0
63,193,49085,1,4
231,193,49648,1,0
119,195,50023,1,0
175,195,50210,1,0
145,302,50585,1,4
299,235,51148,6,0,B|335:188|316:153,1,70
267,183,51523,2,0,B|229:227|252:268,1,70
279,290,51898,1,0
334,285,52085,1,0
364,237,52273,2,0,B|384:196|378:157,1,70
378,113,52648,1,0
285,176,53023,6,0,B|262:152|319:132|287:119|279:105,2,70
228,175,53585,1,4
80,256,54148,5,4
187,288,54523,1,0
242,288,54710,1,0
349,256,55085,1,4
243,218,55460,1,0
186,218,55648,1,0
89,160,56023,1,4
144,160,56210,1,4
32,158,56585,1,4
200,160,57140,5,4
200,272,57515,2,0,B|240:272,2,35
143,273,57890,1,4
314,128,58640,5,4
314,240,59015,2,0,B|314:281,2,35
257,239,59390,1,4
117,63,60140,5,4
116,174,60515,2,0,B|64:174,2,35
172,174,60890,1,4
171,285,61265,6,0,B|171:332,3,35
199,320,61640,6,0,B|198:267,3,35
226,285,62015,6,0,B|226:338,3,35,0|0|0|0
254,320,62390,5,4
273,96,69327,6,0,B|364:96,1,70
343,96,69702,2,0,B|254:96,1,70
216,96,70077,1,0
168,125,70265,2,0,B|136:150|120:187,1,70
120,234,70640,1,0
159,273,70827,1,0
214,279,71015,1,0
265,256,71202,1,0
202,163,71577,1,4
42,320,72327,6,4,B|105:320|128:303,1,70
164,294,72702,1,0
212,264,72890,1,0
184,215,73077,1,0
231,185,73265,1,4
196,140,73452,1,0
231,185,73640,5,0
277,154,73827,1,0
322,120,74015,1,4
367,152,74202,1,0
400,106,74390,1,0
367,151,74577,5,4
175,35,75327,6,4,B|132:49|118:94,1,70
99,130,75702,2,0,B|56:176|84:222|151:223|164:175,1,140
196,163,76265,2,0,B|256:116|332:144,2,140
152,197,77202,2,4,B|127:234|152:268,1,70,4|0
198,287,77577,1,4
254,287,77765,1,4
347,225,78140,6,0,B|336:181|320:147|271:143|228:144,1,140,0|0
192,144,78702,1,0
152,183,78890,1,4
196,217,79077,1,0
238,180,79265,1,0
275,138,79452,1,0
238,180,79640,5,4
279,217,79827,1,0
323,251,80015,1,0
279,217,80202,5,4
199,137,80577,5,4
235,179,80765,1,4
358,65,81327,6,0,B|272:65,1,70,0|4
244,99,81702,2,0,B|190:153,1,70,0|0
194,204,82077,1,0
229,247,82265,2,0,B|289:187,1,70,4|0
334,197,82640,2,0,B|422:197,1,70,4|0
448,162,83015,1,4
416,116,83202,2,0,B|391:89|352:73|315:69|274:73,1,140,0|4
144,160,84140,5,4
101,196,84327,1,0
153,216,84515,1,0
204,236,84702,1,0
199,180,84890,1,4
189,125,85077,2,0,B|260:150,1,70
253,204,85452,5,0
258,259,85640,1,4
310,279,85827,1,0
306,222,86015,1,0
300,166,86202,1,4
411,167,86577,1,4
96,64,93140,5,4
208,64,93515,1,4
151,160,93890,1,4
263,160,94265,1,4
320,64,94640,1,4
377,160,95015,2,0,B|312:225,1,70
215,212,95577,2,0,B|128:212,1,70,0|4
220,128,96140,5,4
322,173,96515,1,0
277,207,96702,1,0
222,220,96890,1,0
167,206,97077,1,0
120,174,97265,1,4
226,139,97640,5,4
297,52,98015,1,0
317,103,98202,1,0
325,158,98390,1,0
303,209,98577,1,0
259,245,98765,1,4
147,245,99140,5,4
148,133,99515,1,4
260,133,99890,1,4
148,133,100265,1,4
148,245,100640,1,4
259,247,101015,2,0,B|259:175,1,70
371,177,101577,2,0,B|291:177,1,70,0|4
213,247,102140,5,4
114,193,102515,1,0
151,152,102702,1,0
203,131,102890,1,0
254,152,103077,1,0
292,192,103265,1,4
203,131,103640,5,4
112,197,104015,1,4
105,85,104390,1,4
201,28,104765,1,4
256,30,104952,5,0
307,53,105140,2,0,B|348:74|370:115,1,70
393,142,105515,1,0
340,162,105702,2,0,B|296:166|251:180,1,70
215,180,106077,1,4
160,195,106265,5,4
108,173,106452,1,4
71,130,106640,2,0,B|104:143|157:126,1,70
170,83,107015,1,0
199,130,107202,2,0,B|233:144|284:127,1,70
300,85,107577,1,4
338,125,107765,5,4
356,177,107952,1,4
319,219,108140,2,0,B|256:234|230:222,1,70
193,223,108515,1,0
139,208,108702,2,0,B|107:191|67:188,1,70
63,243,109077,1,4
117,256,109265,5,4
162,223,109452,1,4
195,178,109640,2,0,B|256:117,1,70
247,184,110015,1,0
287,145,110202,2,0,B|350:82,1,70
64,257,123327,6,0,B|125:196,1,70
120,263,123702,2,0,B|178:205,1,70
113,206,124077,1,0
153,166,124265,2,0,B|188:135|233:127,1,70
267,117,124640,2,0,B|300:100|350:112,1,70
305,156,125015,1,0
252,173,125202,1,0
184,83,125577,1,4
104,161,125952,5,4
104,217,126140,1,0
63,255,126327,1,0
104,217,126515,1,4
146,253,126702,2,0,B|87:307,2,70
188,215,127265,5,4
228,253,127452,1,0
191,295,127640,1,0
228,253,127827,1,0
267,212,128015,1,4
226,174,128202,1,4
306,95,128577,1,4
137,95,129140,5,0
192,97,129327,1,0
163,145,129515,1,0
164,200,129702,2,0,B|170:237|219:260|255:239|268:196,1,140,0|4
396,95,130640,6,0,B|328:27,2,70,0|0|4
396,151,131202,1,0
397,207,131390,2,4,B|339:265,2,70,4|0|4
286,224,132140,6,0,B|211:224,1,70
159,224,132515,1,4
160,112,132890,1,0
214,98,133077,1,0
268,83,133265,1,0
316,110,133452,1,0
365,82,133640,1,4
316,182,134015,2,0,B|223:182,1,70,4|4
246,294,134577,5,4
92,224,135140,5,0
147,224,135327,1,0
119,175,135515,1,0
152,130,135702,2,0,B|197:97|243:89|276:86|305:91,1,140,0|4
387,129,136452,5,0
341,161,136640,1,0
389,189,136827,1,0
341,219,137015,1,0
387,249,137202,1,0
292,189,137577,1,4
229,96,137952,5,0
183,129,138140,1,0
148,172,138327,1,0
104,207,138515,2,0,B|93:164|116:127,2,70,4|0|4
129,257,139077,2,0,B|162:277|212:279,1,70,0|4
305,257,139640,1,0
350,224,139827,5,0
313,181,140015,2,0,B|367:127,1,70,0|4
275,60,140577,1,4
92,96,147140,5,4
182,161,147515,2,0,B|236:161,2,35
125,161,147890,1,4
339,97,148640,5,4
339,209,149015,2,0,B|339:162,2,35
339,265,149390,1,4
121,320,150140,5,4
213,256,150515,2,0,B|176:219,2,35
254,218,150890,1,4
157,161,151265,6,0,B|157:104,3,35
185,126,151640,6,0,B|245:126,3,35
248,127,152015,6,0,B|248:179,3,35
276,162,152390,5,4
54,192,153140,5,4
111,96,153515,2,0,B|55:96,2,35
167,96,153890,1,4
281,288,154640,5,4
188,225,155015,2,0,B|188:280,2,35
188,168,155390,1,4
386,64,156140,5,4
328,160,156515,2,0,B|370:160,2,35
271,160,156890,1,4
179,224,157265,6,0,B|230:224,3,35
179,224,157640,6,0,B|235:224,3,35
179,224,158015,6,0,B|224:224,3,35
242,225,158390,5,4
460,50,159327,6,0,B|403:107,1,70,4|0
362,69,159702,2,0,B|295:136,1,70,4|0
356,152,160077,1,0
313,188,160265,1,0
270,152,160452,1,0
227,188,160640,2,0,B|289:243,1,70,4|0
224,245,161015,1,0
184,219,161202,2,0,B|137:180|178:129|220:122|245:98,1,140,0|4
282,209,161952,5,0
322,170,162140,1,0
359,211,162327,1,0
320,251,162515,1,0
282,209,162702,1,0
269,154,162890,2,0,B|183:154,1,70,4|0
200,210,163265,5,4
99,160,163640,1,4
191,97,164015,2,4,B|289:97,1,70
352,161,164577,1,4
213,256,165140,6,0,B|146:189,3,70
123,167,165890,1,0
178,167,166077,1,0
151,216,166265,1,4
263,216,166640,1,4
361,161,167015,6,0,B|337:130|406:119|342:75,1,70
258,63,167577,1,4
93,95,168140,5,4
183,160,168515,5,0
238,160,168702,1,0
286,131,168890,1,0
288,186,169077,1,0
336,156,169265,1,4
289,258,169640,5,4
182,223,170015,6,0,B|104:223,1,70,4|4
147,116,170577,1,4
306,63,171140,5,0
250,160,171515,1,0
295,127,171702,1,0
338,162,171890,1,0
382,128,172077,1,0
421,88,172265,1,4
455,131,172452,2,0,B|395:196,1,70,4|4
303,224,173015,5,0
247,224,173202,1,0
154,160,173577,1,4
105,321,174140,5,4
162,225,174515,1,4
206,191,174702,1,4
317,191,175077,1,4
151,160,175640,6,0,B|208:103,1,70
256,111,176015,2,0,B|316:171,1,70
224,82,176577,1,4
136,225,177140,5,0
191,223,177327,1,0
136,225,177515,1,0
80,225,177702,1,0
191,223,178077,1,4
345,288,178640,5,0
308,245,178827,1,0
345,203,179015,1,0
307,161,179202,2,0,B|315:128|179:140|562:116|195:113|317:89,1,140,0|4
198,63,179952,5,4
162,106,180140,1,0
147,159,180327,1,0
109,116,180515,1,4
162,106,180702,5,0
200,146,180890,1,0
238,186,181077,1,0
185,206,181265,1,4
285,256,181640,5,4
377,192,182015,2,4,B|315:130,1,70
248,62,182577,1,4
93,128,183140,5,4
149,224,183515,1,4
261,224,183890,1,4
320,128,184265,1,4
208,128,184640,1,4
201,239,185015,2,0,B|201:314,1,70
312,311,185577,2,4,B|312:231,1,70,0|4
413,192,186140,5,4
320,128,186515,1,0
275,161,186702,1,0
230,127,186890,1,0
185,161,187077,1,0
140,127,187265,1,4
85,224,187640,5,4
188,182,188015,1,0
223,138,188202,1,0
260,96,188390,1,0
223,138,188577,1,0
188,182,188765,1,4
291,224,189140,5,4
348,128,189515,1,4
240,95,189890,1,4
133,128,190265,1,4
189,224,190640,1,4
97,288,191015,2,0,B|184:288,1,70
279,288,191577,2,4,B|339:228,1,70,0|4
247,160,192140,5,4
139,128,192515,1,0
185,96,192702,1,0
241,97,192890,1,0
296,96,193077,1,0
341,128,193265,1,4
282,223,193640,5,4
188,160,194015,1,4
171,270,194390,1,4
241,182,194765,1,4
