osu file format v12

[General]
AudioFilename: Blondie - One Way Or Another.mp3
AudioLeadIn: 0
PreviewTime: -1
Countdown: 3
SampleSet: Normal
StackLeniency: 0.7
Mode: 0
LetterboxInBreaks: 1
SkinPreference:EliteBeatOsu

[Editor]
DistanceSpacing: 0.8
BeatDivisor: 8
GridSize: 32

[Metadata]
Title:One Way or Another
TitleUnicode:One Way or Another
Artist:Blondie
ArtistUnicode:Blondie
Creator:YOURS
Version:Normal
Source:
Tags:oso authentic
BeatmapID:243621
BeatmapSetID:89665

[Difficulty]
HPDrainRate:2
CircleSize:2
OverallDifficulty:2
ApproachRate:2
SliderMultiplier:3
SliderTickRate:2

[Events]
//Background and Video events
0,0,"b.jpg",0,0
//Break Periods
2,66934,76919
2,110684,133342
2,146842,163041
//Storyboard Layer 0 (Background)
//Storyboard Layer 1 (Fail)
//Storyboard Layer 2 (Pass)
//Storyboard Layer 3 (Foreground)
//Storyboard Sound Samples
//Background Colour Transformations
3,100,163,162,255

[TimingPoints]
24697,740.740740740741,4,1,0,100,1,0
24697,740.740740740741,4,1,0,100,1,0

[HitObjects]
151,254,24697,2,8,P|125:85|152:55,1,225
330,178,25721,1,2,0:0:0:0:
409,227,26093,2,8,P|438:148|337:35,1,225
257,245,27210,1,2,0:0:0:0:
360,307,27583,2,8,P|220:334|147:303,1,225
80,216,28607,5,8,0:0:0:0:
80,216,28793,1,8,0:0:0:0:
85,108,29072,1,2,0:0:0:0:
207,108,29445,1,2,0:0:0:0:
324,108,29817,1,2,0:0:0:0:
434,110,30189,1,8,0:0:0:0:
433,202,30530,6,8,P|427:296|307:300,1,225
195,223,31772,1,2,0:0:0:0:
118,186,32145,2,8,P|93:267|208:322,1,225
254,124,33122,1,2,0:0:0:0:
164,108,33448,2,8,P|265:29|403:60,1,262.5
343,138,34511,5,2,0:0:0:0:
342,137,34697,1,2,0:0:0:0:
423,206,35124,1,2,0:0:0:0:
339,287,35496,1,2,0:0:0:0:
257,208,35868,1,2,0:0:0:0:
167,269,36241,1,8,0:0:0:0:
115,177,36613,6,8,P|121:93|260:98,1,225
352,195,37644,1,2,0:0:0:0:
450,190,37917,2,8,P|452:264|297:256,1,262.5
258,59,38941,5,2,0:0:0:0:
258,59,39127,1,2,0:0:0:0:
152,120,39406,2,8,P|290:147|379:95,1,225
331,238,40430,5,2,0:0:0:0:
331,238,40617,1,2,0:0:0:0:
332,326,40989,2,4,L|148:326,3,150
143,231,42478,6,8,P|131:145|247:55,1,225
312,217,43596,1,2,0:0:0:0:
395,215,43968,2,8,P|410:115|309:61,1,225
236,126,45067,1,2,0:0:0:0:
146,156,45365,2,8,P|66:212|209:268,1,300,8|12,0:0|0:0,0:0:0:0:
287,340,46482,5,2,0:0:0:0:
430,335,46854,1,8,0:0:0:0:
441,214,47226,1,8,0:0:0:0:
449,92,47599,1,8,0:0:0:0:
325,228,48344,6,8,P|223:49|204:239,1,525
96,234,50019,2,8,P|242:350|417:209,1,412.5
356,108,51602,6,2,P|256:75|118:141,2,225
370,202,53092,2,8,P|267:356|132:201,1,450,8|12,0:0|0:0,0:0:0:0:
24,238,54581,6,2,P|46:106|263:237,1,487.5
173,190,56178,2,2,P|153:300|251:354,1,225
409,339,57197,5,10,0:0:0:0:
409,339,57567,1,10,0:0:0:0:
357,221,58122,1,8,0:0:0:0:
250,149,58678,1,2,0:0:0:0:
326,89,59048,2,8,P|102:89|152:310,1,487.5
195,213,60633,6,4,P|260:133|305:231,2,225
109,191,62122,2,10,P|326:329|395:183,1,487.5,10|14,0:0|0:0,0:0:0:0:
256,192,63889,12,14,66734,0:0:0:0:
344,190,78601,6,8,P|371:107|256:40,2,225
181,194,80159,2,8,P|106:109|197:42,2,225
150,276,81673,2,10,P|308:311|362:263,2,225
256,194,83215,5,8,0:0:0:0:
349,119,83585,1,8,0:0:0:0:
263,48,83956,1,8,0:0:0:0:
171,119,84326,1,8,0:0:0:0:
90,79,84745,6,8,P|65:165|133:264,1,187.5
363,121,85862,1,2,0:0:0:0:
452,86,86235,2,8,P|458:175|356:279,2,225
347,146,87724,2,2,P|241:47|126:147,1,300
255,162,89214,5,8,0:0:0:0:
201,251,89586,1,8,0:0:0:0:
308,251,89959,1,8,0:0:0:0:
446,162,90703,5,4,0:0:0:0:
64,162,92104,1,4,0:0:0:0:
162,180,93310,5,8,0:0:0:0:
121,99,93683,2,2,P|250:62|367:116,1,262.5
307,180,94800,1,8,0:0:0:0:
309,180,95172,1,10,0:0:0:0:
257,64,96755,5,4,0:0:0:0:
261,329,98244,1,4,0:0:0:0:
356,212,99734,6,2,P|222:152|174:206,2,225
265,232,101317,1,8,0:0:0:0:
180,207,102341,5,8,0:0:0:0:
181,208,102713,1,4,0:0:0:0:
307,224,103272,1,4,0:0:0:0:
401,146,103737,1,4,0:0:0:0:
306,122,104110,2,2,P|121:83|279:306,1,637.5,2|6,0:0|0:0,0:0:0:0:
340,293,134925,6,2,P|222:320|141:285,1,187.5
261,120,136085,1,8,0:0:0:0:
261,120,136458,1,8,0:0:0:0:
261,120,136830,1,8,0:0:0:0:
442,224,137625,6,2,P|415:156|341:103,1,150
333,223,138370,1,8,0:0:0:0:
254,63,139115,5,10,0:0:0:0:
254,63,139487,1,0,0:0:0:0:
251,154,139859,1,8,0:0:0:0:
251,154,140232,1,2,0:0:0:0:
105,197,140808,5,8,0:0:0:0:
36,244,140993,2,2,P|284:313|335:120,1,487.5
257,157,142559,1,8,0:0:0:0:
256,155,142932,1,2,0:0:0:0:
161,184,143676,5,8,0:0:0:0:
68,182,144049,2,8,P|86:122|210:61,1,187.5
224,150,145067,5,2,0:0:0:0:
305,151,145439,1,8,0:0:0:0:
256,310,146184,1,4,0:0:0:0:
259,88,164810,5,4,0:0:0:0:
363,195,165554,1,4,0:0:0:0:
258,298,166299,1,4,0:0:0:0:
145,192,167044,1,4,0:0:0:0:
258,66,167789,1,4,0:0:0:0:
260,207,168534,1,4,0:0:0:0:
123,181,169278,2,4,P|253:332|381:164,1,450
437,301,170768,5,8,0:0:0:0:
437,301,171140,1,8,0:0:0:0:
438,301,171513,1,8,0:0:0:0:
436,95,172258,1,8,0:0:0:0:
255,92,173002,1,8,0:0:0:0:
66,91,173747,5,2,0:0:0:0:
66,91,174120,1,2,0:0:0:0:
66,91,174492,1,2,0:0:0:0:
74,318,175252,1,2,0:0:0:0:
266,322,175993,1,2,0:0:0:0:
364,194,176726,6,8,L|49:195,3,300
78,84,179697,1,6,0:0:0:0:
207,86,180437,1,6,0:0:0:0:
201,299,181195,1,2,0:0:0:0:
290,298,181567,1,2,0:0:0:0:
380,299,181940,1,2,0:0:0:0:
469,299,182312,1,8,0:0:0:0:
369,187,182778,6,4,P|348:129|264:75,3,150
208,75,184174,2,4,P|153:99|143:197,3,150
70,241,185664,5,8,0:0:0:0:
148,300,186036,1,8,0:0:0:0:
236,320,186408,1,8,0:0:0:0:
322,297,186781,1,8,0:0:0:0:
389,246,187153,1,8,0:0:0:0:
459,189,187526,1,8,0:0:0:0:
412,115,187898,1,8,0:0:0:0:
337,81,188270,1,10,0:0:0:0:
252,81,188678,5,8,0:0:0:0:
252,81,189048,1,8,0:0:0:0:
257,219,189697,1,2,0:0:0:0:
257,219,189882,1,2,0:0:0:0:
257,219,190067,1,2,0:0:0:0:
437,216,190437,1,0,0:0:0:0:
433,53,191153,1,2,0:0:0:0:
351,55,191529,5,8,0:0:0:0:
274,92,191901,1,2,0:0:0:0:
202,128,192274,1,8,0:0:0:0:
131,177,192646,1,2,0:0:0:0:
131,177,193019,1,8,0:0:0:0:
198,225,193391,1,2,0:0:0:0:
270,271,193763,1,10,0:0:0:0:
346,316,194136,1,4,0:0:0:0:
256,192,194697,12,14,200283,0:0:0:0:
